osu file format v14

[General]
AudioFilename: audio.mp3
AudioLeadIn: 0
PreviewTime: 46581
Countdown: 0
SampleSet: Soft
StackLeniency: 0.5
Mode: 0
LetterboxInBreaks: 0
WidescreenStoryboard: 1

[Editor]
DistanceSpacing: 1.3
BeatDivisor: 4
GridSize: 16
TimelineZoom: 2.6

[Metadata]
Title:killy killy JOKER (TV Size)
TitleUnicode:killy killy JOKER (TV Size)
Artist:Wakeshima Kanon
ArtistUnicode:分島花音
Creator:Alexsander
Version:Hard
Source:selector infected WIXOSS
Tags:opening card game Ruko Kominato Tama naotyu-
BeatmapID:1667531
BeatmapSetID:793931

[Difficulty]
HPDrainRate:5
CircleSize:4
OverallDifficulty:7
ApproachRate:8
SliderMultiplier:1.4
SliderTickRate:1

[Events]
//Background and Video events
0,0,"bg.jpg",0,0
Video,94,"wixoss.avi"
//Break Periods
//Storyboard Layer 0 (Background)
//Storyboard Layer 1 (Fail)
//Storyboard Layer 2 (Pass)
//Storyboard Layer 3 (Foreground)
//Storyboard Sound Samples

[TimingPoints]
1332,333.333333333333,4,2,3,40,1,0
1332,-100,4,2,3,40,0,0
8665,-100,4,2,1,50,0,0
9081,-100,4,2,5,40,0,0
9331,-100,4,2,1,70,0,0
9665,-100,4,2,1,60,0,0
9831,-100,4,2,1,30,0,0
9998,-100,4,2,1,50,0,0
10331,-100,4,2,1,60,0,0
10498,-100,4,2,2,60,0,0
10831,-100,4,2,1,30,0,0
10998,-100,4,2,1,60,0,0
11165,-100,4,2,1,65,0,0
11331,-100,4,2,1,30,0,0
11498,-100,4,2,1,65,0,0
11665,-100,4,2,1,60,0,0
11748,-100,4,2,4,40,0,0
11998,-100,4,2,1,70,0,0
12331,-100,4,2,1,60,0,0
12665,-100,4,2,1,50,0,0
12998,-100,4,2,1,60,0,0
13165,-100,4,2,1,70,0,0
13498,-100,4,2,1,30,0,0
13665,-100,4,2,1,60,0,0
13831,-100,4,2,1,45,0,0
14165,-100,4,2,1,50,0,0
14665,-100,4,2,5,30,0,0
14998,-133.333333333333,4,2,5,30,0,0
17165,-133.333333333333,4,2,1,30,0,0
17248,-133.333333333333,4,2,2,30,0,0
17331,-133.333333333333,4,2,1,30,0,0
17665,-133.333333333333,4,2,5,30,0,0
19498,-133.333333333333,4,2,1,40,0,0
19665,-100,4,2,1,50,0,0
19998,-100,4,2,1,70,0,0
20331,-100,4,2,1,60,0,0
20498,-100,4,2,1,50,0,0
20998,-100,4,2,1,60,0,0
21498,-100,4,2,1,50,0,0
21665,-100,4,2,1,60,0,0
21831,-100,4,2,1,50,0,0
22331,-100,4,2,1,60,0,0
22498,-100,4,2,1,30,0,0
22665,-100,4,2,1,50,0,0
22998,-100,4,2,1,60,0,0
23165,-100,4,2,1,50,0,0
23831,-100,4,2,1,60,0,0
24165,-100,4,2,1,50,0,0
24331,-100,4,2,1,60,0,0
24498,-100,4,2,1,45,0,0
24665,-100,4,2,1,60,0,0
24831,-100,4,2,1,40,0,0
25165,-133.333333333333,4,2,5,35,0,0
25331,-133.333333333333,4,3,3,30,0,0
26665,-133.333333333333,4,3,3,30,0,0
27331,-133.333333333333,4,3,3,30,0,0
27831,-133.333333333333,4,3,3,25,0,0
27998,-133.333333333333,4,3,3,30,0,0
28331,-133.333333333333,4,3,3,30,0,0
28665,-133.333333333333,4,3,3,30,0,0
29165,-133.333333333333,4,2,4,25,0,0
29331,-133.333333333333,4,3,3,30,0,0
30498,-133.333333333333,4,3,3,25,0,0
30665,-133.333333333333,4,3,3,30,0,0
32665,-133.333333333333,4,3,3,30,0,0
33331,-100,4,2,3,50,0,0
34998,-100,4,2,1,50,0,0
35998,-100,4,2,1,70,0,0
36331,-100,4,2,1,60,0,0
36665,-100,4,2,1,30,0,0
36831,-100,4,2,1,60,0,0
37165,-100,4,2,1,50,0,0
37331,-100,4,2,1,70,0,0
37665,-100,4,2,1,60,0,0
38498,-100,4,2,1,50,0,0
38665,-100,4,2,1,70,0,0
38998,-100,4,2,1,60,0,0
39165,-100,4,2,1,70,0,0
39331,-100,4,2,1,30,0,0
39498,-100,4,2,1,70,0,0
40165,-100,4,2,1,30,0,0
40331,-100,4,2,1,60,0,0
40498,-100,4,2,1,70,0,0
40665,-100,4,2,1,30,0,0
40831,-100,4,2,1,70,0,0
40998,-100,4,2,1,60,0,0
41165,-100,4,2,1,50,0,0
41331,-100,4,2,1,70,0,0
41665,-100,4,2,1,60,0,0
41831,-100,4,2,1,30,0,0
41998,-100,4,2,1,50,0,0
42331,-100,4,2,1,60,0,0
42498,-100,4,2,1,70,0,0
42831,-100,4,2,1,40,0,0
42998,-100,4,2,1,60,0,0
43331,-100,4,2,1,50,0,0
43665,-100,4,2,1,60,0,0
43831,-100,4,2,1,50,0,0
43998,-100,4,2,1,70,0,0
44165,-100,4,2,3,60,0,0
44665,-100,4,2,3,50,0,0
44998,-100,4,2,3,60,0,0
45165,-100,4,2,3,50,0,0
45498,-100,4,2,5,60,0,0
45831,-100,4,2,5,30,0,0
45998,-100,4,2,1,50,0,0
46331,-100,4,2,1,60,0,0
46665,-100,4,2,1,80,0,1
46831,-100,4,2,3,65,0,1
46998,-100,4,2,1,80,0,1
47165,-100,4,2,3,65,0,1
47331,-100,4,2,1,80,0,1
47831,-100,4,2,3,65,0,1
47998,-100,4,2,1,80,0,1
48165,-100,4,2,3,65,0,1
48331,-100,4,2,1,80,0,1
48498,-100,4,2,3,65,0,1
48665,-100,4,2,1,80,0,1
49165,-100,4,2,1,60,0,1
49331,-100,4,2,1,80,0,1
49831,-100,4,2,3,60,0,1
49998,-100,4,2,1,80,0,1
50831,-100,4,2,3,80,0,1
50998,-100,4,2,1,80,0,1
51165,-100,4,2,3,80,0,1
51331,-100,4,2,1,80,0,1
51831,-100,4,2,1,60,0,1
51998,-100,4,2,1,80,0,1
52165,-100,4,2,3,65,0,1
52331,-100,4,2,1,80,0,1
52498,-100,4,2,3,65,0,1
52665,-100,4,2,1,80,0,1
53165,-100,4,2,3,65,0,1
53331,-100,4,2,1,80,0,1
53498,-100,4,2,3,65,0,1
53665,-100,4,2,1,80,0,1
53831,-100,4,2,3,65,0,1
53998,-100,4,2,1,80,0,1
54498,-100,4,2,1,60,0,1
54665,-100,4,2,1,80,0,1
55165,-100,4,2,3,60,0,1
55331,-100,4,2,1,80,0,1
55831,-100,4,2,3,70,0,1
55998,-100,4,2,1,80,0,1
56665,-100,4,2,1,60,0,1
56998,-100,4,2,1,80,0,1
57081,-100,4,2,1,60,0,1
57331,-100,4,2,1,80,0,1
57998,-100,4,2,1,65,0,1
58165,-100,4,2,1,80,0,1
59165,-100,4,2,1,70,0,1
59331,-100,4,2,1,80,0,1
60165,-100,4,2,1,65,0,1
60331,-100,4,2,1,80,0,1
60498,-100,4,2,1,65,0,1
60665,-100,4,2,1,80,0,1
61165,-100,4,2,1,65,0,1
61331,-100,4,2,1,80,0,1
61831,-100,4,2,1,65,0,1
61998,-100,4,2,3,70,0,1
62665,-100,4,2,1,80,0,1
62831,-100,4,2,3,65,0,1
62998,-100,4,2,1,80,0,1
63165,-100,4,2,3,65,0,1
63331,-100,4,2,1,80,0,1
63831,-100,4,2,3,65,0,1
63998,-100,4,2,1,80,0,1
64165,-100,4,2,3,65,0,1
64331,-100,4,2,1,80,0,1
64498,-100,4,2,3,65,0,1
64665,-100,4,2,1,80,0,1
65165,-100,4,2,1,60,0,1
65331,-100,4,2,1,80,0,1
65831,-100,4,2,3,60,0,1
65998,-100,4,2,1,80,0,1
66665,-100,4,2,1,80,0,1
66831,-100,4,2,3,80,0,1
66998,-100,4,2,1,80,0,1
67165,-100,4,2,3,80,0,1
67331,-100,4,2,1,80,0,1
67831,-100,4,2,1,60,0,1
67998,-100,4,2,1,80,0,1
68165,-100,4,2,3,65,0,1
68331,-100,4,2,1,80,0,1
68498,-100,4,2,3,65,0,1
68665,-100,4,2,1,80,0,1
69165,-100,4,2,3,65,0,1
69331,-100,4,2,1,80,0,1
69498,-100,4,2,3,65,0,1
69665,-100,4,2,1,80,0,1
69831,-100,4,2,3,65,0,1
69998,-100,4,2,1,80,0,1
70498,-100,4,2,1,60,0,1
70665,-100,4,2,1,80,0,1
71165,-100,4,2,1,60,0,1
71331,-100,4,2,1,80,0,1
71831,-100,4,2,3,70,0,1
71998,-100,4,2,1,80,0,1
72665,-100,4,2,1,60,0,1
72998,-100,4,2,1,80,0,1
73081,-100,4,2,1,60,0,1
73331,-100,4,2,1,80,0,1
75165,-100,4,2,3,60,0,1
75331,-100,4,2,1,80,0,1
75498,-100,4,2,1,65,0,1
75665,-100,4,2,1,80,0,1
75831,-100,4,2,1,65,0,1
75998,-100,4,2,1,80,0,1
76665,-100,4,2,1,40,0,1
76831,-100,4,2,1,80,0,1
76998,-100,4,2,1,40,0,1
77165,-100,4,2,1,80,0,1
77831,-100,4,2,3,60,0,1
77998,-100,4,2,1,80,0,1
78165,-100,4,2,5,70,0,1
78415,-100,4,2,1,60,0,1
78665,-100,4,2,1,80,0,1
78831,-100,4,2,1,60,0,1
78998,-100,4,2,1,80,0,1
79165,-100,4,2,1,60,0,1
79331,-100,4,2,1,80,0,1
79831,-100,4,2,3,80,0,1
79998,-100,4,2,1,80,0,1
80498,-100,4,2,1,60,0,1
80665,-100,4,2,1,80,0,1
80831,-100,4,2,3,80,0,1
80998,-100,4,2,1,80,0,1
81165,-100,4,2,3,80,0,1
81331,-100,4,2,1,80,0,1
81831,-100,4,2,1,60,0,1
81998,-100,4,2,1,80,0,1
82498,-100,4,2,2,80,0,1
82831,-100,4,2,1,70,0,1
82998,-100,4,2,3,70,0,1
83831,-100,4,2,1,40,0,0
83998,-100,4,2,1,70,0,0
84331,-100,4,2,1,60,0,0
84665,-100,4,2,1,50,0,0
84998,-100,4,2,1,60,0,0
85165,-100,4,2,2,60,0,0
85498,-100,4,2,1,30,0,0
85665,-100,4,2,1,60,0,0
85831,-100,4,2,1,65,0,0
85998,-100,4,2,1,30,0,0
86165,-100,4,2,1,65,0,0
86331,-100,4,2,1,60,0,0
86498,-100,4,2,4,40,0,0
86665,-100,4,2,1,70,0,0
86831,-100,4,2,1,40,0,0
86998,-100,4,2,1,60,0,0
87331,-100,4,2,1,50,0,0
87665,-100,4,2,1,60,0,0
88165,-100,4,2,1,30,0,0
88331,-100,4,2,1,60,0,0
88498,-100,4,2,1,50,0,0

[Colours]
Combo1 : 159,44,236
Combo2 : 236,30,68
Combo3 : 116,91,91
Combo4 : 53,66,200

[HitObjects]
256,192,6665,12,8,8665,0:0:0:0:
106,205,8998,6,0,L|90:167,3,35,12|2|2|2,0:3|0:0|0:0|0:0,0:0:0:0:
94,146,9331,6,0,L|174:147,1,70,4|0,0:1|0:0,0:0:0:0:
242,195,9665,2,0,P|255:156|250:117,1,70,8|0,0:1|0:0,0:0:0:0:
193,61,9998,1,2,0:0:0:0:
193,61,10165,1,2,0:0:0:0:
163,146,10331,1,8,0:0:0:0:
242,195,10498,6,0,P|311:216|375:181,1,140,2|0,0:0|0:0,0:0:0:0:
424,115,10998,1,8,0:0:0:0:
462,197,11165,2,0,L|463:275,1,70,2|0,0:0|0:0,0:0:0:0:
370,257,11498,2,0,L|369:187,1,70,2|8,0:0|0:0,0:0:0:0:
306,120,11831,1,2,0:0:0:0:
210,84,11998,6,0,P|169:80|120:94,1,70,4|0,0:0|0:0,0:0:0:0:
77,150,12331,2,0,L|80:290,1,140,8|2,0:1|0:0,0:0:0:0:
144,353,12831,1,2,0:0:0:0:
205,285,12998,1,8,0:0:0:0:
279,369,13165,6,0,P|341:383|421:348,1,140,4|0,0:0|0:0,0:0:0:0:
475,292,13665,2,0,L|474:219,1,70,8|2,0:0|0:0,0:0:0:0:
429,142,13998,1,8,0:0:0:0:
429,142,14081,1,0,0:0:0:0:
429,142,14165,2,0,P|443:135|462:130,5,35,10|0|8|0|8|0,3:0|3:0|3:0|3:0|3:0|3:0,0:0:0:0:
494,98,14665,5,4,0:0:0:0:
372,35,14998,2,0,P|342:37|319:40,1,52.5000020027161,2|0,0:0|0:0,0:0:0:0:
256,102,15331,1,2,0:0:0:0:
256,101,15498,2,0,L|267:219,1,105.000004005432,2|2,0:0|0:0,0:0:0:0:
350,234,15998,6,0,L|340:129,1,105.000004005432,2|0,0:0|0:0,0:0:0:0:
256,101,16498,2,0,P|206:95|150:126,1,105.000004005432,2|2,0:0|0:0,0:0:0:0:
124,201,16998,1,2,0:0:0:0:
124,201,17165,1,2,0:0:0:0:
68,117,17331,5,6,0:0:0:0:
164,20,17665,2,0,L|232:22,1,52.5000020027161,2|0,0:0|0:0,0:0:0:0:
291,70,17998,1,2,0:0:0:0:
291,70,18165,2,0,P|339:81|402:57,1,105.000004005432,2|2,0:0|0:0,0:0:0:0:
480,72,18665,6,0,L|472:193,1,105.000004005432,2|2,0:0|0:0,0:0:0:0:
417,247,19165,2,0,P|383:248|350:242,1,52.5000020027161,2|0,0:0|0:0,0:0:0:0:
289,196,19498,1,2,0:0:0:0:
242,286,19665,2,0,P|202:291|153:273,1,70,8|0,0:0|0:0,0:0:0:0:
75,250,19998,6,0,B|53:160|99:191|79:105,1,140,4|8,0:0|0:1,0:0:0:0:
61,24,20498,2,0,L|130:25,1,70,2|0,0:0|1:0,0:0:0:0:
220,7,20831,1,0,1:0:0:0:
283,72,20998,1,2,0:0:0:0:
209,137,21165,6,0,P|198:200|242:264,1,140,8|2,0:0|0:0,0:0:0:0:
328,271,21665,1,8,0:0:0:0:
346,181,21832,2,0,P|311:177|277:186,1,70,2|0,0:0|1:0,0:0:0:0:
237,261,22165,1,0,1:0:0:0:
328,271,22331,2,0,L|401:267,1,70,8|0,0:0|0:0,0:0:0:0:
451,341,22665,5,0,1:0:0:0:
451,341,22831,1,2,0:0:0:0:
509,271,22998,1,8,0:0:0:0:
450,201,23165,2,0,L|448:118,1,70,2|0,0:0|1:0,0:0:0:0:
440,40,23498,1,2,0:0:0:0:
369,97,23665,1,2,0:0:0:0:
287,22,23831,6,0,P|226:2|155:40,1,140,8|2,0:0|0:0,0:0:0:0:
89,89,24331,2,0,P|72:43|75:12,1,70,8|0,0:0|3:0,0:0:0:0:
174,122,24665,1,8,0:0:0:0:
108,194,24831,1,6,0:0:0:0:
277,276,25165,5,2,0:0:0:0:
352,256,25331,2,0,P|367:216|349:150,1,105.000004005432,4|0,0:1|1:0,0:0:0:0:
225,61,25998,2,0,P|210:111|224:161,1,105.000004005432,0|0,1:0|1:0,0:0:0:0:
352,256,26665,6,0,L|464:253,1,105.000004005432,2|0,0:2|1:0,0:0:0:0:
392,109,27331,2,0,L|287:111,1,105.000004005432,2|0,0:2|1:0,0:0:0:0:
221,155,27831,1,2,0:2:0:0:
200,231,27998,6,0,L|211:360,1,105.000004005432,4|0,0:2|1:0,0:0:0:0:
59,284,28665,2,0,L|50:179,1,105.000004005432,0|0,1:0|1:0,0:0:0:0:
105,122,29165,1,2,0:0:0:0:
105,122,29248,1,2,0:0:0:0:
105,122,29331,6,0,P|141:106|208:118,1,105.000004005432,0|0,1:0|1:0,0:0:0:0:
348,173,29998,2,0,P|312:189|245:177,1,105.000004005432,0|0,1:0|1:0,0:0:0:0:
204,115,30498,1,2,0:2:0:0:
171,187,30665,6,0,L|177:302,1,105.000004005432,4|0,0:2|1:0,0:0:0:0:
312,371,31331,2,0,L|306:266,1,105.000004005432,0|0,1:0|1:0,0:0:0:0:
171,187,31998,6,0,P|123:178|57:211,1,105.000004005432,2|0,0:2|1:0,0:0:0:0:
59,354,32665,2,0,P|107:363|173:330,1,105.000004005432,2|0,0:2|1:0,0:0:0:0:
317,206,33331,5,2,1:2:0:0:
355,122,33498,1,2,0:0:0:0:
271,85,33665,1,2,1:2:0:0:
234,169,33831,1,2,0:0:0:0:
317,206,33998,2,0,L|403:204,1,70,2|2,1:2|0:0,0:0:0:0:
351,288,34331,2,0,L|281:289,1,70,2|0,1:2|1:0,0:0:0:0:
201,334,34665,5,12,0:3:0:0:
201,243,34831,1,8,0:3:0:0:
280,288,34998,1,8,0:1:0:0:
280,182,35165,1,4,0:0:0:0:
139,81,35498,1,8,0:0:0:0:
139,81,35665,1,8,0:1:0:0:
169,166,35831,1,8,0:0:0:0:
280,182,35998,6,0,L|434:177,1,140,4|8,0:0|0:0,0:0:0:0:
496,226,36498,2,0,P|464:260|424:268,1,70,2|0,0:0|0:0,0:0:0:0:
419,177,36831,2,0,P|405:132|418:93,1,70,2|8,0:0|0:0,0:0:0:0:
468,39,37165,1,2,0:0:0:0:
365,18,37331,6,0,B|288:37|300:0|216:21,1,140,4|8,0:0|0:0,0:0:0:0:
260,103,37831,2,0,B|279:180|242:168|263:252,1,140,2|2,0:0|0:0,0:0:0:0:
301,323,38331,1,8,0:0:0:0:
366,260,38498,1,0,3:0:0:0:
260,241,38665,6,0,L|115:242,1,140,4|8,0:0|0:0,0:0:0:0:
17,285,39165,2,0,L|13:192,1,70,2|0,0:0|0:0,0:0:0:0:
116,172,39498,2,0,L|119:241,1,70,2|8,0:0|0:0,0:0:0:0:
203,139,39831,6,0,P|171:88|78:92,1,140,4|0,0:0|0:0,0:0:0:0:
116,172,40331,1,8,0:0:0:0:
234,210,40498,2,0,P|265:185|276:154,1,70,2|0,0:0|0:0,0:0:0:0:
357,114,40831,2,0,P|326:89|315:58,1,70,2|8,0:0|0:0,0:0:0:0:
383,0,41165,1,2,0:0:0:0:
428,94,41331,6,0,P|417:166|349:189,1,140,4|8,0:0|0:0,0:0:0:0:
275,157,41831,1,0,0:0:0:0:
246,243,41998,2,0,L|260:327,1,70,2|2,0:0|0:0,0:0:0:0:
316,381,42331,1,8,0:0:0:0:
374,287,42498,6,0,B|451:260|437:307|517:285,1,140,4|0,0:0|0:0,0:0:0:0:
480,200,42998,2,0,L|479:54,1,140,8|2,0:0|0:0,0:0:0:0:
409,0,43498,1,2,0:0:0:0:
348,68,43665,2,0,P|310:70|269:57,1,70,8|2,0:0|0:0,0:0:0:0:
181,22,43998,6,0,P|114:8|47:44,1,140,4|8,0:0|0:0,0:0:0:0:
37,128,44498,1,8,0:0:0:0:
128,134,44665,2,0,P|129:113|123:88,2,35,8|8|8,0:0|0:0|0:0,0:0:0:0:
95,219,44998,1,4,0:0:0:0:
181,246,45165,2,0,P|192:229|199:203,2,35,8|8|8,0:0|0:0|0:0,0:0:0:0:
141,328,45498,6,0,L|288:325,1,140,2|0,0:0|0:0,0:0:0:0:
371,336,45998,2,0,L|360:267,1,70,8|0,0:1|0:0,0:0:0:0:
428,207,46331,2,0,L|439:138,1,70,8|0,0:1|0:0,0:0:0:0:
386,38,46665,6,0,P|350:46|300:33,1,70,4|2,0:1|0:0,0:0:0:0:
228,19,46998,2,0,P|192:11|142:24,1,70,8|2,0:0|0:0,0:0:0:0:
92,77,47331,1,2,0:0:0:0:
92,77,47498,1,2,0:0:0:0:
165,131,47665,2,0,P|201:139|251:126,1,70,8|2,0:0|0:0,0:0:0:0:
338,109,47998,6,0,L|339:195,1,70,2|2,0:0|0:0,0:0:0:0:
234,203,48331,2,0,L|233:133,1,70,8|2,0:0|0:0,0:0:0:0:
265,46,48665,1,2,0:0:0:0:
265,46,48831,1,2,0:0:0:0:
338,109,48998,2,0,P|387:111|420:100,1,70,8|2,0:0|0:0,0:0:0:0:
500,59,49331,6,0,B|532:137|479:128|511:222,1,140,4|8,0:0|0:0,0:0:0:0:
507,286,49831,1,2,0:0:0:0:
432,339,49998,2,0,L|265:337,1,140,2|8,0:0|0:0,0:0:0:0:
206,306,50498,1,2,0:0:0:0:
206,306,50665,5,2,0:0:0:0:
272,243,50831,2,0,P|284:207|277:159,1,70,2|8,0:0|0:0,0:0:0:0:
338,103,51165,2,0,P|279:83|213:117,1,140,2|2,0:0|0:0,0:0:0:0:
169,196,51665,1,8,0:0:0:0:
101,98,51831,1,2,3:0:0:0:
101,98,51915,1,2,3:0:0:0:
101,98,51998,6,0,L|99:11,1,70,4|2,0:1|0:0,0:0:0:0:
0,115,52331,2,0,L|1:184,1,70,8|2,0:0|0:0,0:0:0:0:
102,167,52665,2,0,L|100:97,1,70,2|2,0:0|0:0,0:0:0:0:
1,184,52998,2,0,L|2:253,1,70,8|2,0:0|0:0,0:0:0:0:
60,324,53331,5,2,0:0:0:0:
60,324,53498,1,2,0:0:0:0:
135,273,53665,2,0,P|172:268|217:276,1,70,8|2,0:0|0:0,0:0:0:0:
276,328,53998,1,2,0:0:0:0:
276,328,54165,1,2,0:0:0:0:
338,262,54331,2,0,P|343:225|335:180,1,70,8|2,0:0|0:0,0:0:0:0:
279,108,54665,6,0,L|125:109,1,140,4|8,0:0|0:0,0:0:0:0:
79,178,55165,1,2,0:0:0:0:
197,200,55331,2,0,L|336:199,1,140,2|8,0:0|0:0,0:0:0:0:
401,135,55831,1,2,0:0:0:0:
401,135,55998,6,0,P|431:199|397:268,1,140,4|8,0:0|0:0,0:0:0:0:
337,319,56498,1,2,0:0:0:0:
249,343,56665,2,0,L|102:337,1,140,2|10,0:3|0:0,0:0:0:0:
38,279,57165,1,2,0:0:0:0:
122,214,57331,6,0,P|134:181|126:131,1,70,4|0,0:0|0:0,0:0:0:0:
77,74,57665,1,8,0:0:0:0:
175,39,57831,2,0,L|262:38,1,70,4|0,0:0|0:0,0:0:0:0:
305,107,58165,1,2,0:0:0:0:
355,31,58331,1,8,0:1:0:0:
396,143,58498,6,0,L|391:283,1,140,4|2,0:0|0:0,0:0:0:0:
331,351,58998,2,0,P|292:358|243:347,1,70,8|0,0:0|3:0,0:0:0:0:
193,294,59331,2,0,B|179:245|179:245|187:179,2,105,8|8|0,1:0|1:3|1:2,0:0:0:0:
146,372,59998,6,0,P|107:379|58:368,1,70,6|0,0:0|0:0,0:0:0:0:
25,299,60331,2,0,L|24:216,1,70,8|0,0:0|0:0,0:0:0:0:
7,138,60665,2,0,B|76:163|74:109|161:137,1,140,2|8,0:0|0:0,0:0:0:0:
218,185,61165,1,0,0:0:0:0:
258,83,61331,6,0,P|319:54|399:86,1,140,4|8,0:0|0:0,0:0:0:0:
436,149,61831,1,0,0:0:0:0:
352,184,61998,2,0,P|332:164|323:130,4,35,8|8|8|8|8,0:0|0:0|0:0|0:0|0:0,0:0:0:0:
386,278,62498,1,8,0:0:0:0:
386,278,62581,1,8,0:0:0:0:
386,278,62665,6,0,L|299:276,1,70,4|2,0:1|0:0,0:0:0:0:
259,157,62998,2,0,L|328:158,1,70,8|2,0:0|0:0,0:0:0:0:
316,276,63331,2,0,L|246:274,1,70,2|2,0:0|0:0,0:0:0:0:
189,155,63665,2,0,L|258:156,1,70,8|2,0:0|0:0,0:0:0:0:
126,227,63998,6,0,P|99:197|84:156,1,70,2|2,0:0|0:0,0:0:0:0:
91,26,64331,2,0,P|117:55|132:96,1,70,8|2,0:0|0:0,0:0:0:0:
87,170,64665,1,2,0:0:0:0:
87,170,64831,1,2,0:0:0:0:
189,155,64998,2,0,L|258:155,1,70,8|2,0:0|0:0,0:0:0:0:
331,209,65331,6,0,P|360:152|313:85,1,140,4|8,0:0|0:0,0:0:0:0:
231,44,65831,1,2,0:0:0:0:
319,0,65998,2,0,B|394:23|382:-18|458:0,1,140,2|8,0:0|0:0,0:0:0:0:
498,91,66498,1,2,0:0:0:0:
498,91,66665,5,2,0:0:0:0:
424,144,66831,2,0,P|418:180|427:226,1,70,2|8,0:0|0:0,0:0:0:0:
458,297,67165,2,0,P|394:304|336:243,1,140,2|2,0:0|0:0,0:0:0:0:
343,165,67665,1,8,0:0:0:0:
247,222,67831,1,2,3:0:0:0:
247,222,67915,1,2,3:0:0:0:
247,222,67998,6,0,P|206:227|159:215,1,70,4|2,0:1|0:0,0:0:0:0:
99,175,68331,1,8,0:0:0:0:
99,175,68498,1,2,0:0:0:0:
75,275,68665,2,0,L|84:351,1,70,2|2,0:0|0:0,0:0:0:0:
186,291,68998,2,0,L|177:221,1,70,8|2,0:0|0:0,0:0:0:0:
238,128,69331,6,0,P|274:117|316:125,1,70,2|2,0:0|0:0,0:0:0:0:
355,228,69665,2,0,P|319:239|277:231,1,70,8|2,0:0|0:0,0:0:0:0:
394,146,69998,1,2,0:0:0:0:
394,146,70165,1,2,0:0:0:0:
446,221,70331,2,0,L|444:292,1,70,8|2,0:0|0:0,0:0:0:0:
344,364,70665,6,0,B|274:336|280:386|198:362,1,140,4|8,0:0|0:0,0:0:0:0:
124,319,71165,1,0,0:0:0:0:
235,286,71331,2,0,P|248:219|206:154,1,140,2|8,0:0|0:0,0:0:0:0:
151,105,71831,1,2,0:0:0:0:
151,105,71998,6,0,L|296:106,1,140,4|8,0:0|0:0,0:0:0:0:
390,139,72498,1,2,0:0:0:0:
448,223,72665,2,0,P|469:286|444:356,1,140,2|10,0:3|0:0,0:0:0:0:
357,376,73165,1,2,0:0:0:0:
267,321,73331,6,0,B|197:293|203:343|121:319,1,140,4|8,0:0|0:0,0:0:0:0:
52,273,73831,2,0,P|86:232|68:144,1,140,2|2,0:0|0:0,0:0:0:0:
7,86,74331,1,8,0:0:0:0:
71,21,74498,1,2,0:0:0:0:
136,84,74665,6,0,P|193:97|277:61,1,140,4|8,0:0|0:0,0:0:0:0:
336,10,75165,1,2,0:0:0:0:
393,96,75331,2,0,L|392:181,1,70,2|0,0:0|0:0,0:0:0:0:
293,240,75665,2,0,L|293:170,1,70,8|0,0:0|0:0,0:0:0:0:
376,294,75998,6,0,P|345:328|302:336,1,70,4|0,0:1|0:0,0:0:0:0:
233,319,76331,1,8,0:0:0:0:
177,224,76498,2,0,L|177:154,1,70,4|0,0:0|0:0,0:0:0:0:
71,63,76831,2,0,L|71:133,1,70,4|0,0:0|0:0,0:0:0:0:
177,224,77165,6,0,L|334:218,1,140,4|2,0:0|0:0,0:0:0:0:
403,248,77665,2,0,P|405:208|395:175,1,70,8|2,0:0|0:0,0:0:0:0:
335,111,77998,1,8,0:1:0:0:
407,55,78165,1,8,0:0:0:0:
407,55,78248,1,8,0:0:0:0:
407,55,78331,2,0,P|430:54|462:57,3,35,8|8|8|8,0:0|0:3|0:3|0:3,0:0:0:0:
486,67,78665,6,0,L|478:153,1,70,4|0,0:0|0:0,0:0:0:0:
430,213,78998,1,8,0:0:0:0:
348,254,79165,2,0,L|197:242,1,140,0|2,0:0|0:0,0:0:0:0:
133,295,79665,1,8,0:0:0:0:
75,225,79831,6,0,P|59:159|100:88,1,140,2|2,0:0|0:0,0:0:0:0:
164,44,80331,2,0,L|252:46,1,70,8|0,0:0|0:0,0:0:0:0:
315,88,80665,1,2,0:0:0:0:
328,177,80831,2,0,P|331:217|319:257,1,70,2|8,0:0|0:0,0:0:0:0:
249,298,81165,1,2,0:0:0:0:
332,362,81331,6,0,P|390:380|469:351,1,140,4|8,0:0|0:0,0:0:0:0:
505,275,81831,2,0,P|510:238|501:187,1,70,0|2,0:0|0:0,0:0:0:0:
449,133,82165,2,0,L|372:140,1,70,2|8,0:0|0:0,0:0:0:0:
293,169,82498,1,2,0:0:0:0:
293,169,82665,6,0,L|216:162,1,70,2|2,0:0|3:0,0:0:0:0:
146,211,82998,1,8,0:0:0:0:
121,123,83165,1,8,0:0:0:0:
121,123,83248,1,8,0:0:0:0:
121,123,83331,1,12,0:0:0:0:
223,162,83498,1,4,0:0:0:0:
105,300,83831,5,2,0:0:0:0:
105,300,83915,1,2,0:0:0:0:
105,300,83998,2,0,P|138:311|186:302,1,70,4|0,0:1|0:0,0:0:0:0:
252,352,84331,2,0,P|263:319|254:271,1,70,8|0,0:1|0:0,0:0:0:0:
189,224,84665,1,2,0:0:0:0:
189,224,84831,1,2,0:0:0:0:
247,154,84998,1,8,0:0:0:0:
329,223,85165,6,0,P|395:238|459:206,1,140,2|0,0:0|0:0,0:0:0:0:
387,149,85665,1,8,0:0:0:0:
329,223,85831,2,0,L|336:320,1,70,2|0,0:0|0:0,0:0:0:0:
245,267,86165,2,0,L|239:197,1,70,2|8,0:0|0:0,0:0:0:0:
214,109,86498,1,2,0:0:0:0:
130,54,86665,6,0,P|90:52|45:72,1,70,4|0,0:0|0:0,0:0:0:0:
104,141,86998,2,0,B|131:205|77:219|115:288,1,140,8|2,0:1|0:0,0:0:0:0:
187,325,87498,2,0,P|197:286|192:245,1,70,2|8,0:0|0:0,0:0:0:0:
276,188,87831,6,0,L|419:189,1,140,4|0,0:0|0:0,0:0:0:0:
489,242,88331,2,0,P|503:196|499:158,1,70,8|0,0:3|1:0,0:0:0:0:
502,174,88581,1,0,1:0:0:0:
502,174,88665,1,0,1:0:0:0:
455,86,88831,1,8,0:1:0:0:
415,188,88998,1,8,0:1:0:0:
353,83,89165,1,12,0:0:0:0:
