osu file format v14

[General]
AudioFilename: audio.mp3
AudioLeadIn: 0
PreviewTime: 46581
Countdown: 0
SampleSet: Soft
StackLeniency: 0.5
Mode: 0
LetterboxInBreaks: 0
WidescreenStoryboard: 1

[Editor]
DistanceSpacing: 0.8
BeatDivisor: 4
GridSize: 16
TimelineZoom: 2.6

[Metadata]
Title:killy killy JOKER (TV Size)
TitleUnicode:killy killy JOKER (TV Size)
Artist:Wakeshima Kanon
ArtistUnicode:分島花音
Creator:Alexsander
Version:Normal
Source:selector infected WIXOSS
Tags:opening card game Ruko Kominato Tama naotyu-
BeatmapID:1667533
BeatmapSetID:793931

[Difficulty]
HPDrainRate:4
CircleSize:3.5
OverallDifficulty:4
ApproachRate:5
SliderMultiplier:1.2
SliderTickRate:1

[Events]
//Background and Video events
0,0,"bg.jpg",0,0
Video,94,"wixoss.avi"
//Break Periods
2,14865,18298
//Storyboard Layer 0 (Background)
//Storyboard Layer 1 (Fail)
//Storyboard Layer 2 (Pass)
//Storyboard Layer 3 (Foreground)
//Storyboard Sound Samples

[TimingPoints]
1332,333.333333333333,4,2,3,40,1,0
1332,-100,4,2,3,40,0,0
9331,-100,4,2,1,70,0,0
9665,-100,4,2,1,60,0,0
9998,-100,4,2,1,50,0,0
10331,-100,4,2,1,60,0,0
10498,-100,4,2,2,60,0,0
10998,-100,4,2,1,60,0,0
11165,-100,4,2,1,65,0,0
11748,-100,4,2,4,40,0,0
11998,-100,4,2,1,70,0,0
12331,-100,4,2,1,60,0,0
12665,-100,4,2,1,50,0,0
12998,-100,4,2,1,60,0,0
13165,-100,4,2,1,70,0,0
13498,-100,4,2,1,30,0,0
13665,-100,4,2,1,60,0,0
13831,-100,4,2,1,45,0,0
14165,-100,4,2,1,50,0,0
14665,-100,4,2,5,30,0,0
19498,-100,4,2,1,40,0,0
19665,-100,4,2,1,50,0,0
19998,-100,4,2,1,70,0,0
20331,-100,4,2,1,60,0,0
20498,-100,4,2,1,50,0,0
21665,-100,4,2,1,60,0,0
21831,-100,4,2,1,50,0,0
22331,-100,4,2,1,60,0,0
22665,-100,4,2,1,50,0,0
22998,-100,4,2,1,60,0,0
23165,-100,4,2,1,50,0,0
23831,-100,4,2,1,60,0,0
24165,-100,4,2,1,50,0,0
24331,-100,4,2,1,60,0,0
24665,-100,4,2,1,60,0,0
24831,-100,4,2,1,40,0,0
25165,-100,4,2,5,35,0,0
25331,-100,4,3,3,30,0,0
27831,-100,4,3,3,25,0,0
27998,-100,4,3,3,30,0,0
28665,-100,4,3,3,30,0,0
29165,-100,4,2,4,25,0,0
29331,-100,4,3,3,30,0,0
30498,-100,4,3,3,25,0,0
30665,-100,4,3,3,30,0,0
33331,-100,4,2,3,50,0,0
34998,-100,4,2,1,50,0,0
35998,-100,4,2,1,70,0,0
36331,-100,4,2,1,60,0,0
37165,-100,4,2,1,50,0,0
37331,-100,4,2,1,70,0,0
37665,-100,4,2,1,60,0,0
38498,-100,4,2,1,50,0,0
38665,-100,4,2,1,70,0,0
38998,-100,4,2,1,60,0,0
39165,-100,4,2,1,70,0,0
40331,-100,4,2,1,60,0,0
40498,-100,4,2,1,70,0,0
41165,-100,4,2,1,50,0,0
41331,-100,4,2,1,70,0,0
41665,-100,4,2,1,60,0,0
41998,-100,4,2,1,50,0,0
42331,-100,4,2,1,60,0,0
42498,-100,4,2,1,70,0,0
42831,-100,4,2,1,40,0,0
42998,-100,4,2,1,60,0,0
43331,-100,4,2,1,50,0,0
43665,-100,4,2,1,60,0,0
43831,-100,4,2,1,50,0,0
43998,-100,4,2,1,70,0,0
44165,-100,4,2,3,60,0,0
44665,-100,4,2,3,50,0,0
44998,-100,4,2,3,60,0,0
45165,-100,4,2,3,50,0,0
45498,-100,4,2,5,60,0,0
45831,-100,4,2,5,30,0,0
45998,-100,4,2,1,50,0,0
46331,-100,4,2,1,60,0,0
46665,-100,4,2,1,80,0,1
47165,-100,4,2,3,65,0,1
47331,-100,4,2,1,80,0,1
48165,-100,4,2,3,65,0,1
48331,-100,4,2,1,80,0,1
48498,-100,4,2,3,65,0,1
48665,-100,4,2,1,80,0,1
49831,-100,4,2,3,60,0,1
49998,-100,4,2,1,80,0,1
50831,-100,4,2,3,80,0,1
50998,-100,4,2,1,80,0,1
51165,-100,4,2,3,80,0,1
51331,-100,4,2,1,80,0,1
51998,-100,4,2,1,80,0,1
52498,-100,4,2,3,65,0,1
52665,-100,4,2,1,80,0,1
53498,-100,4,2,3,65,0,1
53665,-100,4,2,1,80,0,1
53831,-100,4,2,3,65,0,1
53998,-100,4,2,1,80,0,1
55165,-100,4,2,3,60,0,1
55331,-100,4,2,1,80,0,1
55831,-100,4,2,3,70,0,1
55998,-100,4,2,1,80,0,1
56665,-100,4,2,1,60,0,1
56998,-100,4,2,1,80,0,1
57081,-100,4,2,1,60,0,1
57331,-100,4,2,1,80,0,1
59165,-100,4,2,1,70,0,1
59331,-100,4,2,1,80,0,1
61498,-100,4,2,1,65,0,1
61665,-100,4,2,1,80,0,1
61831,-100,4,2,1,65,0,1
61998,-100,4,2,3,70,0,1
62665,-100,4,2,1,80,0,1
63165,-100,4,2,3,65,0,1
63331,-100,4,2,1,80,0,1
64165,-100,4,2,3,65,0,1
64331,-100,4,2,1,80,0,1
64498,-100,4,2,3,65,0,1
64665,-100,4,2,1,80,0,1
65831,-100,4,2,3,60,0,1
65998,-100,4,2,1,80,0,1
66831,-100,4,2,3,80,0,1
66998,-100,4,2,1,80,0,1
67165,-100,4,2,3,80,0,1
67331,-100,4,2,1,80,0,1
67998,-100,4,2,1,80,0,1
68498,-100,4,2,3,65,0,1
68665,-100,4,2,1,80,0,1
69498,-100,4,2,3,65,0,1
69665,-100,4,2,1,80,0,1
69831,-100,4,2,3,65,0,1
69998,-100,4,2,1,80,0,1
71165,-100,4,2,1,60,0,1
71331,-100,4,2,1,80,0,1
71831,-100,4,2,3,70,0,1
71998,-100,4,2,1,80,0,1
72665,-100,4,2,1,60,0,1
72998,-100,4,2,1,80,0,1
73081,-100,4,2,1,60,0,1
73331,-100,4,2,1,80,0,1
75498,-100,4,2,1,65,0,1
75665,-100,4,2,1,80,0,1
77165,-100,4,2,1,80,0,1
78165,-100,4,2,5,70,0,1
78665,-100,4,2,1,80,0,1
79831,-100,4,2,3,80,0,1
79998,-100,4,2,1,80,0,1
80831,-100,4,2,3,80,0,1
80998,-100,4,2,1,80,0,1
81331,-100,4,2,1,80,0,1
82498,-100,4,2,2,80,0,1
82998,-100,4,2,3,70,0,1
83831,-100,4,2,1,40,0,0
83998,-100,4,2,1,70,0,0
84331,-100,4,2,1,60,0,0
84665,-100,4,2,1,50,0,0
84998,-100,4,2,1,60,0,0
85165,-100,4,2,2,60,0,0
85665,-100,4,2,1,60,0,0
85831,-100,4,2,1,65,0,0
86498,-100,4,2,4,40,0,0
86665,-100,4,2,1,70,0,0
86998,-100,4,2,1,60,0,0
87331,-100,4,2,1,50,0,0
87665,-100,4,2,1,60,0,0
88165,-100,4,2,1,30,0,0
88331,-100,4,2,1,60,0,0
88498,-100,4,2,1,50,0,0

[Colours]
Combo1 : 159,44,236
Combo2 : 236,30,68
Combo3 : 116,91,91
Combo4 : 53,66,200

[HitObjects]
256,192,6665,12,2,7998,0:0:0:0:
149,129,9331,6,0,L|172:257,1,120,4|8,0:1|0:1,0:0:0:0:
209,334,9998,1,2,0:0:0:0:
209,334,10165,2,0,L|277:336,1,60,2|8,0:0|0:0,0:0:0:0:
316,326,10498,2,0,P|361:233|319:159,1,180,2|8,0:0|0:0,0:0:0:0:
294,138,11165,1,2,0:0:0:0:
229,208,11498,2,0,P|169:223|100:184,1,120,2|2,0:0|0:0,0:0:0:0:
73,182,11998,6,0,L|88:50,1,120,4|8,0:0|0:1,0:0:0:0:
170,17,12665,1,2,0:0:0:0:
170,17,12831,2,0,L|236:19,1,60,2|8,0:0|0:0,0:0:0:0:
272,41,13165,2,0,B|286:122|248:90|267:181,1,120,4|0,0:0|0:0,0:0:0:0:
290,198,13665,2,0,L|413:191,1,120,8|8,0:0|0:0,0:0:0:0:
455,207,14165,2,0,P|478:283|455:335,1,120,10|8,3:0|3:0,0:0:0:0:
435,356,14665,5,4,0:0:0:0:
38,181,19498,5,2,0:0:0:0:
38,181,19665,1,8,0:0:0:0:
95,257,19998,6,0,P|151:271|219:242,1,120,4|8,0:0|0:1,0:0:0:0:
250,227,20498,2,0,P|306:213|374:242,1,120,2|0,0:0|1:0,0:0:0:0:
448,277,21165,2,0,B|481:188|406:190|457:97,1,180,8|8,0:0|0:0,0:0:0:0:
482,65,21831,2,0,L|339:61,1,120,2|0,0:0|1:0,0:0:0:0:
323,90,22331,1,8,0:0:0:0:
240,41,22665,5,0,1:0:0:0:
240,41,22831,2,0,P|201:36|157:51,2,60,2|8|0,0:0|0:0|0:0,0:0:0:0:
206,131,23498,2,0,L|206:202,1,60,2|2,0:0|0:0,0:0:0:0:
221,236,23831,2,0,L|356:231,1,120,8|2,0:0|0:0,0:0:0:0:
387,243,24331,1,8,0:0:0:0:
444,165,24665,1,8,0:0:0:0:
444,165,24831,1,6,0:0:0:0:
369,103,25165,5,2,0:0:0:0:
369,103,25331,2,0,L|236:106,1,120,4|0,0:1|1:0,0:0:0:0:
206,19,25998,2,0,L|325:16,1,120,0|0,1:0|1:0,0:0:0:0:
421,29,26665,2,0,P|458:75|450:151,1,120,2|0,0:2|1:0,0:0:0:0:
416,220,27331,2,0,P|360:239|291:205,1,120,2|0,0:2|1:0,0:0:0:0:
266,189,27831,1,2,0:2:0:0:
266,189,27998,6,0,P|210:169|141:203,1,120,4|0,0:2|1:0,0:0:0:0:
59,184,28665,2,0,L|64:51,1,120,0|0,1:0|1:0,0:0:0:0:
82,24,29165,1,2,0:0:0:0:
82,24,29331,2,0,L|217:24,1,120,0|0,1:0|1:0,0:0:0:0:
284,72,29998,2,0,B|292:135|292:135|272:196,1,120,0|0,1:0|1:0,0:0:0:0:
241,223,30498,1,2,0:2:0:0:
241,223,30665,6,0,B|178:215|178:215|117:235,1,120,4|0,0:2|1:0,0:0:0:0:
186,305,31331,2,0,L|315:305,1,120,0|0,1:0|1:0,0:0:0:0:
393,263,31998,2,0,P|410:202|377:143,1,120,2|0,0:2|1:0,0:0:0:0:
309,96,32665,2,0,P|251:116|191:77,1,120,2|0,0:2|1:0,0:0:0:0:
105,93,33331,6,0,B|85:163|123:146|109:224,1,120,2|2,1:2|1:2,0:0:0:0:
155,296,33998,2,0,B|225:318|209:279|287:296,1,120,2|2,1:2|1:2,0:0:0:0:
368,304,34665,2,0,P|363:333|345:358,2,60,12|8|8,0:3|0:3|0:1,0:0:0:0:
355,257,35165,1,4,0:0:0:0:
304,175,35498,2,0,P|309:146|326:120,2,60,8|8|8,0:0|0:1|0:0,0:0:0:0:
279,216,35998,6,0,L|141:211,1,120,4|8,0:0|0:0,0:0:0:0:
118,236,36498,2,0,L|109:97,1,120,2|2,0:0|0:0,0:0:0:0:
121,20,37165,1,2,0:0:0:0:
121,20,37331,2,0,L|248:19,1,120,4|8,0:0|0:0,0:0:0:0:
279,48,37831,2,0,P|302:106|286:164,1,120,2|2,0:0|0:0,0:0:0:0:
254,250,38498,1,0,3:0:0:0:
254,250,38665,6,0,B|326:271|303:230|387:255,1,120,4|8,0:0|0:0,0:0:0:0:
408,282,39165,1,2,0:0:0:0:
491,234,39498,1,2,0:0:0:0:
448,148,39831,2,0,P|383:119|273:185,1,180,4|8,0:0|0:0,0:0:0:0:
267,203,40498,1,2,0:0:0:0:
183,155,40831,1,2,0:0:0:0:
192,59,41165,1,2,0:0:0:0:
192,59,41331,6,0,L|314:52,1,120,4|8,0:0|0:0,0:0:0:0:
405,73,41998,2,0,P|419:42|419:2,2,60,2|2|8,0:0|0:0|0:0,0:0:0:0:
384,116,42498,2,0,L|386:237,1,120,4|0,0:0|0:0,0:0:0:0:
370,282,42998,1,8,0:0:0:0:
427,358,43331,1,2,0:0:0:0:
427,358,43498,2,0,P|459:351|490:331,2,60,2|8|2,0:0|0:0|0:0,0:0:0:0:
379,366,43998,6,0,L|245:363,1,120,4|8,0:0|0:0,0:0:0:0:
166,336,44665,2,0,P|140:290|156:207,1,120,8|4,0:0|0:0,0:0:0:0:
191,140,45331,1,8,0:0:0:0:
191,140,45498,2,0,B|131:113|132:159|59:133,1,120,2|0,0:0|0:0,0:0:0:0:
25,141,45998,2,0,L|30:206,1,60,8|0,0:1|0:0,0:0:0:0:
47,245,46331,1,8,0:1:0:0:
124,301,46665,6,0,L|243:309,1,120,4|8,0:1|0:0,0:0:0:0:
286,330,47165,1,2,0:0:0:0:
286,330,47331,2,0,L|405:322,1,120,2|8,0:0|0:0,0:0:0:0:
477,257,47998,2,0,L|472:197,1,60,2|2,0:0|0:0,0:0:0:0:
441,159,48331,2,0,L|446:99,1,60,8|2,0:0|0:0,0:0:0:0:
467,55,48665,1,2,0:0:0:0:
384,5,48998,1,8,0:0:0:0:
315,72,49331,6,0,P|263:87|192:55,1,120,4|8,0:0|0:0,0:0:0:0:
162,38,49831,1,2,0:0:0:0:
162,38,49998,2,0,L|166:166,1,120,2|8,0:0|0:0,0:0:0:0:
179,204,50498,1,2,0:0:0:0:
267,241,50831,2,0,L|336:238,1,60,2|8,0:0|0:0,0:0:0:0:
375,236,51165,2,0,P|394:295|373:353,1,120,2|2,0:0|0:0,0:0:0:0:
337,376,51665,1,8,0:0:0:0:
241,368,51998,6,0,L|109:360,1,120,4|8,0:1|0:0,0:0:0:0:
74,350,52498,1,2,0:0:0:0:
74,350,52665,2,0,L|82:216,1,120,2|8,0:0|0:0,0:0:0:0:
120,142,53331,2,0,L|181:148,1,60,2|2,0:0|0:0,0:0:0:0:
220,174,53665,2,0,L|281:168,1,60,8|2,0:0|0:0,0:0:0:0:
327,175,53998,1,2,0:0:0:0:
361,85,54331,1,8,0:0:0:0:
286,24,54665,6,0,L|149:10,1,120,4|8,0:0|0:0,0:0:0:0:
119,19,55165,1,2,0:0:0:0:
119,19,55331,1,2,0:0:0:0:
70,102,55665,2,0,L|79:185,1,60,8|2,0:0|0:0,0:0:0:0:
99,204,55998,2,0,B|166:225|159:185|237:205,1,120,4|8,0:0|0:0,0:0:0:0:
261,218,56498,1,2,0:0:0:0:
261,218,56665,1,2,0:3:0:0:
338,274,56998,2,0,P|376:278|407:269,1,60,10|2,0:0|0:0,0:0:0:0:
441,254,57331,6,0,L|455:126,1,120,4|8,0:0|0:0,0:0:0:0:
444,88,57831,2,0,L|320:76,1,120,4|2,0:0|0:0,0:0:0:0:
281,98,58331,1,8,0:1:0:0:
281,98,58498,1,4,0:0:0:0:
207,36,58831,1,2,0:0:0:0:
207,36,58998,2,0,L|147:42,1,60,8|0,0:0|3:0,0:0:0:0:
120,81,59331,2,0,P|72:79|28:37,2,90,8|8|0,1:0|1:3|1:2,0:0:0:0:
149,118,59998,6,0,L|145:239,1,120,6|8,0:0|0:0,0:0:0:0:
136,285,60498,1,0,0:0:0:0:
136,285,60665,2,0,L|259:284,1,120,2|8,0:0|0:0,0:0:0:0:
349,306,61331,2,0,P|370:267|354:182,1,120,4|8,0:0|0:0,0:0:0:0:
332,155,61831,1,0,0:0:0:0:
332,155,61998,2,0,P|289:134|208:149,1,120,8|8,0:0|0:0,0:0:0:0:
126,167,62665,6,0,L|116:37,1,120,4|8,0:1|0:0,0:0:0:0:
154,17,63165,1,2,0:0:0:0:
154,17,63331,2,0,L|282:17,1,120,2|8,0:0|0:0,0:0:0:0:
360,58,63998,2,0,P|401:62|421:58,1,60,2|2,0:0|0:0,0:0:0:0:
461,80,64331,2,0,P|465:121|461:141,1,60,8|2,0:0|0:0,0:0:0:0:
447,185,64665,1,2,0:0:0:0:
364,233,64998,1,8,0:0:0:0:
292,168,65331,6,0,P|234:153|166:179,1,120,4|8,0:0|0:0,0:0:0:0:
142,202,65831,1,2,0:0:0:0:
142,202,65998,2,0,L|141:81,1,120,2|8,0:0|0:0,0:0:0:0:
118,39,66498,1,2,0:0:0:0:
39,93,66831,2,0,L|39:152,1,60,2|8,0:0|0:0,0:0:0:0:
46,200,67165,2,0,L|46:319,1,120,2|2,0:0|0:0,0:0:0:0:
74,358,67665,1,8,0:0:0:0:
154,306,67998,6,0,P|209:291|282:317,1,120,4|8,0:1|0:0,0:0:0:0:
306,336,68498,1,2,0:0:0:0:
306,336,68665,2,0,P|361:351|434:325,1,120,2|8,0:0|0:0,0:0:0:0:
470,253,69331,2,0,L|475:189,1,60,2|2,0:0|0:0,0:0:0:0:
451,150,69665,2,0,L|446:86,1,60,8|2,0:0|0:0,0:0:0:0:
426,46,69998,1,2,0:0:0:0:
334,16,70331,1,8,0:0:0:0:
279,94,70665,6,0,P|221:108|149:73,1,120,4|8,0:0|0:0,0:0:0:0:
125,61,71165,1,0,0:0:0:0:
125,61,71331,1,2,0:0:0:0:
70,140,71665,2,0,L|78:214,1,60,8|2,0:0|0:0,0:0:0:0:
93,244,71998,2,0,B|160:261|149:226|217:244,1,120,4|8,0:0|0:0,0:0:0:0:
252,266,72498,1,2,0:0:0:0:
252,266,72665,1,2,0:3:0:0:
336,310,72998,2,0,L|406:304,1,60,10|2,0:0|0:0,0:0:0:0:
442,293,73331,6,0,P|468:253|458:169,1,120,4|8,0:0|0:0,0:0:0:0:
442,140,73831,2,0,L|311:146,1,120,2|2,0:0|0:0,0:0:0:0:
280,169,74331,1,8,0:0:0:0:
218,94,74665,2,0,L|87:100,1,120,4|8,0:0|0:0,0:0:0:0:
40,176,75331,2,0,L|54:239,1,60,2|0,0:0|0:0,0:0:0:0:
50,282,75665,1,8,0:0:0:0:
126,340,75998,2,0,B|171:354|171:354|253:337,1,120,4|8,0:1|0:0,0:0:0:0:
282,312,76498,1,4,0:0:0:0:
282,216,76831,1,4,0:0:0:0:
282,119,77165,6,0,B|197:98|197:98|95:135,1,180,4|8,0:0|0:0,0:0:0:0:
20,163,77998,2,0,P|-4:110|6:37,1,120,8|8,0:1|0:0,0:0:0:0:
93,22,78665,2,0,L|224:19,1,120,4|8,0:0|0:0,0:0:0:0:
297,64,79331,2,0,P|328:41|340:13,2,60,2|2|8,0:0|0:0|0:0,0:0:0:0:
257,91,79831,6,0,P|236:179|294:253,1,180,2|8,0:0|0:0,0:0:0:0:
333,331,80665,2,0,P|301:338|264:336,1,60,2|2,0:0|0:0,0:0:0:0:
226,332,80998,1,8,0:0:0:0:
137,294,81331,2,0,P|106:250|123:169,1,120,4|8,0:0|0:0,0:0:0:0:
143,95,81998,2,0,P|108:89|74:96,2,60,2|2|8,0:0|0:0|0:0,0:0:0:0:
183,121,82498,6,0,P|249:138|334:62,1,180,2|8,0:0|0:0,0:0:0:0:
410,19,83331,2,0,L|419:93,1,60,12|4,0:0|0:0,0:0:0:0:
380,218,83998,6,0,L|250:224,1,120,4|8,0:1|0:1,0:0:0:0:
169,196,84665,1,2,0:0:0:0:
169,196,84832,2,0,L|151:130,1,60,2|8,0:0|0:0,0:0:0:0:
144,91,85165,2,0,P|196:22|305:40,1,180,2|8,0:0|0:0,0:0:0:0:
324,47,85831,1,2,0:0:0:0:
402,102,86165,2,0,L|395:229,1,120,2|2,0:0|0:0,0:0:0:0:
380,267,86665,6,0,P|325:286|266:266,1,120,4|8,0:0|0:1,0:0:0:0:
190,211,87331,1,2,0:0:0:0:
190,211,87498,2,0,P|159:210|123:215,1,60,2|8,0:0|0:0,0:0:0:0:
89,239,87831,2,0,L|77:117,1,120,4|0,0:0|0:0,0:0:0:0:
99,76,88331,2,0,P|146:90|221:60,1,120,8|0,0:3|1:0,0:0:0:0:
258,58,88831,2,0,P|253:26|239:0,2,60,8|8|12,0:1|0:1|0:0,0:0:0:0:
