osu file format v14

[General]
AudioFilename: audio.mp3
AudioLeadIn: 0
PreviewTime: 46581
Countdown: 0
SampleSet: Soft
StackLeniency: 0.5
Mode: 0
LetterboxInBreaks: 0
WidescreenStoryboard: 0

[Editor]
DistanceSpacing: 1.2
BeatDivisor: 4
GridSize: 16
TimelineZoom: 2.6

[Metadata]
Title:killy killy JOKER (TV Size)
TitleUnicode:killy killy JOKER (TV Size)
Artist:Wakeshima Kanon
ArtistUnicode:分島花音
Creator:Alexsander
Version:Insane
Source:selector infected WIXOSS
Tags:opening card game Ruko Kominato Tama naotyu-
BeatmapID:1667532
BeatmapSetID:793931

[Difficulty]
HPDrainRate:5.5
CircleSize:4
OverallDifficulty:8
ApproachRate:8.8
SliderMultiplier:1.6
SliderTickRate:1

[Events]
//Background and Video events
0,0,"bg.jpg",0,0
Video,94,"wixoss.avi"
//Break Periods
//Storyboard Layer 0 (Background)
//Storyboard Layer 1 (Fail)
//Storyboard Layer 2 (Pass)
//Storyboard Layer 3 (Foreground)
//Storyboard Sound Samples

[TimingPoints]
1332,333.333333333333,4,2,3,40,1,0
1332,-166.666666666667,4,2,3,40,0,0
7915,-166.666666666667,4,2,3,5,0,0
7998,-166.666666666667,4,2,3,40,0,0
8498,-166.666666666667,4,2,1,40,0,0
8665,-125,4,2,1,50,0,0
8831,-125,4,2,1,40,0,0
9081,-125,4,2,5,40,0,0
9331,-100,4,2,1,70,0,0
9498,-100,4,2,1,30,0,0
9665,-100,4,2,1,60,0,0
9998,-100,4,2,1,50,0,0
10331,-100,4,2,1,60,0,0
10498,-100,4,2,2,60,0,0
10831,-100,4,2,1,30,0,0
10998,-100,4,2,1,60,0,0
11165,-100,4,2,1,65,0,0
11331,-100,4,2,1,30,0,0
11498,-100,4,2,1,65,0,0
11665,-100,4,2,1,60,0,0
11748,-100,4,2,4,40,0,0
11998,-100,4,2,1,70,0,0
12165,-100,4,2,1,30,0,0
12331,-100,4,2,1,60,0,0
12665,-100,4,2,1,50,0,0
12998,-100,4,2,1,60,0,0
13165,-100,4,2,1,70,0,0
13498,-100,4,2,1,30,0,0
13665,-100,4,2,1,60,0,0
13831,-100,4,2,1,45,0,0
14165,-100,4,2,1,50,0,0
14665,-100,4,2,5,30,0,0
14998,-125,4,2,5,30,0,0
17165,-125,4,2,1,30,0,0
17665,-125,4,2,5,30,0,0
19498,-125,4,2,1,40,0,0
19665,-125,4,2,1,50,0,0
19998,-100,4,2,1,70,0,0
20331,-100,4,2,1,60,0,0
20498,-100,4,2,1,50,0,0
20998,-100,4,2,1,60,0,0
21498,-100,4,2,1,50,0,0
21665,-100,4,2,1,60,0,0
21831,-100,4,2,1,30,0,0
21998,-100,4,2,1,50,0,0
22331,-100,4,2,1,60,0,0
22498,-100,4,2,1,30,0,0
22665,-100,4,2,1,50,0,0
22998,-100,4,2,1,60,0,0
23165,-100,4,2,1,50,0,0
23831,-100,4,2,1,60,0,0
23998,-100,4,2,1,30,0,0
24165,-100,4,2,1,50,0,0
24331,-100,4,2,1,60,0,0
24498,-100,4,2,1,45,0,0
24665,-100,4,2,1,60,0,0
24831,-100,4,2,1,40,0,0
25165,-166.666666666667,4,2,5,35,0,0
25331,-166.666666666667,4,3,3,30,0,0
25831,-166.666666666667,4,3,3,25,0,0
25998,-166.666666666667,4,3,3,30,0,0
26665,-166.666666666667,4,3,3,30,0,0
27165,-166.666666666667,4,3,3,25,0,0
27331,-166.666666666667,4,3,3,30,0,0
27831,-166.666666666667,4,3,3,25,0,0
27998,-166.666666666667,4,3,3,30,0,0
28665,-166.666666666667,4,3,3,30,0,0
28831,-166.666666666667,4,3,3,25,0,0
28998,-166.666666666667,4,3,3,30,0,0
29165,-166.666666666667,4,2,4,25,0,0
29331,-166.666666666667,4,3,3,30,0,0
30498,-166.666666666667,4,3,3,25,0,0
30665,-166.666666666667,4,3,3,30,0,0
31165,-166.666666666667,4,3,3,25,0,0
31331,-166.666666666667,4,3,3,30,0,0
32498,-166.666666666667,4,3,3,25,0,0
32665,-166.666666666667,4,3,3,30,0,0
33331,-133.333333333333,4,2,3,50,0,0
34998,-133.333333333333,4,2,1,50,0,0
35998,-100,4,2,1,70,0,0
36165,-100,4,2,1,30,0,0
36331,-100,4,2,1,60,0,0
36665,-100,4,2,1,30,0,0
36831,-100,4,2,1,60,0,0
37165,-100,4,2,1,50,0,0
37331,-100,4,2,1,70,0,0
37665,-100,4,2,1,60,0,0
38498,-100,4,2,1,50,0,0
38665,-100,4,2,1,70,0,0
38831,-100,4,2,1,30,0,0
38998,-100,4,2,1,60,0,0
39165,-100,4,2,1,70,0,0
39331,-100,4,2,1,30,0,0
39498,-100,4,2,1,70,0,0
40165,-100,4,2,1,30,0,0
40331,-100,4,2,1,60,0,0
40498,-100,4,2,1,70,0,0
40665,-100,4,2,1,30,0,0
40831,-100,4,2,1,70,0,0
40998,-100,4,2,1,60,0,0
41165,-100,4,2,1,50,0,0
41331,-100,4,2,1,70,0,0
41665,-100,4,2,1,60,0,0
41831,-100,4,2,1,30,0,0
41998,-100,4,2,1,50,0,0
42331,-100,4,2,1,60,0,0
42498,-100,4,2,1,70,0,0
42831,-100,4,2,1,40,0,0
42998,-100,4,2,1,60,0,0
43165,-100,4,2,1,30,0,0
43331,-100,4,2,1,50,0,0
43665,-100,4,2,1,60,0,0
43831,-100,4,2,1,50,0,0
43998,-100,4,2,1,70,0,0
44165,-100,4,2,3,60,0,0
44665,-100,4,2,3,50,0,0
44998,-100,4,2,3,60,0,0
45165,-100,4,2,3,50,0,0
45498,-100,4,2,5,60,0,0
45831,-100,4,2,5,30,0,0
45998,-100,4,2,1,50,0,0
46331,-100,4,2,1,60,0,0
46665,-90.9090909090909,4,2,1,80,0,1
46831,-90.9090909090909,4,2,3,65,0,1
46998,-90.9090909090909,4,2,1,80,0,1
47165,-90.9090909090909,4,2,3,65,0,1
47331,-90.9090909090909,4,2,1,80,0,1
47831,-90.9090909090909,4,2,3,65,0,1
47998,-90.9090909090909,4,2,1,80,0,1
48165,-90.9090909090909,4,2,3,65,0,1
48331,-90.9090909090909,4,2,1,80,0,1
48498,-90.9090909090909,4,2,3,65,0,1
48665,-90.9090909090909,4,2,1,80,0,1
49165,-90.9090909090909,4,2,1,60,0,1
49331,-90.9090909090909,4,2,1,80,0,1
49831,-90.9090909090909,4,2,3,60,0,1
49998,-90.9090909090909,4,2,1,80,0,1
50165,-90.9090909090909,4,2,1,40,0,1
50331,-90.9090909090909,4,2,1,80,0,1
50831,-90.9090909090909,4,2,3,80,0,1
50998,-90.9090909090909,4,2,1,80,0,1
51165,-90.9090909090909,4,2,3,80,0,1
51331,-90.9090909090909,4,2,1,80,0,1
51831,-90.9090909090909,4,2,1,60,0,1
51998,-90.9090909090909,4,2,1,80,0,1
52165,-90.9090909090909,4,2,3,65,0,1
52331,-90.9090909090909,4,2,1,80,0,1
52498,-90.9090909090909,4,2,3,65,0,1
52665,-90.9090909090909,4,2,1,80,0,1
53165,-90.9090909090909,4,2,3,65,0,1
53331,-90.9090909090909,4,2,1,80,0,1
53498,-90.9090909090909,4,2,3,65,0,1
53665,-90.9090909090909,4,2,1,80,0,1
53831,-90.9090909090909,4,2,3,65,0,1
53998,-90.9090909090909,4,2,1,80,0,1
54498,-90.9090909090909,4,2,1,60,0,1
54665,-90.9090909090909,4,2,1,80,0,1
55165,-90.9090909090909,4,2,3,60,0,1
55331,-90.9090909090909,4,2,1,80,0,1
55498,-90.9090909090909,4,2,1,40,0,1
55665,-90.9090909090909,4,2,1,80,0,1
55831,-90.9090909090909,4,2,3,70,0,1
55998,-90.9090909090909,4,2,1,80,0,1
56665,-90.9090909090909,4,2,1,60,0,1
56998,-90.9090909090909,4,2,1,80,0,1
57081,-90.9090909090909,4,2,1,60,0,1
57331,-90.9090909090909,4,2,1,80,0,1
57498,-90.9090909090909,4,2,1,65,0,1
57665,-90.9090909090909,4,2,1,80,0,1
57998,-90.9090909090909,4,2,1,65,0,1
58165,-90.9090909090909,4,2,1,80,0,1
59165,-90.9090909090909,4,2,1,70,0,1
59331,-90.9090909090909,4,2,1,80,0,1
60165,-90.9090909090909,4,2,1,65,0,1
60331,-90.9090909090909,4,2,1,80,0,1
60498,-90.9090909090909,4,2,1,65,0,1
60665,-90.9090909090909,4,2,1,80,0,1
60831,-90.9090909090909,4,2,1,65,0,1
60998,-90.9090909090909,4,2,1,80,0,1
61165,-90.9090909090909,4,2,1,65,0,1
61331,-90.9090909090909,4,2,1,80,0,1
61498,-90.9090909090909,4,2,1,65,0,1
61665,-90.9090909090909,4,2,1,80,0,1
61831,-90.9090909090909,4,2,1,65,0,1
61998,-90.9090909090909,4,2,3,70,0,1
62665,-90.9090909090909,4,2,1,80,0,1
62831,-90.9090909090909,4,2,3,65,0,1
62998,-90.9090909090909,4,2,1,80,0,1
63165,-90.9090909090909,4,2,3,65,0,1
63331,-90.9090909090909,4,2,1,80,0,1
63831,-90.9090909090909,4,2,3,65,0,1
63998,-90.9090909090909,4,2,1,80,0,1
64165,-90.9090909090909,4,2,3,65,0,1
64331,-90.9090909090909,4,2,1,80,0,1
64498,-90.9090909090909,4,2,3,65,0,1
64665,-90.9090909090909,4,2,1,80,0,1
65165,-90.9090909090909,4,2,1,60,0,1
65331,-90.9090909090909,4,2,1,80,0,1
65831,-90.9090909090909,4,2,3,60,0,1
65998,-90.9090909090909,4,2,1,80,0,1
66165,-90.9090909090909,4,2,1,40,0,1
66331,-90.9090909090909,4,2,1,80,0,1
66831,-90.9090909090909,4,2,3,80,0,1
66998,-90.9090909090909,4,2,1,80,0,1
67165,-90.9090909090909,4,2,3,80,0,1
67331,-90.9090909090909,4,2,1,80,0,1
67831,-90.9090909090909,4,2,1,60,0,1
67998,-90.9090909090909,4,2,1,80,0,1
68165,-90.9090909090909,4,2,3,65,0,1
68331,-90.9090909090909,4,2,1,80,0,1
68498,-90.9090909090909,4,2,3,65,0,1
68665,-90.9090909090909,4,2,1,80,0,1
69165,-90.9090909090909,4,2,3,65,0,1
69331,-90.9090909090909,4,2,1,80,0,1
69498,-90.9090909090909,4,2,3,65,0,1
69665,-90.9090909090909,4,2,1,80,0,1
69831,-90.9090909090909,4,2,3,65,0,1
69998,-90.9090909090909,4,2,1,80,0,1
70498,-90.9090909090909,4,2,1,60,0,1
70665,-90.9090909090909,4,2,1,80,0,1
71165,-90.9090909090909,4,2,1,60,0,1
71331,-90.9090909090909,4,2,1,80,0,1
71831,-90.9090909090909,4,2,3,70,0,1
71998,-90.9090909090909,4,2,1,80,0,1
72665,-90.9090909090909,4,2,1,60,0,1
72998,-90.9090909090909,4,2,1,80,0,1
73081,-90.9090909090909,4,2,1,60,0,1
73331,-90.9090909090909,4,2,1,80,0,1
75165,-90.9090909090909,4,2,3,60,0,1
75331,-90.9090909090909,4,2,1,80,0,1
75498,-90.9090909090909,4,2,1,65,0,1
75665,-90.9090909090909,4,2,1,80,0,1
75831,-90.9090909090909,4,2,1,65,0,1
75998,-90.9090909090909,4,2,1,80,0,1
76248,-90.9090909090909,4,2,1,5,0,1
76331,-90.9090909090909,4,2,1,80,0,1
76665,-90.9090909090909,4,2,1,40,0,1
76831,-90.9090909090909,4,2,1,80,0,1
76998,-90.9090909090909,4,2,1,40,0,1
77165,-90.9090909090909,4,2,1,80,0,1
77831,-90.9090909090909,4,2,3,60,0,1
77998,-90.9090909090909,4,2,1,80,0,1
78165,-90.9090909090909,4,2,5,70,0,1
78415,-90.9090909090909,4,2,1,60,0,1
78665,-90.9090909090909,4,2,1,80,0,1
78831,-90.9090909090909,4,2,1,60,0,1
78998,-90.9090909090909,4,2,1,80,0,1
79165,-90.9090909090909,4,2,1,60,0,1
79331,-90.9090909090909,4,2,1,80,0,1
79831,-90.9090909090909,4,2,3,80,0,1
79998,-90.9090909090909,4,2,1,80,0,1
80498,-90.9090909090909,4,2,1,60,0,1
80665,-90.9090909090909,4,2,1,80,0,1
80831,-90.9090909090909,4,2,3,80,0,1
80998,-90.9090909090909,4,2,1,80,0,1
81165,-90.9090909090909,4,2,3,80,0,1
81331,-90.9090909090909,4,2,1,80,0,1
81498,-90.9090909090909,4,2,1,60,0,1
81665,-90.9090909090909,4,2,1,80,0,1
81831,-90.9090909090909,4,2,1,60,0,1
81998,-90.9090909090909,4,2,1,80,0,1
82498,-90.9090909090909,4,2,2,80,0,1
82831,-90.9090909090909,4,2,1,70,0,1
82998,-90.9090909090909,4,2,3,70,0,1
83831,-100,4,2,1,40,0,0
83998,-100,4,2,1,70,0,0
84331,-100,4,2,1,60,0,0
84665,-100,4,2,1,50,0,0
84998,-100,4,2,1,60,0,0
85165,-100,4,2,2,60,0,0
85498,-100,4,2,1,30,0,0
85665,-100,4,2,1,60,0,0
85831,-100,4,2,1,65,0,0
85998,-100,4,2,1,30,0,0
86165,-100,4,2,1,65,0,0
86331,-100,4,2,1,60,0,0
86498,-100,4,2,4,40,0,0
86665,-100,4,2,1,70,0,0
86831,-100,4,2,1,30,0,0
86998,-100,4,2,1,60,0,0
87331,-100,4,2,1,50,0,0
87665,-100,4,2,1,60,0,0
88165,-100,4,2,1,30,0,0
88331,-100,4,2,1,60,0,0
88498,-100,4,2,1,50,0,0

[Colours]
Combo1 : 159,44,236
Combo2 : 236,30,68
Combo3 : 116,91,91
Combo4 : 53,66,200

[HitObjects]
129,234,6665,6,0,B|251:291|255:174|378:222|378:222|405:275|376:328,1,359.999989013672,2|0,0:0|0:0,0:0:0:0:
377,328,7998,2,0,L|219:327,1,143.999995605469,2|2,0:0|0:0,0:0:0:0:
75,342,8665,6,0,L|65:264,1,64,8|0,0:0|0:0,0:0:0:0:
118,158,8998,1,12,0:3:0:0:
118,158,9081,1,2,0:0:0:0:
118,158,9165,1,2,0:0:0:0:
118,158,9248,1,2,0:0:0:0:
118,158,9331,6,0,P|156:147|207:155,1,80,4|0,0:1|0:0,0:0:0:0:
246,342,9665,2,0,P|184:312|168:221,1,160,8|2,0:1|0:0,0:0:0:0:
289,128,10165,1,2,0:0:0:0:
246,256,10331,1,8,0:0:0:0:
118,158,10498,6,0,L|117:-8,1,160,2|0,0:0|0:0,0:0:0:0:
221,72,10998,1,8,0:0:0:0:
110,174,11165,2,0,L|13:174,1,80,2|0,0:0|0:0,0:0:0:0:
234,65,11498,2,0,L|314:65,1,80,2|8,0:0|0:0,0:0:0:0:
340,239,11831,1,2,0:0:0:0:
340,239,11915,1,2,0:0:0:0:
340,239,11998,6,0,P|303:222|280:169,1,80,4|0,0:0|0:0,0:0:0:0:
416,36,12331,2,0,P|414:122|335:161,1,160,8|2,0:1|0:0,0:0:0:0:
209,155,12831,1,2,0:0:0:0:
314,65,12998,1,8,0:0:0:0:
410,283,13165,6,0,L|217:281,1,160,4|0,0:0|0:0,0:0:0:0:
87,303,13665,2,0,P|136:271|151:236,1,80,8|2,0:0|0:0,0:0:0:0:
147,98,13998,1,8,0:0:0:0:
14,195,14165,1,10,3:0:0:0:
19,212,14248,1,0,3:0:0:0:
30,226,14331,2,0,L|75:225,3,40,8|0|8|0,3:0|3:0|3:0|3:0,0:0:0:0:
145,253,14665,5,4,0:0:0:0:
145,253,14998,2,0,L|211:250,1,64,2|0,0:0|0:0,0:0:0:0:
306,206,15331,1,2,0:0:0:0:
354,116,15498,2,0,L|354:46,1,64,2|0,0:0|0:0,0:0:0:0:
252,117,15831,1,2,0:0:0:0:
386,201,15998,6,0,P|423:172|433:84,1,128,2|0,0:0|0:0,0:0:0:0:
336,29,16498,2,0,L|187:30,1,128,2|2,0:0|0:0,0:0:0:0:
82,80,16998,1,2,0:0:0:0:
225,131,17165,1,2,0:0:0:0:
225,131,17248,1,0,0:0:0:0:
225,131,17331,6,0,L|227:202,1,64,6|0,0:0|0:0,0:0:0:0:
141,278,17665,2,0,L|143:207,1,64,2|0,0:0|0:0,0:0:0:0:
142,126,17998,1,2,0:0:0:0:
227,196,18165,2,0,L|298:198,1,64,2|0,0:0|0:0,0:0:0:0:
348,279,18498,1,2,0:0:0:0:
441,166,18665,6,0,P|459:111|418:32,1,128,2|2,0:0|0:0,0:0:0:0:
301,106,19165,2,0,L|364:108,1,64,2|0,0:0|0:0,0:0:0:0:
291,200,19498,1,2,0:0:0:0:
210,19,19665,1,8,0:0:0:0:
210,19,19998,6,0,L|383:26,1,160,4|8,0:0|0:1,0:0:0:0:
439,147,20498,1,2,0:0:0:0:
291,200,20665,2,0,L|290:95,1,80,0|0,1:0|1:0,0:0:0:0:
160,207,20998,1,2,0:0:0:0:
352,264,21165,6,0,P|372:225|372:188,1,80,8|0,0:0|0:0,0:0:0:0:
290,120,21498,1,2,0:0:0:0:
272,300,21665,2,0,P|295:336|327:355,1,80,8|0,0:0|0:0,0:0:0:0:
428,351,21998,1,0,1:0:0:0:
446,248,22165,1,0,1:0:0:0:
282,212,22331,2,0,P|238:214|206:232,1,80,8|0,0:0|0:0,0:0:0:0:
163,351,22665,5,0,1:0:0:0:
272,300,22831,1,2,0:0:0:0:
116,264,22998,1,8,0:0:0:0:
270,380,23165,2,0,L|272:300,1,80,2|0,0:0|1:0,0:0:0:0:
355,177,23498,1,2,0:0:0:0:
207,231,23665,1,2,0:0:0:0:
346,339,23831,6,0,L|425:340,1,80,8|0,0:0|0:0,0:0:0:0:
511,264,24165,1,2,0:0:0:0:
387,179,24331,2,0,L|388:266,1,80,8|0,0:0|3:0,0:0:0:0:
270,380,24665,5,8,0:0:0:0:
240,188,24831,1,6,0:0:0:0:
240,188,25165,5,2,0:0:0:0:
157,226,25331,2,0,P|108:236|52:207,1,95.9999970703126,4|0,0:1|1:0,0:0:0:0:
125,140,25831,1,0,0:0:0:0:
232,247,25998,2,0,P|204:288|144:307,1,95.9999970703126,0|0,1:0|1:0,0:0:0:0:
125,140,26665,6,0,P|153:99|213:80,1,95.9999970703126,2|0,0:2|1:0,0:0:0:0:
262,154,27165,1,2,0:2:0:0:
157,226,27331,2,0,P|108:236|52:207,1,95.9999970703126,2|0,0:2|1:0,0:0:0:0:
37,118,27831,1,2,0:2:0:0:
194,80,27998,6,0,L|304:78,1,95.9999970703126,4|0,0:2|1:0,0:0:0:0:
426,157,28665,2,0,L|371:157,1,47.9999985351563,0|0,1:0|0:0,0:0:0:0:
300,232,28998,1,0,1:0:0:0:
401,326,29165,1,2,0:0:0:0:
401,326,29248,1,2,0:0:0:0:
401,326,29331,6,0,L|402:219,1,95.9999970703126,0|0,1:0|1:0,0:0:0:0:
299,63,29998,2,0,L|298:158,1,95.9999970703126,0|0,1:0|1:0,0:0:0:0:
234,235,30498,1,2,0:2:0:0:
113,137,30665,6,0,P|154:113|209:117,1,95.9999970703126,4|0,0:2|1:0,0:0:0:0:
175,194,31165,1,0,0:0:0:0:
42,164,31331,2,0,P|41:116|72:70,1,95.9999970703126,0|0,1:0|1:0,0:0:0:0:
230,23,31998,6,0,L|338:27,1,95.9999970703126,2|0,0:2|1:0,0:0:0:0:
399,75,32498,1,2,0:2:0:0:
306,169,32665,2,0,L|210:165,1,95.9999970703126,2|0,0:2|1:0,0:0:0:0:
210,165,33331,5,2,1:2:0:0:
179,240,33498,1,2,0:0:0:0:
210,315,33665,1,2,1:2:0:0:
285,345,33831,1,2,0:0:0:0:
345,257,33998,5,2,1:2:0:0:
263,255,34165,1,2,0:0:0:0:
210,315,34331,1,2,1:2:0:0:
285,345,34498,1,0,1:0:0:0:
306,177,34665,5,12,0:3:0:0:
161,249,34831,1,8,0:3:0:0:
345,257,34998,1,8,0:1:0:0:
201,148,35165,1,4,0:0:0:0:
201,148,35498,5,8,0:0:0:0:
240,54,35665,1,8,0:1:0:0:
306,177,35831,1,8,0:0:0:0:
112,136,35998,6,0,P|128:93|163:71,1,80,4|0,0:0|0:0,0:0:0:0:
306,99,36331,1,8,0:0:0:0:
186,232,36498,2,0,L|92:228,1,80,2|0,0:0|0:0,0:0:0:0:
321,98,36831,2,0,L|400:101,1,80,2|8,0:0|0:0,0:0:0:0:
487,177,37165,1,2,0:0:0:0:
265,158,37331,6,0,P|237:99|300:23,1,160,4|8,0:0|0:0,0:0:0:0:
336,211,37831,2,0,L|164:211,1,160,2|2,0:0|0:0,0:0:0:0:
35,278,38331,1,8,0:0:0:0:
108,147,38498,1,0,3:0:0:0:
158,325,38665,6,0,L|254:325,1,80,4|0,0:0|0:0,0:0:0:0:
336,211,38998,1,8,0:0:0:0:
181,124,39165,2,0,P|137:128|98:156,1,80,2|0,0:0|0:0,0:0:0:0:
180,6,39498,2,0,P|224:10|263:38,1,80,2|8,0:0|0:0,0:0:0:0:
336,211,39831,6,0,L|154:212,1,160,4|0,0:0|0:0,0:0:0:0:
255,118,40331,1,8,0:0:0:0:
336,292,40498,2,0,L|252:292,1,80,2|0,0:0|0:0,0:0:0:0:
336,128,40831,2,0,L|416:128,1,80,2|8,0:0|0:0,0:0:0:0:
311,31,41165,1,2,0:0:0:0:
205,165,41331,6,0,P|193:228|262:293,1,160,4|8,0:0|0:0,0:0:0:0:
409,261,41831,1,0,0:0:0:0:
282,211,41998,1,2,0:0:0:0:
342,363,42165,1,2,0:0:0:0:
367,192,42331,1,8,0:0:0:0:
230,361,42498,6,0,B|161:368|161:368|43:349,1,160,4|0,0:0|0:0,0:0:0:0:
164,199,42998,2,0,L|164:287,1,80,8|0,0:0|0:0,0:0:0:0:
249,163,43331,1,2,0:0:0:0:
86,165,43498,1,2,0:0:0:0:
265,266,43665,1,8,0:0:0:0:
168,115,43831,1,2,0:0:0:0:
165,296,43998,5,4,0:0:0:0:
337,189,44165,1,8,0:0:0:0:
339,161,44248,1,8,0:0:0:0:
334,133,44331,1,8,0:0:0:0:
320,109,44415,1,8,0:0:0:0:
300,90,44498,1,8,0:0:0:0:
265,266,44665,5,8,0:0:0:0:
265,266,44748,1,8,0:0:0:0:
265,266,44831,1,8,0:0:0:0:
418,247,44998,1,4,0:0:0:0:
254,159,45165,1,8,0:0:0:0:
254,159,45248,1,8,0:0:0:0:
254,159,45331,1,8,0:0:0:0:
382,317,45498,6,0,P|449:322|494:244,1,160,2|0,0:0|0:0,0:0:0:0:
347,249,45998,2,0,P|354:288|382:317,1,80,8|0,0:1|0:0,0:0:0:0:
494,171,46331,2,0,P|478:120|447:98,1,80,8|0,0:1|0:0,0:0:0:0:
291,62,46665,6,0,L|190:80,1,88.000002685547,4|2,0:1|0:0,0:0:0:0:
105,234,46998,2,0,L|191:218,1,88.000002685547,8|2,0:0|0:0,0:0:0:0:
377,46,47331,6,0,L|276:64,1,88.000002685547,2|2,0:0|0:0,0:0:0:0:
192,218,47664,2,0,L|278:202,1,88.000002685547,8|2,0:0|0:0,0:0:0:0:
84,74,47998,6,0,P|35:73|-14:103,1,88.000002685547,2|2,0:0|0:0,0:0:0:0:
108,233,48331,2,0,P|157:234|206:204,1,88.000002685547,8|2,0:0|0:0,0:0:0:0:
204,77,48665,5,2,0:0:0:0:
58,168,48831,1,2,0:0:0:0:
228,285,48998,1,8,0:0:0:0:
136,162,49165,1,2,0:0:0:0:
41,365,49331,6,0,B|99:390|99:390|219:371,1,176.000005371094,4|8,0:0|0:0,0:0:0:0:
326,288,49831,1,2,0:0:0:0:
189,218,49998,2,0,L|67:238,1,88.000002685547,2|0,0:0|0:0,0:0:0:0:
210,372,50331,2,0,L|296:357,1,88.000002685547,8|2,0:0|0:0,0:0:0:0:
402,269,50665,5,2,0:0:0:0:
274,209,50831,2,0,P|217:207|175:227,1,88.000002685547,2|8,0:0|0:0,0:0:0:0:
43,200,51165,2,0,P|104:167|189:220,1,176.000005371094,2|2,0:0|0:0,0:0:0:0:
106,313,51665,1,8,0:0:0:0:
188,129,51831,1,2,3:0:0:0:
188,129,51915,1,2,3:0:0:0:
188,129,51998,6,0,L|187:226,1,88.000002685547,4|2,0:1|0:0,0:0:0:0:
325,350,52331,2,0,L|325:262,1,88.000002685547,8|2,0:0|0:0,0:0:0:0:
172,130,52665,6,0,L|187:225,1,88.000002685547,2|2,0:0|0:0,0:0:0:0:
340,348,52998,2,0,L|324:261,1,88.000002685547,8|2,0:0|0:0,0:0:0:0:
157,133,53331,6,0,L|189:224,1,88.000002685547,2|2,0:0|0:0,0:0:0:0:
354,344,53664,2,0,L|323:261,1,88.000002685547,8|2,0:0|0:0,0:0:0:0:
186,216,53998,5,2,0:0:0:0:
264,361,54165,1,2,0:0:0:0:
346,172,54331,1,8,0:0:0:0:
184,317,54498,1,2,0:0:0:0:
463,361,54665,6,0,B|499:317|499:317|501:183,1,176.000005371094,4|8,0:0|0:0,0:0:0:0:
434,101,55165,1,2,0:0:0:0:
259,165,55331,2,0,B|205:182|205:182|79:136,1,176.000005371094,2|8,0:0|0:0,0:0:0:0:
206,62,55831,1,2,0:0:0:0:
351,171,55998,6,0,P|390:251|345:344,1,176.000005371094,4|8,0:0|0:0,0:0:0:0:
264,256,56498,1,2,0:0:0:0:
385,170,56665,1,2,0:3:0:0:
385,170,56748,1,2,0:3:0:0:
385,170,56831,2,0,L|480:166,1,88.000002685547,2|10,0:3|0:0,0:0:0:0:
350,32,57165,1,2,0:0:0:0:
247,172,57331,6,0,P|245:216|264:256,1,88.000002685547,4|0,0:0|0:0,0:0:0:0:
372,304,57665,1,8,0:0:0:0:
314,116,57831,2,0,P|272:90|211:95,1,88.000002685547,4|0,0:0|0:0,0:0:0:0:
115,185,58165,1,2,0:0:0:0:
247,172,58331,1,8,0:1:0:0:
82,106,58498,6,0,P|37:154|80:261,1,176.000005371094,4|2,0:0|0:0,0:0:0:0:
220,308,58998,2,0,P|178:261|143:255,1,88.000002685547,8|0,0:0|3:0,0:0:0:0:
155,255,59248,1,0,3:0:0:0:
155,255,59331,5,8,1:0:0:0:
7,381,59581,1,8,1:3:0:0:
32,187,59831,1,0,1:2:0:0:
155,255,59998,6,0,P|201:257|247:228,1,88.000002685547,6|0,0:0|0:0,0:0:0:0:
335,121,60331,1,8,0:0:0:0:
185,184,60498,1,0,0:0:0:0:
331,289,60665,2,0,L|329:178,1,88.000002685547,2|0,0:0|0:0,0:0:0:0:
183,96,60998,2,0,L|184:183,1,88.000002685547,8|0,0:0|0:0,0:0:0:0:
331,289,61331,6,0,P|292:266|243:268,1,88.000002685547,4|0,0:0|0:0,0:0:0:0:
80,320,61665,2,0,P|119:343|168:341,1,88.000002685547,8|0,0:0|0:0,0:0:0:0:
242,253,61998,1,8,0:0:0:0:
264,225,62081,1,8,0:0:0:0:
275,192,62164,1,8,0:0:0:0:
274,157,62248,1,8,0:0:0:0:
260,125,62331,1,8,0:0:0:0:
88,133,62498,1,8,0:0:0:0:
86,167,62581,1,8,0:0:0:0:
98,200,62665,6,0,P|146:202|185:180,1,88.000002685547,4|2,0:1|0:0,0:0:0:0:
287,20,62998,2,0,P|239:18|200:40,1,88.000002685547,8|2,0:0|0:0,0:0:0:0:
15,215,63331,6,0,P|58:218|98:200,1,88.000002685547,2|2,0:0|0:0,0:0:0:0:
204,36,63664,2,0,P|160:32|121:51,1,88.000002685547,8|2,0:0|0:0,0:0:0:0:
192,223,63998,6,0,L|176:110,1,88.000002685547,2|2,0:0|0:0,0:0:0:0:
28,29,64331,2,0,L|40:116,1,88.000002685547,8|2,0:0|0:0,0:0:0:0:
192,223,64665,5,2,0:0:0:0:
246,99,64831,1,2,0:0:0:0:
97,199,64998,1,8,0:0:0:0:
264,295,65165,1,2,0:0:0:0:
328,86,65331,6,0,P|298:22|200:31,1,176.000005371094,4|8,0:0|0:0,0:0:0:0:
195,165,65831,1,2,0:0:0:0:
358,164,65998,2,0,P|396:133|409:92,1,88.000002685547,2|0,0:0|0:0,0:0:0:0:
245,98,66331,2,0,P|210:124|195:165,1,88.000002685547,8|2,0:0|0:0,0:0:0:0:
264,295,66665,5,2,0:0:0:0:
356,162,66831,2,0,L|269:167,1,88.000002685547,2|8,0:0|0:0,0:0:0:0:
94,177,67165,2,0,L|301:166,1,176.000005371094,2|2,0:0|0:0,0:0:0:0:
377,261,67665,1,8,0:0:0:0:
475,118,67831,1,2,3:0:0:0:
475,118,67915,1,2,3:0:0:0:
475,118,67998,6,0,P|474:71|447:31,1,88.000002685547,4|2,0:1|0:0,0:0:0:0:
269,167,68331,2,0,P|270:214|297:254,1,88.000002685547,8|2,0:0|0:0,0:0:0:0:
488,112,68665,6,0,P|478:65|445:31,1,88.000002685547,2|2,0:0|0:0,0:0:0:0:
255,172,68998,2,0,P|264:218|297:252,1,88.000002685547,8|2,0:0|0:0,0:0:0:0:
500,104,69331,6,0,P|482:60|443:31,1,88.000002685547,2|2,0:0|0:0,0:0:0:0:
242,179,69664,2,0,P|259:222|298:251,1,88.000002685547,8|2,0:0|0:0,0:0:0:0:
452,255,69998,5,2,0:0:0:0:
331,172,70165,1,2,0:0:0:0:
407,349,70331,1,8,0:0:0:0:
415,179,70498,1,2,0:0:0:0:
225,306,70665,6,0,P|153:316|78:245,1,176.000005371094,4|8,0:0|0:0,0:0:0:0:
99,132,71165,1,0,0:0:0:0:
280,221,71331,2,0,P|324:278|300:378,1,176.000005371094,2|8,0:0|0:0,0:0:0:0:
225,306,71831,1,2,0:0:0:0:
316,139,71998,6,0,L|507:141,1,176.000005371094,4|8,0:0|0:0,0:0:0:0:
406,254,72498,1,2,0:0:0:0:
247,104,72665,1,2,0:3:0:0:
247,104,72748,1,2,0:3:0:0:
247,104,72831,2,0,P|282:72|343:69,1,88.000002685547,2|10,0:3|0:0,0:0:0:0:
280,221,73165,1,2,0:0:0:0:
144,68,73331,6,0,L|332:64,1,176.000005371094,4|8,0:0|0:0,0:0:0:0:
280,221,73831,2,0,L|105:225,1,176.000005371094,2|2,0:0|0:0,0:0:0:0:
263,141,74331,1,8,0:0:0:0:
262,309,74498,1,2,0:0:0:0:
17,232,74665,6,0,P|53:158|155:156,1,176.000005371094,4|8,0:0|0:0,0:0:0:0:
138,285,75165,1,2,0:0:0:0:
12,164,75331,2,0,L|9:65,1,88.000002685547,2|0,0:0|0:0,0:0:0:0:
186,2,75665,2,0,L|188:89,1,88.000002685547,8|0,0:0|0:0,0:0:0:0:
293,240,75998,6,0,B|371:266|353:215|448:245,1,132.00000402832,4|0,0:1|0:0,0:0:0:0:
445,252,76331,1,8,0:0:0:0:
232,296,76498,2,0,P|211:250|218:201,1,88.000002685547,4|0,0:0|0:0,0:0:0:0:
302,37,76831,2,0,P|323:83|316:132,1,88.000002685547,4|0,0:0|0:0,0:0:0:0:
72,108,77165,6,0,B|169:135|161:64|264:101,1,176.000005371094,4|2,0:0|0:0,0:0:0:0:
72,28,77665,2,0,P|20:48|-4:91,1,88.000002685547,8|2,0:0|0:0,0:0:0:0:
13,212,77998,1,8,0:1:0:0:
179,242,78165,1,8,0:0:0:0:
198,232,78248,1,8,0:0:0:0:
213,217,78331,2,0,L|210:150,3,44.0000013427735,8|8|8|8,0:0|0:3|0:3|0:3,0:0:0:0:
243,94,78665,6,0,L|340:94,1,88.000002685547,4|0,0:0|0:0,0:0:0:0:
473,202,78998,2,0,L|385:202,1,88.000002685547,8|0,0:0|0:0,0:0:0:0:
273,326,79331,1,2,0:0:0:0:
211,173,79498,1,2,0:0:0:0:
349,281,79665,1,8,0:0:0:0:
184,358,79831,6,0,P|107:334|82:233,1,176.000005371094,2|2,0:0|0:0,0:0:0:0:
211,173,80331,2,0,P|188:225|148:246,1,88.000002685547,8|0,0:0|0:0,0:0:0:0:
120,80,80665,1,2,0:0:0:0:
276,66,80831,2,0,L|374:66,1,88.000002685547,2|8,0:0|0:0,0:0:0:0:
487,153,81165,1,2,0:0:0:0:
346,248,81331,6,0,P|326:208|331:144,1,88.000002685547,4|0,0:0|0:0,0:0:0:0:
465,70,81665,2,0,P|485:110|480:174,1,88.000002685547,8|0,0:0|0:0,0:0:0:0:
347,248,81998,1,2,0:0:0:0:
413,130,82165,1,2,0:0:0:0:
484,285,82331,1,8,0:0:0:0:
337,252,82498,1,2,0:0:0:0:
486,152,82665,5,2,0:0:0:0:
358,339,82831,1,2,3:0:0:0:
332,346,82915,1,2,3:0:0:0:
306,345,82998,1,8,0:0:0:0:
282,335,83081,1,8,0:0:0:0:
262,317,83165,1,8,0:0:0:0:
250,294,83248,1,8,0:0:0:0:
246,268,83331,5,12,0:0:0:0:
392,147,83498,1,4,0:0:0:0:
405,145,83831,5,2,0:0:0:0:
405,145,83915,1,2,0:0:0:0:
405,145,83998,2,0,L|296:144,1,80,4|0,0:1|0:0,0:0:0:0:
138,227,84331,2,0,L|297:228,1,160,8|2,0:1|0:0,0:0:0:0:
166,141,84831,1,2,0:0:0:0:
136,316,84998,1,8,0:0:0:0:
373,273,85165,6,0,P|384:202|310:142,1,160,2|0,0:0|0:0,0:0:0:0:
237,227,85665,1,8,0:0:0:0:
385,285,85831,2,0,P|429:288|475:265,1,80,2|0,0:0|0:0,0:0:0:0:
325,144,86165,2,0,P|280:140|234:163,1,80,2|8,0:0|0:0,0:0:0:0:
328,334,86498,1,2,0:0:0:0:
328,334,86581,1,2,0:0:0:0:
328,334,86665,6,0,P|362:305|373:262,1,80,4|0,0:0|0:0,0:0:0:0:
230,145,86998,2,0,P|154:142|105:208,1,160,8|2,0:1|0:0,0:0:0:0:
210,330,87498,1,2,0:0:0:0:
223,301,87581,1,0,3:0:0:0:
222,269,87664,1,8,0:0:0:0:
207,241,87747,1,0,3:0:0:0:
187,216,87831,6,0,P|152:155|163:60,1,160,4|0,0:0|0:0,0:0:0:0:
329,115,88331,1,8,0:3:0:0:
179,227,88498,1,0,1:0:0:0:
147,227,88581,1,0,1:0:0:0:
115,227,88665,1,0,1:0:0:0:
83,227,88748,1,0,1:0:0:0:
51,227,88831,5,8,0:1:0:0:
179,358,88998,1,8,0:1:0:0:
229,133,89165,1,12,0:0:0:0:
