osu file format v14

[General]
AudioFilename: audio.mp3
AudioLeadIn: 0
PreviewTime: 46237
Countdown: 0
SampleSet: Soft
StackLeniency: 0.5
Mode: 0
LetterboxInBreaks: 0
WidescreenStoryboard: 1

[Editor]
Bookmarks: 37831
DistanceSpacing: 0.3
BeatDivisor: 4
GridSize: 16
TimelineZoom: 1

[Metadata]
Title:killy killy JOKER (TV Size)
TitleUnicode:killy killy JOKER (TV Size)
Artist:Wakeshima Kanon
ArtistUnicode:分島花音
Creator:A r M i N
Version:schoolboy's Expert
Source:selector infected WIXOSS
Tags:opening op card game Ruko Kominato Tama naotyu- Japanese pop j-pop Armin A_r_M_i_N Reform Kujinn schoolboy Komore Rosiie soop Kudosu so0p Xenon- Xen Xehn
BeatmapID:2616983
BeatmapSetID:1258913

[Difficulty]
HPDrainRate:5.4
CircleSize:3.8
OverallDifficulty:8.6
ApproachRate:9.1
SliderMultiplier:1.62
SliderTickRate:1

[Events]
//Background and Video events
0,0,"killy bg.jpg",0,0
//Break Periods
//Storyboard Layer 0 (Background)
//Storyboard Layer 1 (Fail)
//Storyboard Layer 2 (Pass)
//Storyboard Layer 3 (Foreground)
//Storyboard Layer 4 (Overlay)
//Storyboard Sound Samples

[TimingPoints]
988,333.333333333333,4,2,1,80,1,0
6321,-166.666666666667,4,2,1,60,0,0
6404,-166.666666666667,4,2,1,10,0,0
7654,-166.666666666667,4,2,1,60,0,0
7737,-166.666666666667,4,2,1,10,0,0
8154,-166.666666666667,4,2,1,60,0,0
8321,-90.9090909090909,4,2,1,70,0,0
9335,-100,4,2,1,70,0,0
14654,-125,4,2,1,45,0,0
19571,-125,4,2,1,5,0,0
19654,-100,4,2,1,70,0,0
24987,-125,4,2,1,50,0,0
26821,-125,4,2,1,10,0,0
26987,-125,4,2,1,50,0,0
27653,-125,4,2,1,50,0,0
30320,-125,4,2,1,50,0,0
32154,-125,4,2,1,10,0,0
32320,-125,4,2,1,50,0,0
32987,-125,4,2,1,50,0,0
35654,-100,4,2,1,70,0,0
39071,-100,4,2,1,5,0,0
39154,-100,4,2,1,70,0,0
40904,-100,4,2,1,5,0,0
40987,-100,4,2,1,70,0,0
45904,-100,4,2,1,5,0,0
45987,-100,4,2,1,70,0,0
46321,-90.9090909090909,4,2,1,80,0,1
57237,-90.9090909090909,4,2,1,5,0,1
57321,-90.9090909090909,4,2,1,80,0,1
57737,-90.9090909090909,4,2,1,5,0,1
57821,-90.9090909090909,4,2,1,80,0,1
61654,-90.9090909090909,4,2,1,80,0,0
62321,-90.9090909090909,4,2,1,80,0,1
73237,-90.9090909090909,4,2,1,5,0,1
73321,-90.9090909090909,4,2,1,80,0,1
75904,-90.9090909090909,4,2,1,5,0,1
75987,-90.9090909090909,4,2,1,80,0,1
76404,-90.9090909090909,4,2,1,5,0,1
76487,-90.9090909090909,4,2,1,80,0,1
82987,-100,4,2,1,70,0,0

[Colours]
Combo1 : 255,255,100
Combo2 : 60,140,145
Combo3 : 227,146,244
Combo4 : 171,196,170
Combo5 : 137,137,219
Combo6 : 81,217,70
Combo7 : 255,153,51
Combo8 : 43,83,145

[HitObjects]
183,264,6321,6,0,B|275:206|234:119|234:107|206:80|156:46|88:119|148:181,1,340.19998961792,2|0,0:0|0:0,0:0:0:0:
134,342,7654,6,0,P|210:305|288:316,1,145.799995550537,2|0,0:0|1:2,0:0:0:0:
352,344,8321,1,8,0:0:0:0:
352,344,8654,5,6,0:3:0:0:
395,342,8737,1,2,0:0:0:0:
430,316,8820,1,2,0:0:0:0:
444,274,8904,1,2,0:0:0:0:
430,232,8987,6,0,P|440:145|455:53,1,178.200005438233,6|10,1:2|0:0,0:0:0:0:
279,172,9487,2,0,P|276:217|265:274,1,81,0|2,0:0|1:2,0:0:0:0:
357,107,9821,1,2,1:2:0:0:
179,199,9987,1,10,0:0:0:0:
343,317,10154,6,0,P|399:316|472:228,1,162,2|0,0:0|0:0,0:0:0:0:
500,147,10654,1,8,0:0:0:0:
438,70,10821,2,0,P|375:62|345:54,1,81,2|0,1:2|0:0,0:0:0:0:
151,265,11154,2,0,P|214:273|244:281,1,81,2|8,1:2|0:0,0:0:0:0:
323,338,11487,1,2,0:0:0:0:
320,326,11571,1,2,0:0:0:0:
318,314,11654,6,0,L|295:144,1,162,2|8,1:2|0:0,0:0:0:0:
389,4,12154,2,0,P|386:43|391:93,1,81,0|0,0:0|1:2,0:0:0:0:
475,151,12487,2,0,L|517:170,2,40.5,2|0|10,1:2|0:0|0:0,0:0:0:0:
282,43,12821,6,0,B|190:53|234:82|130:95,1,162,6|0,1:2|1:2,0:0:0:0:
26,136,13321,2,0,P|31:93|23:21,1,81,14|0,0:0|0:0,0:0:0:0:
204,212,13654,1,8,0:0:0:0:
129,287,13821,2,0,P|65:297|-1:230,1,162,10|0,0:3|0:0,0:0:0:0:
205,357,14321,5,4,0:0:0:0:
205,357,14654,2,0,P|269:363|333:371,1,129.6,2|2,0:0|0:0,0:0:0:0:
396,315,15154,1,2,0:0:0:0:
396,315,15487,1,2,0:0:0:0:
450,250,15654,6,0,P|444:206|368:178,1,129.6,2|2,0:0|0:0,0:0:0:0:
321,108,16154,2,0,P|276:104|233:173,1,129.6,2|2,0:0|0:0,0:0:0:0:
170,230,16654,2,0,L|87:244,1,64.8,2|2,0:0|1:2,0:0:0:0:
37,194,16987,5,2,1:2:0:0:
37,194,17321,2,0,P|31:139|39:59,1,129.6,2|2,0:0|0:0,0:0:0:0:
98,8,17821,1,2,0:0:0:0:
98,8,18154,1,2,0:0:0:0:
161,62,18321,6,0,P|212:60|271:2,1,129.6,2|2,0:0|0:0,0:0:0:0:
334,69,18821,2,0,P|340:104|340:151,1,64.8,2|0,0:0|0:0,0:0:0:0:
507,214,19154,1,2,1:2:0:0:
428,265,19321,2,0,P|423:216|428:149,1,97.2,8|0,0:0|2:0,0:0:0:0:
436,156,19654,6,0,B|344:170|385:208|287:222,1,162,4|8,1:2|0:0,0:0:0:0:
144,137,20154,2,0,P|189:149|228:150,1,81,0|0,0:0|1:2,0:0:0:0:
288,76,20487,1,0,1:2:0:0:
214,17,20654,1,2,0:0:0:0:
223,150,20821,6,0,P|129:161|45:186,1,162,10|0,0:0|1:2,0:0:0:0:
0,60,21321,2,0,P|52:72|99:72,1,81,8|0,0:0|0:0,0:0:0:0:
83,280,21654,2,0,P|42:282|3:293,1,81,0|0,1:2|1:2,0:0:0:0:
144,177,21987,1,8,0:0:0:0:
144,177,22321,6,0,P|183:190|241:199,1,81,2|2,1:2|0:0,0:0:0:0:
394,113,22654,1,10,0:0:0:0:
304,54,22821,2,0,P|301:114|316:234,1,162,2|2,0:0|1:2,0:0:0:0:
423,356,23321,1,2,0:0:0:0:
512,340,23487,6,0,B|420:326|461:288|363:274,1,162,10|2,0:0|1:2,0:0:0:0:
205,358,23987,2,0,P|263:351|306:329,1,81,8|0,0:0|0:0,0:0:0:0:
444,196,24321,5,10,0:0:0:0:
196,112,24487,1,10,0:0:0:0:
196,112,24821,1,2,0:0:0:0:
246,40,24987,6,0,P|184:55|119:61,1,129.6,6|0,1:2|1:2,0:0:0:0:
375,240,25654,2,0,P|381:175|396:112,1,129.6,2|0,1:2|1:2,0:0:0:0:
231,374,26321,6,0,P|195:295|97:284,1,194.4,2|0,1:2|0:0,0:0:0:0:
11,261,26987,2,0,B|118:246|85:198|187:184,1,194.4,2|0,1:2|0:0,0:0:0:0:
263,134,27654,6,0,P|273:56|257:-14,2,129.6,2|0|0,1:2|1:2|1:2,0:0:0:0:
361,323,28654,2,0,L|435:346,1,64.8,2|2,1:2|0:0,0:0:0:0:
287,264,28987,6,0,P|223:274|159:286,1,129.6,0|0,1:2|1:2,0:0:0:0:
17,42,29654,2,0,P|83:28|152:125,1,194.4,2|0,1:2|0:0,0:0:0:0:
229,168,30321,6,0,B|307:153|277:135|348:121,1,129.6,2|0,1:2|1:2,0:0:0:0:
512,308,30987,2,0,P|471:272|385:271,1,129.6,2|0,1:2|1:2,0:0:0:0:
248,367,31654,6,0,P|257:271|238:176,1,194.4,2|0,1:2|0:0,0:0:0:0:
246,84,32321,2,0,B|300:87|333:48|333:48|299:88|322:137,1,194.4,2|0,1:2|0:0,0:0:0:0:
410,188,32987,5,2,1:2:0:0:
410,188,33154,2,0,P|448:200|484:212,2,64.8,2|2|2,0:0|1:2|0:0,0:0:0:0:
341,248,33654,1,0,1:2:0:0:
341,248,33987,1,2,1:2:0:0:
341,248,34321,5,0,1:2:0:0:
278,177,34487,2,0,P|284:145|290:114,1,64.8,8|8,0:3|0:0,0:0:0:0:
145,0,34821,2,0,P|138:31|133:63,1,64.8,4|2,1:2|0:0,0:0:0:0:
229,49,35154,1,8,0:0:0:0:
45,15,35321,1,10,0:0:0:0:
229,49,35487,1,8,0:0:0:0:
149,166,35654,6,0,B|60:180|101:220|7:238,1,162,6|10,1:2|0:0,0:0:0:0:
158,362,36154,2,0,P|168:306|163:261,1,81,2|0,1:2|0:0,0:0:0:0:
309,114,36487,2,0,P|299:170|304:215,1,81,2|8,1:2|0:0,0:0:0:0:
393,266,36821,1,2,0:0:0:0:
316,350,36987,6,0,P|237:330|155:324,1,162,0|10,1:2|0:0,0:0:0:0:
0,167,37487,2,0,P|63:151|141:217,1,162,2|0,1:2|1:2,0:0:0:0:
66,374,37987,2,0,P|61:337|66:281,1,81,8|2,0:0|0:0,0:0:0:0:
214,152,38321,6,0,B|303:166|262:206|356:224,1,162,0|10,1:2|0:0,0:0:0:0:
510,80,38821,2,0,P|450:93|390:103,1,121.5,6|0,1:2|2:0,0:0:0:0:
375,93,39154,1,2,1:2:0:0:
471,205,39321,1,8,0:0:0:0:
273,18,39487,6,0,P|293:116|290:203,1,162,6|0,1:2|1:2,0:0:0:0:
140,247,39987,1,10,0:0:0:0:
235,354,40154,2,0,P|230:298|238:244,1,81,6|0,1:2|0:0,0:0:0:0:
46,180,40487,1,6,1:2:0:0:
139,111,40654,2,0,P|150:192|138:242,1,121.5,8|0,0:0|2:0,0:0:0:0:
140,247,40987,6,0,P|221:238|269:174,1,162,6|8,1:2|0:0,0:0:0:0:
419,128,41487,1,0,0:0:0:0:
320,38,41654,1,0,1:2:0:0:
385,243,41821,5,0,1:2:0:0:
455,22,41987,1,8,0:0:0:0:
288,154,42154,6,0,P|210:142|128:125,1,162,4|0,1:2|1:2,0:0:0:0:
7,319,42654,2,0,P|97:304|130:235,1,162,8|0,0:0|1:2,0:0:0:0:
42,199,43154,1,2,1:2:0:0:
194,342,43321,2,0,P|234:348|282:362,1,81,10|2,0:0|0:0,0:0:0:0:
454,241,43654,5,6,1:2:0:0:
347,179,43821,1,8,0:0:0:0:
355,218,43904,1,8,0:0:0:0:
364,258,43987,1,8,0:0:0:0:
372,297,44071,1,8,0:0:0:0:
381,337,44154,1,4,1:2:0:0:
458,133,44321,5,10,0:0:0:0:
463,122,44404,1,8,0:0:0:0:
468,111,44487,2,0,P|397:98|355:83,1,81,8|4,0:0|1:2,0:0:0:0:
189,178,44821,1,8,0:0:0:0:
199,171,44904,1,8,0:0:0:0:
209,165,44987,1,2,1:2:0:0:
287,34,45154,6,0,P|306:129|301:223,1,162,12|0,0:0|0:0,0:0:0:0:
151,382,45654,2,0,P|134:336|168:263,1,121.5,8|0,0:0|2:0,0:0:0:0:
176,263,45987,2,0,P|215:274|254:282,1,81,12|0,0:0|0:0,0:0:0:0:
432,76,46321,5,4,1:2:0:0:
277,149,46487,1,2,0:0:0:0:
428,227,46654,1,8,0:0:0:0:
309,57,46821,1,2,0:0:0:0:
328,258,46987,5,0,1:2:0:0:
432,76,47154,1,2,0:0:0:0:
265,145,47321,1,8,0:0:0:0:
439,234,47487,1,2,0:0:0:0:
309,57,47654,5,0,1:2:0:0:
201,264,47821,1,2,0:0:0:0:
364,152,47987,1,8,0:0:0:0:
175,75,48154,1,2,0:0:0:0:
288,257,48321,5,0,1:2:0:0:
321,48,48487,1,2,0:0:0:0:
140,188,48654,1,8,0:0:0:0:
364,152,48821,1,2,0:0:0:0:
161,63,48987,6,0,B|63:80|112:120|5:142,1,178.200005438233,4|8,1:2|0:0,0:0:0:0:
227,272,49487,1,2,0:0:0:0:
137,364,49654,2,0,P|128:276|143:175,1,178.200005438233,0|8,1:2|0:0,0:0:0:0:
222,136,50154,1,2,0:0:0:0:
135,49,50321,5,0,1:2:0:0:
340,154,50487,2,0,P|384:145|427:138,1,89.1000027191163,2|8,0:0|0:0,0:0:0:0:
175,272,50821,2,0,P|88:282|28:201,1,178.200005438233,2|2,0:0|0:0,0:0:0:0:
263,349,51321,1,8,0:0:0:0:
234,179,51487,1,2,0:0:0:0:
231,165,51571,1,0,0:0:0:0:
227,152,51654,5,4,1:2:0:0:
322,243,51821,1,2,0:0:0:0:
121,171,51987,1,8,0:0:0:0:
311,80,52154,1,2,0:0:0:0:
201,267,52321,5,0,1:2:0:0:
130,59,52487,1,2,0:0:0:0:
331,162,52654,1,8,0:0:0:0:
121,171,52821,1,2,0:0:0:0:
263,10,52987,5,0,1:2:0:0:
343,177,53154,1,2,0:0:0:0:
150,95,53321,1,8,0:0:0:0:
353,30,53487,1,2,0:0:0:0:
299,261,53654,5,0,1:2:0:0:
181,17,53821,1,2,0:0:0:0:
385,107,53987,1,8,0:0:0:0:
162,212,54154,1,2,0:0:0:0:
353,30,54321,6,0,P|424:27|474:136,1,178.200005438233,4|8,1:2|0:0,0:0:0:0:
350,292,54821,1,2,0:0:0:0:
508,266,54987,2,0,B|408:250|459:204|352:187,1,178.200005438233,0|8,1:2|0:0,0:0:0:0:
229,357,55487,2,0,P|242:317|234:290,1,44.5500013595581,2|0,0:0|0:0,0:0:0:0:
171,250,55654,6,0,P|82:270|-3:283,1,178.200005438233,0|8,1:2|0:0,0:0:0:0:
199,103,56154,1,2,0:0:0:0:
134,18,56321,2,0,P|68:35|63:154,1,178.200005438233,0|8,1:2|0:0,0:0:0:0:
211,234,56821,1,2,0:0:0:0:
115,357,56987,6,0,P|106:282|112:218,1,133.650004078674,4|0,1:2|2:0,0:0:0:0:
122,212,57321,1,8,0:0:0:0:
235,47,57487,2,0,P|315:75|330:136,1,133.650004078674,6|0,0:0|2:0,0:0:0:0:
404,163,57821,2,0,P|446:175|490:186,1,89.1000027191163,0|8,1:2|0:0,0:0:0:0:
266,313,58154,6,0,P|121:344|81:354,1,178.200005438233,4|0,1:2|1:2,0:0:0:0:
0,172,58654,1,8,0:0:0:0:
199,231,58821,2,0,L|149:217,1,44.5500013595581,2|2,0:0|0:0,0:0:0:0:
84,261,58987,2,0,P|98:194|96:124,2,133.650004078674,10|8|8,0:0|0:0|0:0,0:0:0:0:
263,367,59654,6,0,P|348:354|380:261,1,178.200005438233,0|12,1:2|0:0,0:0:0:0:
451,96,60154,1,0,0:0:0:0:
512,205,60321,2,0,P|423:185|338:172,1,178.200005438233,0|12,1:2|0:0,0:0:0:0:
150,28,60821,1,2,0:0:0:0:
161,21,60904,1,2,0:0:0:0:
173,16,60987,6,0,P|251:51|231:141,1,178.200005438233,0|12,1:2|0:0,0:0:0:0:
66,257,61487,1,0,0:0:0:0:
148,336,61654,1,8,0:0:0:0:
152,302,61737,1,8,0:0:0:0:
157,269,61820,1,8,0:0:0:0:
162,236,61904,1,8,0:0:0:0:
166,203,61987,1,0,1:2:0:0:
63,79,62154,2,0,L|80:163,1,44.5500013595581,8|8,0:0|0:0,0:0:0:0:
157,269,62321,5,4,1:2:0:0:
231,104,62487,1,2,0:0:0:0:
31,194,62654,1,8,0:0:0:0:
251,274,62821,1,2,0:0:0:0:
141,81,62987,5,0,1:2:0:0:
84,308,63154,1,2,0:0:0:0:
281,194,63321,1,8,0:0:0:0:
51,107,63487,1,2,0:0:0:0:
184,300,63654,5,0,1:2:0:0:
259,69,63821,1,2,0:0:0:0:
114,178,63987,1,8,0:0:0:0:
324,273,64154,1,2,0:0:0:0:
251,56,64321,5,0,1:2:0:0:
184,300,64487,1,2,0:0:0:0:
361,169,64654,1,8,0:0:0:0:
128,70,64821,1,2,0:0:0:0:
275,332,64987,6,0,P|363:296|451:289,1,178.200005438233,4|8,1:2|0:0,0:0:0:0:
512,206,65487,1,2,0:0:0:0:
457,121,65654,2,0,P|416:119|357:98,1,89.1000027191163,0|2,1:2|0:0,0:0:0:0:
141,229,65987,2,0,P|182:231|241:252,1,89.1000027191163,8|2,0:0|0:0,0:0:0:0:
301,173,66321,5,0,1:2:0:0:
226,21,66487,2,0,P|217:68|224:116,1,89.1000027191163,2|8,0:0|0:0,0:0:0:0:
394,342,66821,2,0,P|434:285|390:190,1,178.200005438233,2|2,0:0|0:0,0:0:0:0:
137,284,67321,1,8,0:0:0:0:
263,359,67487,1,2,0:0:0:0:
265,345,67571,1,0,0:0:0:0:
267,331,67654,5,4,1:2:0:0:
136,150,67821,1,2,0:0:0:0:
70,349,67987,1,8,0:0:0:0:
260,236,68154,1,2,0:0:0:0:
20,166,68321,5,0,1:2:0:0:
181,300,68487,1,2,0:0:0:0:
214,82,68654,1,8,0:0:0:0:
74,245,68821,1,2,0:0:0:0:
312,158,68987,5,0,1:2:0:0:
86,83,69154,1,2,0:0:0:0:
183,284,69321,1,8,0:0:0:0:
299,59,69487,1,2,0:0:0:0:
81,240,69654,5,0,1:2:0:0:
325,153,69821,1,2,0:0:0:0:
78,68,69987,1,8,0:0:0:0:
271,277,70154,1,2,0:0:0:0:
0,197,70321,6,0,P|96:178|184:157,1,178.200005438233,4|8,1:2|0:0,0:0:0:0:
314,350,70821,1,2,0:0:0:0:
481,283,70987,2,0,P|447:240|324:250,1,178.200005438233,0|8,1:2|0:0,0:0:0:0:
250,180,71487,1,2,0:0:0:0:
334,99,71654,6,0,B|432:82|383:42|490:20,1,178.200005438233,0|8,1:2|0:0,0:0:0:0:
359,216,72154,1,2,0:0:0:0:
450,317,72321,2,0,P|467:224|463:137,1,178.200005438233,0|8,1:2|0:0,0:0:0:0:
359,216,72821,1,2,0:0:0:0:
493,384,72987,6,0,P|428:343|338:366,1,133.650004078674,4|0,1:2|2:0,0:0:0:0:
360,360,73321,1,8,0:0:0:0:
133,272,73487,2,0,P|202:272|269:190,1,178.200005438233,2|2,0:0|0:0,0:0:0:0:
378,136,73987,1,8,0:0:0:0:
281,67,74154,1,2,0:0:0:0:
336,267,74321,6,0,P|423:248|529:244,1,178.200005438233,4|8,1:2|0:0,0:0:0:0:
378,136,74821,1,2,0:0:0:0:
477,28,74987,2,0,P|472:95|476:135,1,89.1000027191163,0|2,1:2|0:0,0:0:0:0:
244,300,75321,2,0,P|249:233|245:193,1,89.1000027191163,8|2,0:0|0:0,0:0:0:0:
110,133,75654,6,0,P|193:116|246:81,1,133.650004078674,4|0,1:2|2:0,0:0:0:0:
246,79,75987,1,8,0:0:0:0:
448,271,76154,2,0,P|399:227|333:221,1,133.650004078674,6|0,1:2|2:0,0:0:0:0:
259,268,76487,2,0,P|247:335|240:370,1,89.1000027191163,4|8,1:2|0:0,0:0:0:0:
7,271,76821,6,0,B|105:254|56:214|163:192,1,178.200005438233,4|0,1:2|1:2,0:0:0:0:
350,31,77321,2,0,P|276:97|193:67,1,178.200005438233,12|4,0:2|1:2,0:0:0:0:
68,160,77821,1,8,0:0:0:0:
55,165,77904,1,8,0:0:0:0:
42,170,77987,1,8,0:3:0:0:
180,304,78154,2,0,P|182:263|179:237,1,44.5500013595581,4|4,0:3|0:3,0:0:0:0:
254,204,78321,6,0,P|299:210|363:231,1,89.1000027191163,4|0,1:2|0:0,0:0:0:0:
494,116,78654,1,8,0:0:0:0:
414,56,78821,2,0,P|406:117|406:161,1,89.1000027191163,2|0,0:0|1:2,0:0:0:0:
512,213,79154,1,2,0:0:0:0:
416,350,79321,2,0,P|424:289|424:245,1,89.1000027191163,8|2,0:0|0:0,0:0:0:0:
304,172,79654,6,0,P|255:181|209:198,1,89.1000027191163,0|2,1:2|0:0,0:0:0:0:
41,83,79987,2,0,P|90:74|136:57,1,89.1000027191163,8|2,0:0|0:0,0:0:0:0:
22,198,80321,1,0,1:2:0:0:
129,304,80487,2,0,P|206:299|255:207,1,178.200005438233,2|2,0:0|0:0,0:0:0:0:
331,10,80987,6,0,P|272:8|228:108,1,178.200005438233,4|8,1:2|0:0,0:0:0:0:
356,237,81487,2,0,P|363:176|355:136,1,89.1000027191163,2|0,0:0|1:2,0:0:0:0:
257,293,81821,1,2,0:0:0:0:
362,351,81987,2,0,P|407:360|456:372,1,89.1000027191163,8|2,0:0|0:0,0:0:0:0:
155,227,82321,6,0,P|114:242|62:249,1,89.1000027191163,0|8,1:2|0:0,0:0:0:0:
54,263,82571,2,0,L|43:308,1,44.5500013595581,8|8,0:0|0:0,0:0:0:0:
264,130,82821,1,8,0:0:0:0:
260,117,82904,1,8,0:0:0:0:
255,104,82987,5,12,0:0:0:0:
206,348,83154,1,0,1:2:0:0:
206,348,83487,2,0,L|255:338,1,40.5,8|8,0:0|0:0,0:0:0:0:
307,278,83654,6,0,B|399:288|355:317|459:330,1,162,6|8,1:2|0:0,0:0:0:0:
512,161,84154,2,0,P|466:176|425:175,1,81,0|0,0:0|1:2,0:0:0:0:
315,106,84487,1,2,1:2:0:0:
423,34,84654,1,10,0:0:0:0:
338,213,84821,6,0,P|247:190|149:192,1,162,2|0,0:0|0:0,0:0:0:0:
43,116,85321,1,8,0:0:0:0:
138,23,85487,2,0,P|132:82|138:136,1,81,2|0,1:2|0:0,0:0:0:0:
256,293,85821,2,0,P|262:234|256:180,1,81,2|8,1:2|0:0,0:0:0:0:
328,133,86154,1,2,0:0:0:0:
339,128,86237,1,2,0:0:0:0:
349,121,86321,6,0,P|413:117|466:212,1,162,2|8,1:2|0:0,0:0:0:0:
396,263,86821,2,0,P|351:252|294:250,1,81,0|0,0:0|1:2,0:0:0:0:
199,338,87154,1,2,1:2:0:0:
204,297,87237,1,2,0:0:0:0:
209,257,87320,1,10,0:0:0:0:
215,217,87403,1,2,0:0:0:0:
220,177,87487,6,0,P|213:91|199:3,1,162,6|0,1:2|1:2,0:0:0:0:
371,166,87987,2,0,P|374:206|380:246,1,81,14|8,0:0|0:3,0:0:0:0:
449,78,88321,1,4,0:3:0:0:
220,177,88487,5,10,0:0:0:0:
473,268,88654,1,10,0:0:0:0:
355,15,88821,1,14,0:0:0:0:
