osu file format v14

[General]
AudioFilename: audio.mp3
AudioLeadIn: 0
PreviewTime: 46237
Countdown: 0
SampleSet: Soft
StackLeniency: 0.7
Mode: 0
LetterboxInBreaks: 0
WidescreenStoryboard: 1

[Editor]
Bookmarks: 6665,9331,14665,25331,35998,46665,57331,62665,73331,83998,89165
DistanceSpacing: 1
BeatDivisor: 4
GridSize: 16
TimelineZoom: 1

[Metadata]
Title:killy killy JOKER (TV Size)
TitleUnicode:killy killy JOKER (TV Size)
Artist:Wakeshima Kanon
ArtistUnicode:分島花音
Creator:A r M i N
Version:Xenon's Normal
Source:selector infected WIXOSS
Tags:opening op card game Ruko Kominato Tama naotyu- Japanese pop j-pop Armin A_r_M_i_N Reform Kujinn schoolboy Komore Rosiie soop Kudosu so0p Xenon- Xen Xehn
BeatmapID:2620421
BeatmapSetID:1258913

[Difficulty]
HPDrainRate:4
CircleSize:3.5
OverallDifficulty:4
ApproachRate:5.5
SliderMultiplier:0.999999999999999
SliderTickRate:1

[Events]
//Background and Video events
0,0,"killy bg.jpg",0,0
//Break Periods
//Storyboard Layer 0 (Background)
//Storyboard Layer 1 (Fail)
//Storyboard Layer 2 (Pass)
//Storyboard Layer 3 (Foreground)
//Storyboard Layer 4 (Overlay)
//Storyboard Sound Samples

[TimingPoints]
988,333.333333333333,4,2,1,80,1,0
6321,-166.666666666667,4,2,1,60,0,0
8321,-166.666666666667,4,2,1,70,0,0
8654,-100,4,2,1,70,0,0
14654,-100,4,2,1,45,0,0
19654,-100,4,2,1,70,0,0
24987,-100,4,2,1,50,0,0
35654,-100,4,2,1,70,0,0
46321,-100,4,2,1,80,0,1
61654,-100,4,2,1,80,0,0
62321,-100,4,2,1,80,0,1
82987,-100,4,2,1,70,0,0

[Colours]
Combo1 : 255,255,100
Combo2 : 60,140,145
Combo3 : 227,146,244
Combo4 : 171,196,170
Combo5 : 137,137,219
Combo6 : 81,217,70
Combo7 : 255,153,51
Combo8 : 43,83,145

[HitObjects]
230,184,6321,6,0,B|278:104|194:23|194:23|94:81|122:170,1,359.999989013672,2|8,0:0|0:0,0:0:0:0:
58,247,8654,2,0,L|65:310,1,50,6|2,0:3|0:0,0:0:0:0:
99,331,8987,6,0,P|147:336|190:311,1,99.9999999999999,6|10,1:2|0:0,0:0:0:0:
264,244,9654,2,0,L|327:251,2,50,2|2|10,1:2|1:2|0:0,0:0:0:0:
229,207,10154,2,0,L|215:95,1,99.9999999999999,2|0,0:0|0:0,0:0:0:0:
213,62,10654,1,8,0:0:0:0:
213,62,10821,1,2,1:2:0:0:
292,0,11154,2,0,P|340:-5|383:19,1,99.9999999999999,2|2,1:2|0:0,0:0:0:0:
411,60,11654,6,0,L|397:171,1,99.9999999999999,2|8,1:2|0:0,0:0:0:0:
308,202,12321,2,0,L|315:265,1,50,0|2,1:2|1:2,0:0:0:0:
326,304,12654,1,10,0:0:0:0:
326,304,12821,2,0,P|283:279|234:284,1,99.9999999999999,6|0,1:2|1:2,0:0:0:0:
193,312,13321,1,14,0:0:0:0:
108,259,13654,2,0,L|114:209,1,50,8|10,0:0|0:3,0:0:0:0:
121,159,13987,1,4,0:3:0:0:
70,72,14321,5,4,0:0:0:0:
145,6,14654,2,0,P|193:0|236:25,1,99.9999999999999,2|2,0:0|0:0,0:0:0:0:
261,68,15154,1,2,0:0:0:0:
209,153,15487,2,0,L|222:264,1,99.9999999999999,2|0,0:0|0:0,0:0:0:0:
230,305,15987,1,2,0:0:0:0:
230,305,16154,1,2,0:0:0:0:
314,368,16487,1,2,0:0:0:0:
314,368,16654,2,0,L|377:375,1,50,2|2,0:0|1:2,0:0:0:0:
413,384,16987,5,2,1:2:0:0:
495,327,17321,2,0,P|500:278|475:235,1,99.9999999999999,2|2,0:0|0:0,0:0:0:0:
438,201,17821,1,2,0:0:0:0:
351,250,18154,2,0,L|239:263,1,99.9999999999999,2|0,0:0|0:0,0:0:0:0:
203,174,18821,2,0,L|103:161,1,99.9999999999999,2|2,0:0|1:2,0:0:0:0:
54,151,19321,1,8,0:0:0:0:
0,234,19654,6,0,P|-5:282|19:325,2,99.9999999999999,4|8|0,1:2|0:0|1:2,0:0:0:0:
58,154,20654,1,2,0:0:0:0:
58,154,20821,2,0,L|44:42,1,99.9999999999999,10|0,0:0|1:2,0:0:0:0:
38,5,21321,1,8,0:0:0:0:
131,41,21654,2,0,L|194:48,1,50,0|0,1:2|1:2,0:0:0:0:
230,54,21987,1,8,0:0:0:0:
299,125,22321,6,0,P|341:100|390:105,1,99.9999999999999,2|10,1:2|0:0,0:0:0:0:
478,152,22987,2,0,L|470:215,1,50,0|2,1:2|1:2,0:0:0:0:
436,237,23321,1,2,0:0:0:0:
436,237,23487,2,0,L|448:336,1,99.9999999999999,10|2,0:0|1:2,0:0:0:0:
459,384,23987,1,8,0:0:0:0:
365,365,24321,1,10,0:0:0:0:
365,365,24487,1,10,0:0:0:0:
251,287,24987,6,0,P|208:311|159:306,1,99.9999999999999,6|0,1:2|1:2,0:0:0:0:
94,228,25654,2,0,L|107:116,1,99.9999999999999,2|0,1:2|1:2,0:0:0:0:
189,72,26321,2,0,P|237:66|280:91,1,99.9999999999999,2|0,1:2|1:2,0:0:0:0:
330,177,26987,2,0,L|441:190,1,99.9999999999999,2|0,1:2|1:2,0:0:0:0:
509,129,27654,6,0,P|514:80|489:37,2,99.9999999999999,2|0|0,1:2|1:2|1:2,0:0:0:0:
429,189,28654,2,0,L|365:181,1,50,2|2,1:2|0:0,0:0:0:0:
329,174,28987,1,0,1:2:0:0:
247,232,29321,1,0,1:2:0:0:
175,162,29654,2,0,P|180:113|155:70,1,99.9999999999999,2|0,1:2|1:2,0:0:0:0:
57,90,30321,6,0,P|51:138|76:181,1,99.9999999999999,2|0,1:2|1:2,0:0:0:0:
145,254,30988,2,0,L|256:267,1,99.9999999999999,2|0,1:2|1:2,0:0:0:0:
307,343,31654,2,0,L|406:330,1,99.9999999999999,2|0,1:2|1:2,0:0:0:0:
475,259,32321,2,0,P|480:210|455:167,1,99.9999999999999,2|0,1:2|1:2,0:0:0:0:
387,94,32987,5,2,1:2:0:0:
363,190,33321,1,2,1:2:0:0:
264,196,33654,1,0,1:2:0:0:
226,104,33987,1,2,1:2:0:0:
303,41,34321,2,0,L|366:48,1,50,0|8,1:2|0:3,0:0:0:0:
405,60,34654,1,8,0:0:0:0:
405,60,34821,2,0,P|399:108|424:151,1,99.9999999999999,4|8,1:2|0:0,0:0:0:0:
458,187,35321,2,0,L|450:250,1,50,10|8,0:0|0:0,0:0:0:0:
472,282,35654,6,0,P|429:257|380:262,1,99.9999999999999,6|10,1:2|0:0,0:0:0:0:
340,292,36154,1,2,1:2:0:0:
274,367,36487,2,0,L|224:360,1,50,2|8,1:2|0:0,0:0:0:0:
188,325,36821,2,0,P|182:276|207:233,1,99.9999999999999,2|0,0:0|0:0,0:0:0:0:
250,206,37321,1,10,0:0:0:0:
250,206,37487,2,0,L|349:218,1,99.9999999999999,2|0,1:2|1:2,0:0:0:0:
398,225,37987,1,8,0:0:0:0:
474,160,38321,6,0,P|479:111|454:68,1,99.9999999999999,0|10,1:2|0:0,0:0:0:0:
415,37,38821,1,6,1:2:0:0:
327,84,39154,2,0,L|263:91,1,50,2|8,1:2|0:0,0:0:0:0:
237,59,39487,2,0,P|242:107|217:150,1,99.9999999999999,6|0,1:2|1:2,0:0:0:0:
179,180,39987,1,10,0:0:0:0:
179,180,40154,1,6,1:2:0:0:
92,230,40487,2,0,L|78:341,1,99.9999999999999,6|0,1:2|1:2,0:0:0:0:
46,366,40987,6,0,P|88:341|137:346,1,99.9999999999999,6|8,1:2|0:0,0:0:0:0:
230,384,41654,2,0,L|279:377,1,50,0|0,1:2|1:2,0:0:0:0:
331,368,41987,1,8,0:0:0:0:
331,368,42154,2,0,P|306:325|311:276,1,99.9999999999999,4|0,1:2|1:2,0:0:0:0:
335,232,42654,1,8,0:0:0:0:
429,193,42987,1,0,1:2:0:0:
429,193,43154,2,0,L|478:199,2,50,2|10|2,1:2|0:0|0:0,0:0:0:0:
399,152,43654,6,0,P|423:109|418:60,1,99.9999999999999,6|8,1:2|0:0,0:0:0:0:
320,40,44321,2,0,P|295:82|300:131,1,99.9999999999999,10|4,0:0|1:2,0:0:0:0:
255,222,44987,1,2,1:2:0:0:
255,222,45154,2,0,L|143:235,1,99.9999999999999,12|0,0:0|0:0,0:0:0:0:
105,237,45654,1,8,0:0:0:0:
46,156,45987,1,12,0:0:0:0:
107,77,46321,6,0,L|218:90,1,99.9999999999999,4|8,1:2|0:0,0:0:0:0:
240,132,46821,1,2,0:0:0:0:
240,132,46987,2,0,L|303:124,1,50,0|2,1:2|0:0,0:0:0:0:
339,121,47321,1,8,0:0:0:0:
415,184,47654,2,0,P|420:232|395:275,1,99.9999999999999,0|8,1:2|0:0,0:0:0:0:
357,306,48154,1,2,0:0:0:0:
357,306,48321,2,0,L|293:298,1,50,0|2,1:2|0:0,0:0:0:0:
257,291,48655,1,8,0:0:0:0:
193,214,48987,6,0,L|93:226,1,99.9999999999999,4|8,1:2|0:0,0:0:0:0:
58,261,49487,1,2,0:0:0:0:
58,261,49654,2,0,P|82:218|77:169,1,99.9999999999999,0|8,1:2|0:0,0:0:0:0:
141,93,50321,1,0,1:2:0:0:
141,93,50487,2,0,L|148:29,2,50,2|8|2,0:0|0:0|0:0,0:0:0:0:
178,126,50987,1,0,1:2:0:0:
268,83,51321,1,8,0:0:0:0:
344,147,51654,6,0,L|357:258,1,99.9999999999999,4|8,1:2|0:0,0:0:0:0:
332,291,52154,1,2,0:0:0:0:
332,291,52321,2,0,L|282:284,1,50,0|2,1:2|0:0,0:0:0:0:
232,275,52655,1,8,0:0:0:0:
189,185,52987,2,0,P|194:136|169:93,1,99.9999999999999,0|8,1:2|0:0,0:0:0:0:
130,72,53487,1,2,0:0:0:0:
130,72,53654,2,0,L|80:78,1,50,0|2,1:2|0:0,0:0:0:0:
30,88,53988,1,8,0:0:0:0:
80,173,54321,6,0,L|66:284,1,99.9999999999999,4|8,1:2|0:0,0:0:0:0:
62,325,54821,1,2,0:0:0:0:
62,325,54987,1,0,1:2:0:0:
153,364,55321,2,0,L|216:356,1,50,8|2,0:0|0:0,0:0:0:0:
245,384,55654,2,0,P|239:335|264:292,1,99.9999999999999,0|8,1:2|0:0,0:0:0:0:
308,266,56154,1,2,0:0:0:0:
308,266,56320,1,0,1:2:0:0:
391,321,56654,2,0,L|440:327,1,50,8|2,0:0|0:0,0:0:0:0:
483,352,56987,6,0,P|458:309|463:260,1,99.9999999999999,4|8,1:2|0:0,0:0:0:0:
492,219,57487,1,6,0:0:0:0:
410,160,57821,2,0,L|402:96,1,50,0|8,1:2|0:0,0:0:0:0:
441,77,58154,2,0,L|341:64,1,99.9999999999999,4|0,1:2|1:2,0:0:0:0:
292,56,58654,1,8,0:0:0:0:
220,125,58987,2,0,L|140:134,2,74.9999999999999,10|8|8,0:0|0:0|0:0,0:0:0:0:
252,163,59654,6,0,P|227:205|232:254,1,99.9999999999999,0|12,1:2|0:0,0:0:0:0:
258,303,60154,1,0,0:0:0:0:
258,303,60321,1,0,1:2:0:0:
186,372,60654,1,12,0:0:0:0:
106,310,60987,2,0,L|119:198,1,99.9999999999999,0|12,1:2|0:0,0:0:0:0:
190,140,61654,2,0,L|253:132,1,50,8|8,0:0|0:0,0:0:0:0:
279,163,61987,2,0,L|328:169,1,50,0|8,1:2|0:0,0:0:0:0:
370,140,62321,6,0,P|375:91|350:48,1,99.9999999999999,4|8,1:2|0:0,0:0:0:0:
313,24,62821,1,2,0:0:0:0:
313,24,62987,2,0,L|249:31,1,50,0|2,1:2|0:0,0:0:0:0:
214,35,63321,1,8,0:0:0:0:
145,107,63654,2,0,P|102:82|53:87,1,99.9999999999999,0|8,1:2|0:0,0:0:0:0:
19,124,64154,1,2,0:0:0:0:
19,124,64321,2,0,L|26:187,1,50,0|2,1:2|0:0,0:0:0:0:
34,224,64655,1,8,0:0:0:0:
115,281,64987,6,0,L|214:293,1,99.9999999999999,4|8,1:2|0:0,0:0:0:0:
250,328,65487,1,2,0:0:0:0:
250,328,65654,2,0,P|225:285|230:236,1,99.9999999999999,0|8,1:2|0:0,0:0:0:0:
308,173,66321,1,0,1:2:0:0:
308,173,66487,2,0,L|315:109,2,50,2|8|2,0:0|0:0|0:0,0:0:0:0:
345,206,66987,1,0,1:2:0:0:
436,165,67321,1,8,0:0:0:0:
512,229,67654,6,0,L|499:328,1,99.9999999999999,4|8,1:2|0:0,0:0:0:0:
469,368,68154,1,2,0:0:0:0:
469,368,68321,2,0,L|419:374,1,50,0|2,1:2|0:0,0:0:0:0:
369,384,68655,1,8,0:0:0:0:
303,308,68987,2,0,P|308:259|283:216,1,99.9999999999999,0|8,1:2|0:0,0:0:0:0:
244,195,69487,1,2,0:0:0:0:
244,195,69654,2,0,L|194:201,1,50,0|2,1:2|0:0,0:0:0:0:
144,211,69988,1,8,0:0:0:0:
65,149,70321,6,0,P|59:100|84:57,1,99.9999999999999,4|8,1:2|0:0,0:0:0:0:
129,32,70821,1,2,0:0:0:0:
129,32,70987,1,0,1:2:0:0:
211,88,71321,2,0,L|274:95,1,50,8|2,0:0|0:0,0:0:0:0:
303,68,71654,2,0,P|297:116|322:159,1,99.9999999999999,0|8,1:2|0:0,0:0:0:0:
366,192,72154,1,2,0:0:0:0:
366,192,72320,1,0,1:2:0:0:
430,268,72654,2,0,L|436:317,1,50,8|2,0:0|0:0,0:0:0:0:
465,358,72987,6,0,P|422:333|373:338,1,99.9999999999999,4|8,1:2|0:0,0:0:0:0:
333,368,73487,2,0,L|346:256,1,99.9999999999999,2|2,0:0|0:0,0:0:0:0:
351,218,73987,1,8,0:0:0:0:
274,153,74321,2,0,P|226:147|183:172,1,99.9999999999999,4|8,1:2|0:0,0:0:0:0:
87,142,74987,1,0,1:2:0:0:
30,224,75321,1,8,0:0:0:0:
91,304,75654,6,0,L|190:316,1,99.9999999999999,4|8,1:2|0:0,0:0:0:0:
239,323,76154,1,6,1:2:0:0:
318,383,76487,1,4,1:2:0:0:
399,324,76821,2,0,P|423:281|418:232,1,99.9999999999999,4|0,1:2|1:2,0:0:0:0:
390,191,77321,1,12,0:2:0:0:
305,243,77654,1,4,1:2:0:0:
305,243,77821,2,0,L|205:255,1,99.9999999999999,8|4,0:0|0:3,0:0:0:0:
171,291,78321,6,0,L|107:283,1,50,4|0,1:2|0:0,0:0:0:0:
83,316,78654,1,8,0:0:0:0:
83,316,78821,2,0,P|88:267|63:224,1,99.9999999999999,2|2,0:0|0:0,0:0:0:0:
23,195,79321,1,8,0:0:0:0:
99,131,79654,2,0,L|105:81,1,50,0|2,1:2|0:0,0:0:0:0:
111,31,79987,1,8,0:0:0:0:
195,91,80321,1,0,1:2:0:0:
195,91,80487,2,0,P|237:66|286:71,1,99.9999999999999,2|2,0:0|0:0,0:0:0:0:
328,97,80987,5,4,1:2:0:0:
384,179,81321,2,0,L|370:290,1,99.9999999999999,8|0,0:0|1:2,0:0:0:0:
337,314,81821,1,2,0:0:0:0:
337,314,81987,2,0,L|273:321,1,50,8|2,0:0|0:0,0:0:0:0:
237,325,82321,1,0,1:2:0:0:
112,168,82987,6,0,L|48:160,1,50,12|0,0:0|1:2,0:0:0:0:
124,298,83654,6,0,P|166:272|215:277,1,99.9999999999999,6|8,1:2|0:0,0:0:0:0:
296,334,84321,2,0,L|289:397,2,50,0|2|10,1:2|1:2|0:0,0:0:0:0:
338,305,84821,2,0,L|325:206,1,99.9999999999999,2|0,0:0|0:0,0:0:0:0:
318,160,85321,1,8,0:0:0:0:
318,160,85488,1,2,1:2:0:0:
233,109,85821,2,0,P|185:104|142:128,1,99.9999999999999,2|2,1:2|0:0,0:0:0:0:
115,171,86321,6,0,L|101:282,1,99.9999999999999,2|8,1:2|0:0,0:0:0:0:
173,340,86988,2,0,L|236:333,1,50,0|2,1:2|1:2,0:0:0:0:
255,297,87321,1,10,0:0:0:0:
255,297,87488,2,0,P|298:322|347:317,1,99.9999999999999,6|0,1:2|1:2,0:0:0:0:
390,294,87987,1,14,0:0:0:0:
455,218,88321,2,0,L|447:154,1,50,4|10,0:3|0:0,0:0:0:0:
444,122,88654,1,10,0:0:0:0:
444,122,88821,5,14,0:0:0:0:
