osu file format v14

[General]
AudioFilename: audio.mp3
AudioLeadIn: 0
PreviewTime: 46237
Countdown: 0
SampleSet: Soft
StackLeniency: 0.5
Mode: 0
LetterboxInBreaks: 0
WidescreenStoryboard: 0

[Editor]
DistanceSpacing: 1.4
BeatDivisor: 4
GridSize: 4
TimelineZoom: 1

[Metadata]
Title:killy killy JOKER (TV Size)
TitleUnicode:killy killy JOKER (TV Size)
Artist:Wakeshima Kanon
ArtistUnicode:分島花音
Creator:A r M i N
Version:Tangled Emotions
Source:selector infected WIXOSS
Tags:opening op card game Ruko Kominato Tama naotyu- Japanese pop j-pop Armin A_r_M_i_N Reform Kujinn schoolboy Komore Rosiie soop Kudosu so0p Xenon- Xen Xehn
BeatmapID:2616981
BeatmapSetID:1258913

[Difficulty]
HPDrainRate:5.8
CircleSize:3.8
OverallDifficulty:9.1
ApproachRate:9.2
SliderMultiplier:1.8
SliderTickRate:1

[Events]
//Background and Video events
0,0,"killy bg.jpg",0,0
//Break Periods
//Storyboard Layer 0 (Background)
//Storyboard Layer 1 (Fail)
//Storyboard Layer 2 (Pass)
//Storyboard Layer 3 (Foreground)
//Storyboard Layer 4 (Overlay)
//Storyboard Sound Samples

[TimingPoints]
988,333.333333333333,4,2,1,80,1,0
6321,-166.666666666667,4,2,1,60,0,0
6404,-166.666666666667,4,2,1,10,0,0
7487,-166.666666666667,4,2,1,10,0,0
7654,-166.666666666667,4,2,1,60,0,0
7737,-166.666666666667,4,2,1,10,0,0
8154,-166.666666666667,4,2,1,60,0,0
8321,-100,4,2,1,70,0,0
14654,-125,4,2,1,45,0,0
19654,-100,4,2,1,70,0,0
24987,-125,4,2,1,50,0,0
34821,-111.111111111111,4,2,1,60,0,0
35654,-100,4,2,1,70,0,0
46321,-90.9090909090909,4,2,1,80,0,1
61654,-90.9090909090909,4,2,1,80,0,0
62321,-90.9090909090909,4,2,1,80,0,1
82987,-100,4,2,1,70,0,0

[Colours]
Combo1 : 255,255,100
Combo2 : 60,140,145
Combo3 : 227,146,244
Combo4 : 171,196,170
Combo5 : 137,137,219
Combo6 : 81,217,70
Combo7 : 255,153,51
Combo8 : 43,83,145

[HitObjects]
34,22,6321,6,0,B|173:-34|146:123|286:66|286:66|233:73|195:28,1,377.999988464356,2|0,0:0|0:0,0:0:0:0:
85,113,7654,6,0,B|46:155|46:155|85:253,1,161.999995056153,2|0,0:0|1:2,0:0:0:0:
245,345,8321,2,0,P|219:308|180:286,1,90,8|0,0:0|1:2,0:0:0:0:
21,382,8654,1,6,0:3:0:0:
43,382,8737,1,2,0:0:0:0:
65,378,8820,1,2,0:0:0:0:
85,369,8904,1,2,0:0:0:0:
103,355,8987,6,0,L|87:266,1,90,6|0,1:2|0:0,0:0:0:0:
291,157,9321,2,0,L|275:245,1,90,10|0,0:0|0:0,0:0:0:0:
203,74,9654,1,2,1:2:0:0:
394,160,9821,1,2,1:2:0:0:
175,265,9987,1,10,0:0:0:0:
345,68,10154,6,0,P|420:59|493:134,1,180,2|0,0:0|0:0,0:0:0:0:
385,343,10654,1,8,0:0:0:0:
291,157,10821,2,0,L|202:141,1,90,2|0,1:2|0:0,0:0:0:0:
419,245,11154,2,0,L|507:229,1,90,2|8,1:2|0:0,0:0:0:0:
247,329,11487,5,2,0:0:0:0:
247,329,11571,1,2,0:0:0:0:
247,329,11654,2,0,L|231:240,1,90,2|0,1:2|0:0,0:0:0:0:
38,137,11987,2,0,L|22:226,1,90,8|0,0:0|0:0,0:0:0:0:
223,137,12321,1,0,1:2:0:0:
0,41,12487,1,2,1:2:0:0:
138,196,12654,1,10,0:0:0:0:
259,19,12821,6,0,P|172:14|113:79,1,180,6|0,1:2|1:2,0:0:0:0:
307,197,13321,2,0,L|323:108,1,90,14|0,0:0|0:0,0:0:0:0:
189,264,13654,1,8,0:0:0:0:
408,218,13821,1,10,0:3:0:0:
211,111,13987,2,0,B|119:83|133:168|42:140,1,180,4|4,0:3|0:0,0:0:0:0:
42,140,14654,6,0,L|54:69,1,72,2|0,0:0|0:0,0:0:0:0:
111,218,14987,1,2,0:0:0:0:
111,218,15154,2,0,P|80:237|45:244,1,72,2|0,0:0|0:0,0:0:0:0:
143,121,15487,2,0,L|284:146,1,144,2|0,0:0|0:0,0:0:0:0:
429,44,15987,1,2,0:0:0:0:
429,44,16154,2,0,B|410:62|388:74|388:74|416:164,1,144,2|2,0:0|0:0,0:0:0:0:
504,305,16654,2,0,P|480:278|449:262,1,72,2|2,0:0|1:2,0:0:0:0:
416,279,16904,1,2,0:0:0:0:
416,279,16987,1,2,1:2:0:0:
277,343,17321,6,0,L|348:331,1,72,2|0,0:0|0:0,0:0:0:0:
200,274,17654,1,2,0:0:0:0:
200,274,17821,2,0,P|181:304|174:339,1,72,2|0,0:0|0:0,0:0:0:0:
297,241,18154,2,0,L|272:100,1,144,2|0,0:0|0:0,0:0:0:0:
402,24,18654,1,2,0:0:0:0:
402,24,18821,2,0,P|425:87|371:127,1,144,2|2,0:0|1:2,0:0:0:0:
195,29,19321,1,8,0:0:0:0:
195,29,19654,6,0,L|165:206,2,180,4|8|0,1:2|0:0|1:2,0:0:0:0:
273,189,20487,1,0,1:2:0:0:
78,101,20654,1,2,0:0:0:0:
316,94,20821,6,0,P|373:159|359:245,1,180,10|0,0:0|1:2,0:0:0:0:
180,118,21321,2,0,L|194:29,1,90,8|0,0:0|0:0,0:0:0:0:
60,242,21654,1,0,1:2:0:0:
273,189,21821,1,0,1:2:0:0:
98,55,21987,2,0,P|79:95|79:140,1,90,8|0,0:0|0:0,0:0:0:0:
254,310,22321,5,2,1:2:0:0:
180,118,22487,1,2,0:0:0:0:
156,343,22654,1,10,0:0:0:0:
278,85,22821,2,0,L|366:99,1,90,2|0,0:0|1:2,0:0:0:0:
502,283,23154,1,2,1:2:0:0:
306,184,23321,1,2,0:0:0:0:
498,45,23487,6,0,L|512:133,1,90,10|0,0:0|0:0,0:0:0:0:
375,352,23821,2,0,L|389:263,1,90,2|8,1:2|0:0,0:0:0:0:
278,85,24154,1,0,0:0:0:0:
490,235,24321,5,10,0:0:0:0:
217,324,24487,1,10,0:0:0:0:
217,324,24821,5,2,0:0:0:0:
352,209,24987,2,0,L|377:365,1,144,6|0,1:2|1:2,0:0:0:0:
264,156,25654,2,0,P|316:111|391:113,1,144,2|0,1:2|1:2,0:0:0:0:
235,300,26321,2,0,B|180:289|180:289|158:310|158:310|103:300,1,144,2|0,1:2|1:2,0:0:0:0:
38,90,26987,2,0,B|53:115|73:134|73:134|41:216,1,144,2|0,1:2|1:2,0:0:0:0:
0,313,27487,1,0,0:0:0:0:
199,202,27654,6,0,P|269:200|323:246,1,144,2|0,1:2|1:2,0:0:0:0:
485,117,28321,2,0,L|473:46,1,72,0|0,1:2|0:0,0:0:0:0:
371,26,28654,2,0,L|383:97,1,72,2|2,1:2|0:0,0:0:0:0:
364,132,28904,1,0,0:0:0:0:
364,132,28987,2,0,P|293:133|239:87,1,144,0|0,1:2|1:2,0:0:0:0:
56,224,29654,2,0,L|198:201,1,144,2|0,1:2|1:2,0:0:0:0:
272,274,30154,1,0,0:0:0:0:
388,174,30321,6,0,B|373:199|353:218|353:218|385:299,1,144,2|0,1:2|1:2,0:0:0:0:
477,120,30987,2,0,P|423:74|352:75,1,144,2|0,1:2|1:2,0:0:0:0:
248,276,31654,2,0,B|322:257|311:318|384:299,1,144,2|0,1:2|1:2,0:0:0:0:
196,187,32321,2,0,P|150:240|151:311,1,144,2|0,1:2|1:2,0:0:0:0:
299,185,32987,6,0,L|287:114,1,72,2|2,1:2|0:0,0:0:0:0:
248,276,33321,1,2,1:2:0:0:
400,205,33487,1,2,0:0:0:0:
362,367,33654,2,0,L|350:296,1,72,0|2,1:2|0:0,0:0:0:0:
153,236,33987,1,2,1:2:0:0:
260,379,34154,1,2,0:0:0:0:
299,184,34321,5,0,1:2:0:0:
164,339,34487,1,8,0:3:0:0:
240,98,34654,1,8,0:0:0:0:
350,296,34821,2,0,P|400:310|491:256,1,161.999995056153,4|8,1:2|0:0,0:0:0:0:
343,90,35321,1,10,0:0:0:0:
253,332,35487,1,8,0:0:0:0:
401,206,35654,6,0,B|309:178|324:263|232:235,1,180,6|10,1:2|0:0,0:0:0:0:
51,132,36154,2,0,L|34:230,1,90,2|0,1:2|0:0,0:0:0:0:
259,133,36487,2,0,L|243:45,1,90,2|8,1:2|0:0,0:0:0:0:
109,0,36821,1,2,0:0:0:0:
198,217,36987,6,0,P|292:233|351:180,1,180,0|10,1:2|0:0,0:0:0:0:
131,139,37487,2,0,P|105:174|95:218,1,90,2|0,1:2|0:0,0:0:0:0:
259,133,37821,1,0,1:2:0:0:
79,51,37987,1,8,0:0:0:0:
198,217,38154,1,2,0:0:0:0:
334,62,38321,6,0,B|314:90|286:106|286:106|324:214,1,180,0|10,1:2|0:0,0:0:0:0:
161,369,38821,2,0,P|142:283|197:216,1,180,6|2,1:2|1:2,0:0:0:0:
399,285,39321,1,8,0:0:0:0:
219,97,39487,6,0,B|127:69|142:154|50:126,1,180,6|0,1:2|1:2,0:0:0:0:
253,0,39987,1,10,0:0:0:0:
323,213,40154,2,0,L|307:301,1,90,6|0,1:2|0:0,0:0:0:0:
483,144,40487,2,0,P|446:121|400:116,1,90,6|8,1:2|0:0,0:0:0:0:
224,240,40821,1,0,1:2:0:0:
448,353,40987,6,0,L|431:259,1,90,6|0,1:2|0:0,0:0:0:0:
239,151,41321,2,0,L|223:240,1,90,8|0,0:0|0:0,0:0:0:0:
337,91,41654,1,0,1:2:0:0:
140,179,41821,1,0,1:2:0:0:
369,252,41987,1,8,0:0:0:0:
198,43,42154,6,0,B|106:15|121:100|29:72,1,180,4|0,1:2|1:2,0:0:0:0:
124,268,42654,2,0,L|140:179,1,90,8|0,0:0|0:0,0:0:0:0:
329,57,42987,1,0,1:2:0:0:
223,241,43154,1,2,1:2:0:0:
156,18,43321,1,10,0:0:0:0:
323,177,43487,1,2,0:0:0:0:
72,237,43654,6,0,P|70:192|88:151,1,90,6|8,1:2|0:0,0:0:0:0:
163,107,43904,1,8,0:0:0:0:
177,109,43987,1,8,0:0:0:0:
192,112,44070,1,8,0:0:0:0:
207,114,44154,1,4,1:2:0:0:
75,48,44321,6,0,L|67:3,2,45,10|8|8,0:0|0:0|0:0,0:0:0:0:
172,212,44654,1,4,1:2:0:0:
304,27,44821,5,8,0:0:0:0:
289,30,44904,1,8,0:0:0:0:
274,32,44988,1,2,1:2:0:0:
1,124,45154,6,0,B|21:155|44:169|44:169|7:283,1,180,12|0,0:0|0:0,0:0:0:0:
188,384,45654,2,0,L|172:295,1,90,8|0,0:0|0:0,0:0:0:0:
450,171,45987,2,0,L|434:260,1,90,12|0,0:0|0:0,0:0:0:0:
357,24,46321,5,4,1:2:0:0:
262,291,46487,1,2,0:0:0:0:
454,62,46654,1,8,0:0:0:0:
359,329,46820,1,2,0:0:0:0:
232,84,46987,5,0,1:2:0:0:
480,235,47154,1,2,0:0:0:0:
155,154,47321,1,8,0:0:0:0:
454,62,47487,1,2,0:0:0:0:
262,291,47654,5,0,1:2:0:0:
305,10,47821,1,2,0:0:0:0:
165,253,47987,1,8,0:0:0:0:
359,100,48154,1,2,0:0:0:0:
359,329,48321,5,0,1:2:0:0:
212,54,48487,1,2,0:0:0:0:
116,345,48654,1,8,0:0:0:0:
398,226,48821,1,2,0:0:0:0:
57,113,48987,6,0,B|34:149|5:170|5:170|49:283,1,198.000006042481,4|8,1:2|0:0,0:0:0:0:
234,146,49487,1,2,0:0:0:0:
124,20,49654,2,0,L|26:2,1,99.0000030212403,0|2,1:2|0:0,0:0:0:0:
204,256,49987,2,0,L|301:238,1,99.0000030212403,8|2,0:0|0:0,0:0:0:0:
133,126,50321,5,0,1:2:0:0:
84,343,50487,1,2,0:0:0:0:
234,146,50654,1,8,0:0:0:0:
279,373,50821,2,0,P|230:378|186:358,1,99.0000030212403,2|0,0:0|1:2,0:0:0:0:
369,161,51154,2,0,P|397:201|402:250,1,99.0000030212403,2|8,0:0|0:0,0:0:0:0:
215,60,51487,1,2,0:0:0:0:
215,60,51571,1,0,0:0:0:0:
215,60,51654,5,4,1:2:0:0:
489,166,51821,1,2,0:0:0:0:
180,243,51987,1,8,0:0:0:0:
433,78,52154,1,2,0:0:0:0:
113,18,52321,5,0,1:2:0:0:
272,291,52487,1,2,0:0:0:0:
331,0,52654,1,8,0:0:0:0:
180,243,52821,1,2,0:0:0:0:
433,78,52987,5,0,1:2:0:0:
112,122,53154,1,2,0:0:0:0:
423,254,53321,1,8,0:0:0:0:
203,70,53487,1,2,0:0:0:0:
165,324,53654,5,0,1:2:0:0:
294,18,53821,1,2,0:0:0:0:
343,364,53987,1,8,0:0:0:0:
203,70,54154,1,2,0:0:0:0:
78,295,54321,6,0,B|144:279|144:279|198:310|198:310|265:295,1,198.000006042481,4|8,1:2|0:0,0:0:0:0:
387,68,54821,1,2,0:0:0:0:
460,279,54987,2,0,L|362:261,1,99.0000030212403,0|2,1:2|0:0,0:0:0:0:
258,29,55321,1,8,0:0:0:0:
427,180,55487,1,2,0:0:0:0:
221,295,55654,6,0,B|200:261|172:239|172:239|217:125,1,198.000006042481,0|8,1:2|0:0,0:0:0:0:
362,261,56154,1,2,0:0:0:0:
124,338,56321,2,0,L|26:320,1,99.0000030212403,0|2,1:2|0:0,0:0:0:0:
126,77,56654,1,8,0:0:0:0:
221,295,56821,1,2,0:0:0:0:
0,165,56987,6,0,B|102:134|85:228|188:198,1,198.000006042481,4|8,1:2|0:0,0:0:0:0:
366,35,57487,2,0,P|272:26|223:107,1,198.000006042481,6|0,0:0|1:2,0:0:0:0:
314,283,57987,1,8,0:0:0:0:
483,99,58154,2,0,L|465:1,1,99.0000030212403,4|0,1:2|0:0,0:0:0:0:
324,130,58487,5,0,1:2:0:0:
512,200,58654,1,8,0:0:0:0:
366,35,58821,1,2,0:0:0:0:
366,35,58904,1,2,0:0:0:0:
366,35,58987,2,0,P|298:29|231:88,2,148.50000453186,10|8|8,0:0|0:0|0:0,0:0:0:0:
357,229,59654,6,0,L|259:211,1,99.0000030212403,0|0,1:2|1:2,0:0:0:0:
82,0,59987,2,0,P|113:50|112:105,1,99.0000030212403,12|0,0:0|0:0,0:0:0:0:
24,294,60321,1,0,1:2:0:0:
161,182,60487,1,0,1:2:0:0:
219,366,60654,2,0,L|121:384,1,99.0000030212403,12|0,0:0|0:0,0:0:0:0:
218,95,60987,6,0,P|266:100|306:128,1,99.0000030212403,0|0,1:2|1:2,0:0:0:0:
475,295,61321,2,0,L|493:197,1,99.0000030212403,12|0,0:0|0:0,0:0:0:0:
238,259,61654,1,8,0:0:0:0:
381,337,61821,2,0,L|371:287,2,49.5000015106202,8|8|0,0:0|0:0|1:2,0:0:0:0:
458,101,62154,1,8,0:0:0:0:
458,101,62237,1,8,0:0:0:0:
458,101,62321,5,4,1:2:0:0:
219,235,62487,1,2,0:0:0:0:
493,198,62654,1,8,0:0:0:0:
245,89,62821,1,2,0:0:0:0:
431,280,62987,5,0,1:2:0:0:
347,3,63154,1,2,0:0:0:0:
287,314,63321,1,8,0:0:0:0:
423,74,63487,1,2,0:0:0:0:
472,376,63654,5,0,1:2:0:0:
219,235,63821,1,2,0:0:0:0:
492,159,63987,1,8,0:0:0:0:
287,314,64154,1,2,0:0:0:0:
347,3,64321,5,0,1:2:0:0:
380,358,64487,1,2,0:0:0:0:
440,49,64654,1,8,0:0:0:0:
287,314,64821,1,2,0:0:0:0:
512,145,64987,6,0,B|409:114|426:208|323:178,1,198.000006042481,4|8,1:2|0:0,0:0:0:0:
198,15,65487,1,2,0:0:0:0:
61,190,65654,2,0,L|43:92,1,99.0000030212403,0|2,1:2|0:0,0:0:0:0:
226,241,65987,2,0,L|208:339,1,99.0000030212403,8|2,0:0|0:0,0:0:0:0:
326,178,66321,5,0,1:2:0:0:
127,273,66487,1,2,0:0:0:0:
349,353,66654,1,8,0:0:0:0:
208,143,66821,2,0,L|226:241,1,99.0000030212403,2|0,0:0|1:2,0:0:0:0:
402,108,67154,2,0,P|361:80|313:74,1,99.0000030212403,2|8,0:0|0:0,0:0:0:0:
135,281,67487,1,2,0:0:0:0:
135,281,67571,1,0,0:0:0:0:
135,281,67654,5,4,1:2:0:0:
224,23,67821,1,2,0:0:0:0:
297,304,67987,1,8,0:0:0:0:
124,96,68154,1,2,0:0:0:0:
106,383,68321,5,0,1:2:0:0:
255,124,68487,1,2,0:0:0:0:
14,241,68654,1,8,0:0:0:0:
297,304,68821,1,2,0:0:0:0:
124,96,68987,5,0,1:2:0:0:
204,348,69154,1,2,0:0:0:0:
268,47,69321,1,8,0:0:0:0:
114,287,69488,1,2,0:0:0:0:
394,200,69654,5,0,1:2:0:0:
124,96,69821,1,2,0:0:0:0:
401,44,69987,1,8,0:0:0:0:
168,190,70154,1,2,0:0:0:0:
465,125,70321,6,0,B|502:145|519:174|519:174|481:293,1,198.000006042481,4|8,1:2|0:0,0:0:0:0:
300,238,70821,1,2,0:0:0:0:
401,44,70987,2,0,P|446:22|500:27,1,99.0000030212403,0|2,1:2|0:0,0:0:0:0:
402,225,71321,1,8,0:0:0:0:
307,3,71487,1,2,0:0:0:0:
198,253,71654,6,0,B|95:222|112:316|9:286,1,198.000006042481,0|8,1:2|0:0,0:0:0:0:
128,130,72154,1,2,0:0:0:0:
251,342,72321,2,0,L|349:324,1,99.0000030212403,0|2,1:2|0:0,0:0:0:0:
424,72,72654,1,8,0:0:0:0:
283,242,72821,1,2,0:0:0:0:
463,332,72987,6,0,B|484:299|515:279|515:279|470:164,1,198.000006042481,4|8,1:2|0:0,0:0:0:0:
257,36,73487,2,0,L|239:134,1,99.0000030212403,2|0,0:0|1:2,0:0:0:0:
113,307,73821,1,2,0:0:0:0:
325,191,73987,1,8,0:0:0:0:
78,95,74154,1,2,0:0:0:0:
260,271,74321,6,0,P|344:293|423:223,1,198.000006042481,4|8,1:2|0:0,0:0:0:0:
252,65,74821,1,2,0:0:0:0:
162,239,74987,2,0,P|158:290|180:337,1,99.0000030212403,0|2,1:2|0:0,0:0:0:0:
350,97,75321,2,0,P|354:46|332:-1,1,99.0000030212403,8|2,0:0|0:0,0:0:0:0:
260,271,75654,6,0,P|329:205|422:225,1,198.000006042481,4|8,1:2|0:0,0:0:0:0:
242,374,76154,2,0,P|197:355|166:315,1,99.0000030212403,6|0,1:2|0:0,0:0:0:0:
252,65,76487,1,4,1:2:0:0:
357,306,76654,1,8,0:0:0:0:
99,206,76821,6,0,B|52:91|52:91|98:33,1,198.000006042481,4|0,1:2|1:2,0:0:0:0:
216,231,77321,2,0,L|198:329,1,99.0000030212403,12|0,0:2|0:0,0:0:0:0:
350,151,77654,1,4,1:2:0:0:
422,294,77821,2,0,L|471:285,2,49.5000015106202,8|8|8,0:0|0:0|0:3,0:0:0:0:
250,132,78154,1,4,0:3:0:0:
250,132,78237,1,4,0:3:0:0:
250,132,78321,5,4,1:2:0:0:
329,338,78487,1,0,0:0:0:0:
430,85,78654,1,8,0:0:0:0:
225,258,78821,2,0,L|127:240,1,99.0000030212403,2|0,0:0|1:2,0:0:0:0:
241,23,79154,1,2,0:0:0:0:
337,217,79321,1,8,0:0:0:0:
112,93,79487,1,2,0:0:0:0:
362,0,79654,6,0,L|344:98,1,99.0000030212403,0|2,1:2|0:0,0:0:0:0:
507,242,79987,2,0,P|511:191|489:144,1,99.0000030212403,8|2,0:0|0:0,0:0:0:0:
255,267,80321,1,0,1:2:0:0:
432,384,80487,2,0,L|414:286,1,99.0000030212403,2|8,0:0|0:0,0:0:0:0:
259,131,80821,1,2,0:0:0:0:
158,329,80987,6,0,B|164:367|195:384|195:384|320:348,1,198.000006042481,4|8,1:2|0:0,0:0:0:0:
138,193,81487,2,0,L|40:211,1,99.0000030212403,2|0,0:0|1:2,0:0:0:0:
162,35,81821,1,2,0:0:0:0:
255,267,81987,1,8,0:0:0:0:
59,93,82154,1,2,0:0:0:0:
336,34,82321,5,0,1:2:0:0:
138,193,82487,2,0,L|147:144,1,49.5000015106202,8|8,0:0|0:0,0:0:0:0:
349,224,82654,1,8,0:0:0:0:
349,224,82737,1,8,0:0:0:0:
349,224,82821,2,0,L|358:273,1,49.5000015106202,8|8,0:0|0:0,0:0:0:0:
248,101,82987,5,12,0:0:0:0:
140,382,83154,1,0,1:2:0:0:
41,122,83487,5,8,0:0:0:0:
41,122,83571,1,8,0:0:0:0:
41,122,83654,2,0,L|23:220,1,90,6|0,1:2|0:0,0:0:0:0:
229,314,83987,2,0,L|213:226,1,90,8|0,0:0|0:0,0:0:0:0:
341,52,84321,1,0,1:2:0:0:
137,156,84487,1,2,1:2:0:0:
363,243,84654,1,10,0:0:0:0:
186,65,84821,6,0,P|100:58|40:121,1,180,2|0,0:0|0:0,0:0:0:0:
156,280,85321,1,8,0:0:0:0:
287,93,85487,2,0,L|270:4,1,90,2|0,1:2|0:0,0:0:0:0:
462,166,85821,2,0,L|445:254,1,90,2|8,1:2|0:0,0:0:0:0:
198,308,86154,1,2,0:0:0:0:
198,308,86237,1,2,0:0:0:0:
198,308,86321,6,0,P|224:271|263:250,1,90,2|0,1:2|0:0,0:0:0:0:
458,357,86654,2,0,P|413:353|375:330,1,90,8|0,0:0|0:0,0:0:0:0:
278,113,86987,1,0,1:2:0:0:
446,255,87154,1,2,1:2:0:0:
198,308,87321,1,10,0:0:0:0:
353,37,87487,6,0,B|369:68|399:84|399:84|364:193,1,180,6|0,1:2|1:2,0:0:0:0:
94,292,87987,1,14,0:0:0:0:
278,113,88154,1,8,0:3:0:0:
278,113,88237,1,8,0:3:0:0:
278,113,88321,1,4,0:3:0:0:
217,378,88487,5,10,0:0:0:0:
112,64,88654,1,10,0:0:0:0:
434,290,88821,1,14,0:0:0:0:
