osu file format v14

[General]
AudioFilename: audio.mp3
AudioLeadIn: 0
PreviewTime: 46237
Countdown: 0
SampleSet: Soft
StackLeniency: 0.3
Mode: 0
LetterboxInBreaks: 0
WidescreenStoryboard: 1

[Editor]
Bookmarks: 89165
DistanceSpacing: 0.1
BeatDivisor: 4
GridSize: 32
TimelineZoom: 1.8

[Metadata]
Title:killy killy JOKER (TV Size)
TitleUnicode:killy killy JOKER (TV Size)
Artist:Wakeshima Kanon
ArtistUnicode:分島花音
Creator:A r M i N
Version:Rosiie's Insane
Source:selector infected WIXOSS
Tags:opening op card game Ruko Kominato Tama naotyu- Japanese pop j-pop Armin A_r_M_i_N Reform Kujinn schoolboy Komore Rosiie soop Kudosu so0p Xenon- Xen Xehn
BeatmapID:2622401
BeatmapSetID:1258913

[Difficulty]
HPDrainRate:5.2
CircleSize:3.6
OverallDifficulty:8.2
ApproachRate:9
SliderMultiplier:1.7
SliderTickRate:1

[Events]
//Background and Video events
0,0,"killy bg.jpg",0,0
//Break Periods
//Storyboard Layer 0 (Background)
//Storyboard Layer 1 (Fail)
//Storyboard Layer 2 (Pass)
//Storyboard Layer 3 (Foreground)
//Storyboard Layer 4 (Overlay)
//Storyboard Sound Samples

[TimingPoints]
988,333.333333333333,4,2,1,80,1,0
6321,-200,4,2,1,60,0,0
6404,-200,4,2,1,10,0,0
7654,-200,4,2,1,60,0,0
7737,-200,4,2,1,10,0,0
8154,-200,4,2,1,60,0,0
8321,-100,4,2,1,70,0,0
14654,-125,4,2,1,45,0,0
19654,-100,4,2,1,70,0,0
24987,-125,4,2,1,50,0,0
34821,-111.111111111111,4,2,1,60,0,0
35654,-105.263157894737,4,2,1,70,0,0
46321,-90.9090909090909,4,2,1,80,0,1
61654,-90.9090909090909,4,2,1,80,0,0
62321,-90.9090909090909,4,2,1,80,0,1
82987,-100,4,2,1,70,0,0

[Colours]
Combo1 : 255,255,100
Combo2 : 60,140,145
Combo3 : 227,146,244
Combo4 : 171,196,170
Combo5 : 137,137,219
Combo6 : 81,217,70
Combo7 : 255,153,51
Combo8 : 43,83,145

[HitObjects]
17,94,6321,6,0,B|88:58|181:87|114:125|212:169|294:117,1,297.5,2|0,0:0|0:0,0:0:0:0:
369,60,7654,2,0,P|356:111|347:195,1,127.5,2|0,0:0|1:2,0:0:0:0:
395,336,8321,1,8,0:0:0:0:
280,249,8487,1,0,1:2:0:0:
432,196,8654,2,0,L|425:248,3,42.5,6|2|2|2,0:3|0:0|0:0|0:0,0:0:0:0:
395,336,8987,6,0,P|353:343|297:355,1,85,6|0,1:2|0:0,0:0:0:0:
192,206,9321,2,0,P|234:213|290:225,1,85,10|0,0:0|0:0,0:0:0:0:
43,355,9654,1,2,1:2:0:0:
117,203,9821,1,2,1:2:0:0:
200,350,9987,1,10,0:0:0:0:
36,266,10154,6,0,B|19:239|-1:215|-1:215|13:172|25:111,1,170,2|0,0:0|0:0,0:0:0:0:
108,10,10654,1,8,0:0:0:0:
197,147,10821,2,0,P|158:164|116:161,1,85,2|0,1:2|0:0,0:0:0:0:
232,4,11154,2,0,P|274:1|312:18,1,85,2|8,1:2|0:0,0:0:0:0:
429,116,11487,1,2,0:0:0:0:
429,116,11571,1,2,0:0:0:0:
429,116,11654,6,0,P|419:168|412:222,1,85,2|0,1:2|0:0,0:0:0:0:
286,265,11987,2,0,P|279:222|271:181,1,85,8|0,0:0|0:0,0:0:0:0:
491,372,12321,1,0,1:2:0:0:
363,283,12487,1,2,1:2:0:0:
490,209,12654,1,10,0:0:0:0:
357,375,12821,6,0,B|253:387|296:318|195:330,1,170,6|0,1:2|1:2,0:0:0:0:
72,273,13321,2,0,P|78:314|84:357,1,85,14|0,0:0|0:0,0:0:0:0:
202,183,13654,1,8,0:0:0:0:
48,129,13821,1,10,0:3:0:0:
201,46,13987,2,0,P|188:114|176:222,1,170,4|4,0:3|0:0,0:0:0:0:
472,371,14654,6,0,P|480:324|501:233,1,136,2|2,0:0|0:0,0:0:0:0:
458,163,15154,2,0,B|383:151|413:204|322:191,1,136,2|2,0:0|0:0,0:0:0:0:
255,141,15654,2,0,P|282:182|275:269,1,136,2|2,0:0|0:0,0:0:0:0:
211,333,16154,2,0,B|133:336|167:283|80:291,1,136,2|2,0:0|0:0,0:0:0:0:
12,221,16654,1,2,0:0:0:0:
114,152,16821,2,0,L|110:201,2,34,2|2|2,1:2|0:0|1:2,0:0:0:0:
296,4,17321,6,0,P|305:41|325:150,1,136,2|2,0:0|0:0,0:0:0:0:
412,92,17821,2,0,P|403:129|383:238,1,136,2|2,0:0|0:0,0:0:0:0:
436,307,18321,2,0,P|374:331|311:308,1,136,2|2,0:0|0:0,0:0:0:0:
220,243,18821,2,0,P|228:288|234:339,1,68,2|0,0:0|0:0,0:0:0:0:
88,237,19154,1,2,1:2:0:0:
214,150,19321,2,0,P|207:194|202:230,1,68,8|0,0:0|1:2,0:0:0:0:
336,63,19654,6,0,P|291:26|182:40,2,170,4|8|0,1:2|0:0|1:2,0:0:0:0:
391,159,20487,1,0,1:2:0:0:
391,159,20654,1,2,0:0:0:0:
494,96,20821,6,0,P|485:152|470:282,1,170,10|0,0:0|1:2,0:0:0:0:
397,351,21321,2,0,P|357:359|309:336,1,85,8|0,0:0|0:0,0:0:0:0:
244,267,21654,1,0,1:2:0:0:
244,267,21821,1,0,1:2:0:0:
158,366,21987,2,0,P|150:324|139:280,1,85,8|0,0:0|0:0,0:0:0:0:
48,166,22321,6,0,P|85:141|139:142,1,85,2|2,1:2|0:0,0:0:0:0:
218,215,22654,1,10,0:0:0:0:
289,112,22821,2,0,B|385:93|354:160|452:142,1,170,2|2,0:0|1:2,0:0:0:0:
330,210,23321,1,2,0:0:0:0:
200,105,23487,6,0,P|207:146|214:194,1,85,10|0,0:0|0:0,0:0:0:0:
186,308,23821,1,2,1:2:0:0:
330,210,23987,2,0,P|323:251|316:299,1,85,8|0,0:0|0:0,0:0:0:0:
135,232,24321,1,10,0:0:0:0:
261,369,24487,1,10,0:0:0:0:
412,175,24821,5,2,0:0:0:0:
485,246,24987,2,0,P|494:184|511:113,1,136,6|0,1:2|1:2,0:0:0:0:
402,322,25654,2,0,P|393:260|375:189,1,136,2|0,1:2|1:2,0:0:0:0:
289,58,26321,6,0,P|332:23|417:34,1,136,2|0,1:2|1:2,0:0:0:0:
293,201,26987,2,0,P|227:210|173:171,1,136,2|0,1:2|1:2,0:0:0:0:
94,121,27487,1,0,0:0:0:0:
94,121,27654,2,0,B|59:165|59:165|103:257,1,136,2|0,1:2|1:2,0:0:0:0:
61,348,28321,2,0,B|144:323|144:323|202:357,1,136,0|2,1:2|1:2,0:0:0:0:
294,384,28987,6,0,P|342:370|439:350,1,136,0|0,1:2|1:2,0:0:0:0:
320,240,29654,2,0,P|272:226|175:206,1,136,2|0,1:2|1:2,0:0:0:0:
91,170,30154,1,0,0:0:0:0:
91,170,30321,6,0,P|116:225|122:316,1,136,2|0,1:2|1:2,0:0:0:0:
253,86,30987,2,0,P|228:141|222:232,1,136,2|0,1:2|1:2,0:0:0:0:
434,157,31654,6,0,B|388:145|350:139|350:139|327:155|308:167,1,136,2|0,1:2|1:2,0:0:0:0:
282,297,32321,2,0,B|327:285|366:279|366:279|389:295|407:307,1,136,2|0,1:2|1:2,0:0:0:0:
184,227,32987,6,0,P|174:272|166:312,1,68,2|2,1:2|0:0,0:0:0:0:
69,157,33321,2,0,P|79:202|87:242,1,68,2|2,1:2|0:0,0:0:0:0:
176,66,33654,2,0,P|140:54|104:46,1,68,0|2,1:2|0:0,0:0:0:0:
203,207,33987,2,0,P|239:195|275:187,1,68,2|2,1:2|0:0,0:0:0:0:
427,90,34321,5,0,1:2:0:0:
357,219,34487,1,8,0:3:0:0:
290,96,34654,1,8,0:0:0:0:
433,179,34821,2,0,P|417:230|399:335,1,152.999995330811,4|8,1:2|0:0,0:0:0:0:
281,382,35321,1,10,0:0:0:0:
371,301,35487,1,8,0:0:0:0:
250,231,35654,6,0,B|165:215|204:283|85:261,1,161.499995687485,6|10,1:2|0:0,0:0:0:0:
0,219,36154,2,0,P|12:261|21:309,1,80.7499978437424,2|0,1:2|0:0,0:0:0:0:
124,145,36487,2,0,P|112:187|105:237,1,80.7499978437424,2|8,1:2|0:0,0:0:0:0:
0,95,36821,1,2,0:0:0:0:
140,7,36987,6,0,P|223:-3|282:46,1,161.499995687485,0|10,1:2|0:0,0:0:0:0:
383,13,37487,2,0,P|370:62|353:174,1,161.499995687485,2|0,1:2|1:2,0:0:0:0:
315,290,37987,1,8,0:0:0:0:
415,223,38154,1,2,0:0:0:0:
276,166,38321,6,0,P|234:199|246:325,1,161.499995687485,0|10,1:2|0:0,0:0:0:0:
383,381,38821,2,0,P|391:336|398:293,1,80.7499978437424,6|0,1:2|0:0,0:0:0:0:
206,202,39154,2,0,P|212:241|219:281,1,80.7499978437424,2|8,1:2|0:0,0:0:0:0:
366,107,39487,6,0,P|329:69|213:76,1,161.499995687485,6|0,1:2|1:2,0:0:0:0:
137,161,39987,1,10,0:0:0:0:
31,69,40154,2,0,P|40:115|45:152,1,80.7499978437424,6|0,1:2|0:0,0:0:0:0:
129,289,40487,1,6,1:2:0:0:
0,223,40654,1,8,0:0:0:0:
234,164,40987,6,0,P|217:225|201:334,2,161.499995687485,6|8|0,1:2|0:0|1:2,0:0:0:0:
309,50,41821,1,0,1:2:0:0:
364,170,41987,1,8,0:0:0:0:
221,73,42154,6,0,P|161:70|97:155,1,161.499995687485,4|0,1:2|1:2,0:0:0:0:
46,243,42654,2,0,B|136:213|105:285|209:254,1,161.499995687485,8|0,0:0|1:2,0:0:0:0:
354,199,43154,1,2,1:2:0:0:
287,310,43321,1,10,0:0:0:0:
229,188,43487,1,2,0:0:0:0:
383,285,43654,6,0,P|426:277|473:266,1,80.7499978437424,6|8,1:2|0:0,0:0:0:0:
482,237,43904,1,8,0:0:0:0:
482,237,43987,2,0,L|495:181,2,40.3749989218712,8|8|4,0:0|0:0|1:2,0:0:0:0:
381,132,44321,1,10,0:0:0:0:
381,132,44404,1,8,0:0:0:0:
381,132,44487,1,8,0:0:0:0:
463,38,44654,2,0,P|421:28|383:22,1,80.7499978437424,4|8,1:2|0:0,0:0:0:0:
350,9,44904,1,8,0:0:0:0:
350,9,44987,1,2,1:2:0:0:
281,125,45154,6,0,B|189:116|236:62|135:56,1,161.499995687485,12|0,0:0|0:0,0:0:0:0:
57,118,45654,2,0,P|66:160|73:201,1,80.7499978437424,8|0,0:0|0:0,0:0:0:0:
190,274,45987,2,0,P|196:234|205:194,1,80.7499978437424,12|0,0:0|0:0,0:0:0:0:
288,28,46321,5,4,1:2:0:0:
373,193,46487,1,2,0:0:0:0:
452,30,46654,1,8,0:0:0:0:
279,136,46821,1,2,0:0:0:0:
464,225,46987,1,0,1:2:0:0:
373,78,47154,1,2,0:0:0:0:
298,283,47321,2,0,P|349:296|403:278,1,93.5000028533936,8|2,0:0|0:0,0:0:0:0:
193,96,47654,5,0,1:2:0:0:
114,275,47821,1,2,0:0:0:0:
39,111,47987,1,8,0:0:0:0:
213,231,48154,1,2,0:0:0:0:
40,330,48321,1,0,1:2:0:0:
123,172,48487,1,2,0:0:0:0:
236,370,48654,2,0,P|185:360|124:352,1,93.5000028533936,8|2,0:0|0:0,0:0:0:0:
280,192,48987,6,0,B|390:173|334:250|461:234,1,187.000005706787,4|8,1:2|0:0,0:0:0:0:
512,109,49487,1,2,0:0:0:0:
400,16,49654,2,0,P|358:5|304:29,1,93.5000028533936,0|2,1:2|0:0,0:0:0:0:
234,187,49987,2,0,P|277:203|321:192,1,93.5000028533936,8|2,0:0|0:0,0:0:0:0:
142,15,50321,5,0,1:2:0:0:
84,177,50487,1,2,0:0:0:0:
243,74,50654,1,8,0:0:0:0:
45,1,50821,2,0,P|54:49|61:101,1,93.5000028533936,2|0,0:0|1:2,0:0:0:0:
26,240,51154,1,2,0:0:0:0:
170,130,51321,2,0,P|161:178|154:230,1,93.5000028533936,8|2,0:0|0:0,0:0:0:0:
177,257,51571,1,0,0:0:0:0:
177,257,51654,5,4,1:2:0:0:
276,84,51821,1,2,0:0:0:0:
353,250,51987,1,8,0:0:0:0:
170,130,52154,1,2,0:0:0:0:
363,52,52321,1,0,1:2:0:0:
268,254,52487,1,2,0:0:0:0:
155,78,52654,2,0,P|109:86|64:101,1,93.5000028533936,8|2,0:0|0:0,0:0:0:0:
26,328,52987,5,0,1:2:0:0:
169,215,53154,1,2,0:0:0:0:
6,151,53321,1,8,0:0:0:0:
125,325,53487,1,2,0:0:0:0:
213,130,53654,1,0,1:2:0:0:
49,235,53821,1,2,0:0:0:0:
235,362,53987,2,0,P|284:368|331:347,1,93.5000028533936,8|2,0:0|0:0,0:0:0:0:
451,199,54321,6,0,P|429:289|416:382,1,187.000005706787,4|8,1:2|0:0,0:0:0:0:
292,238,54821,1,2,0:0:0:0:
423,96,54987,2,0,P|349:42|261:60,1,187.000005706787,0|8,1:2|0:0,0:0:0:0:
187,196,55487,1,2,0:0:0:0:
83,62,55654,6,0,B|60:96|39:118|39:118|88:236,1,187.000005706787,0|8,1:2|0:0,0:0:0:0:
171,335,56154,1,2,0:0:0:0:
280,184,56321,2,0,P|275:230|270:277,1,93.5000028533936,0|2,1:2|0:0,0:0:0:0:
90,126,56654,1,8,0:0:0:0:
177,253,56821,1,2,0:0:0:0:
277,92,56987,6,0,B|325:72|376:88|346:109|402:131|453:106,1,187.000005706787,4|8,1:2|0:0,0:0:0:0:
509,29,57487,2,0,P|467:72|475:210,1,187.000005706787,6|0,0:0|1:2,0:0:0:0:
493,332,57987,1,8,0:0:0:0:
380,262,58154,6,0,B|320:252|320:252|274:277|274:277|199:264,1,187.000005706787,4|0,1:2|1:2,0:0:0:0:
52,223,58654,1,8,0:0:0:0:
139,341,58821,1,2,0:0:0:0:
210,182,58987,2,0,P|201:107|185:33,2,140.25000428009,10|8|8,0:0|0:0|0:0,0:0:0:0:
294,300,59654,6,0,P|345:307|394:279,1,93.5000028533936,0|0,1:2|1:2,0:0:0:0:
512,194,59987,2,0,P|506:246|501:299,1,93.5000028533936,12|0,0:0|0:0,0:0:0:0:
350,103,60321,1,0,1:2:0:0:
430,231,60487,1,0,1:2:0:0:
512,72,60654,2,0,P|472:53|420:60,1,93.5000028533936,12|0,0:0|0:0,0:0:0:0:
259,234,60987,5,0,1:2:0:0:
401,134,61154,1,0,1:2:0:0:
233,41,61321,2,0,P|241:87|245:134,1,93.5000028533936,12|0,0:0|0:0,0:0:0:0:
327,288,61654,1,8,0:0:0:0:
401,134,61821,2,0,L|408:84,2,46.7500014266968,8|8|0,0:0|0:0|1:2,0:0:0:0:
257,219,62154,1,8,0:0:0:0:
257,219,62237,1,8,0:0:0:0:
257,219,62321,5,4,1:2:0:0:
430,307,62487,1,2,0:0:0:0:
319,142,62654,1,8,0:0:0:0:
244,321,62821,1,2,0:0:0:0:
399,217,62987,1,0,1:2:0:0:
228,141,63154,1,2,0:0:0:0:
349,337,63321,2,0,P|394:326|440:318,1,93.5000028533936,8|2,0:0|0:0,0:0:0:0:
257,219,63654,5,0,1:2:0:0:
169,372,63821,1,2,0:0:0:0:
96,208,63987,1,8,0:0:0:0:
266,337,64154,1,2,0:0:0:0:
180,164,64321,1,0,1:2:0:0:
82,334,64487,1,2,0:0:0:0:
257,219,64654,2,0,P|266:170|278:117,1,93.5000028533936,8|2,0:0|0:0,0:0:0:0:
96,15,64987,6,0,B|72:45|43:68|43:68|85:185,1,187.000005706787,4|8,1:2|0:0,0:0:0:0:
183,274,65487,1,2,0:0:0:0:
275,127,65654,2,0,P|233:110|187:118,1,93.5000028533936,0|2,1:2|0:0,0:0:0:0:
95,290,65987,2,0,P|141:294|183:275,1,93.5000028533936,8|2,0:0|0:0,0:0:0:0:
275,127,66321,5,0,1:2:0:0:
351,283,66487,1,2,0:0:0:0:
182,191,66654,1,8,0:0:0:0:
358,101,66821,2,0,P|367:147|374:194,1,93.5000028533936,2|0,0:0|1:2,0:0:0:0:
312,320,67154,1,2,0:0:0:0:
194,163,67321,2,0,P|151:148|98:160,1,93.5000028533936,8|2,0:0|0:0,0:0:0:0:
74,179,67571,1,0,0:0:0:0:
74,179,67654,5,4,1:2:0:0:
163,318,67821,1,2,0:0:0:0:
227,144,67987,1,8,0:0:0:0:
52,266,68154,1,2,0:0:0:0:
244,346,68321,1,0,1:2:0:0:
152,165,68487,1,2,0:0:0:0:
68,360,68654,2,0,P|114:366|166:379,1,93.5000028533936,8|2,0:0|0:0,0:0:0:0:
285,200,68987,5,0,1:2:0:0:
365,366,69154,1,2,0:0:0:0:
441,208,69321,1,8,0:0:0:0:
259,319,69487,1,2,0:0:0:0:
365,150,69654,1,0,1:2:0:0:
447,334,69821,1,2,0:0:0:0:
285,200,69987,2,0,P|277:150|265:90,1,93.5000028533936,8|2,0:0|0:0,0:0:0:0:
425,41,70321,6,0,P|368:1|256:23,1,187.000005706787,4|8,1:2|0:0,0:0:0:0:
184,162,70821,1,2,0:0:0:0:
82,41,70987,2,0,B|55:71|29:94|29:94|70:197,1,187.000005706787,0|8,1:2|0:0,0:0:0:0:
13,302,71487,1,2,0:0:0:0:
132,372,71654,6,0,B|250:370|190:313|306:306,1,187.000005706787,0|8,1:2|0:0,0:0:0:0:
384,210,72154,1,2,0:0:0:0:
478,336,72321,2,0,P|491:243|512:152,1,187.000005706787,0|8,1:2|0:0,0:0:0:0:
458,17,72821,1,2,0:0:0:0:
348,134,72987,6,0,P|303:139|259:123,1,93.5000028533936,4|2,1:2|0:0,0:0:0:0:
189,0,73321,1,8,0:0:0:0:
94,118,73487,2,0,P|111:169|134:324,1,187.000005706787,2|2,0:0|0:0,0:0:0:0:
216,384,73987,1,8,0:0:0:0:
51,309,74154,1,2,0:0:0:0:
215,217,74321,6,0,B|326:197|275:270|403:250,1,187.000005706787,4|8,1:2|0:0,0:0:0:0:
496,158,74821,1,2,0:0:0:0:
370,44,74987,2,0,P|362:90|356:136,1,93.5000028533936,0|2,1:2|0:0,0:0:0:0:
239,258,75321,2,0,P|233:212|226:165,1,93.5000028533936,8|2,0:0|0:0,0:0:0:0:
116,34,75654,6,0,P|46:92|51:182,1,187.000005706787,4|8,1:2|0:0,0:0:0:0:
141,297,76154,2,0,P|91:306|48:315,1,93.5000028533936,6|0,1:2|0:0,0:0:0:0:
134,147,76487,2,0,P|183:156|226:165,1,93.5000028533936,4|8,1:2|0:0,0:0:0:0:
351,297,76821,6,0,B|373:267|392:244|392:244|366:112,1,187.000005706787,4|0,1:2|1:2,0:0:0:0:
283,15,77321,2,0,P|330:-1|378:8,1,93.5000028533936,12|0,0:2|0:0,0:0:0:0:
241,167,77654,1,4,1:2:0:0:
150,12,77821,2,0,L|142:65,2,46.7500014266968,8|8|8,0:0|0:0|0:3,0:0:0:0:
79,171,78154,1,4,0:3:0:0:
79,171,78237,1,4,0:3:0:0:
79,171,78321,6,0,P|89:221|96:274,1,93.5000028533936,4|0,1:2|0:0,0:0:0:0:
189,357,78654,1,8,0:0:0:0:
260,201,78821,2,0,P|222:184|164:196,1,93.5000028533936,2|0,0:0|1:2,0:0:0:0:
339,362,79154,1,2,0:0:0:0:
413,203,79321,1,8,0:0:0:0:
262,290,79487,1,2,0:0:0:0:
445,380,79654,6,0,P|451:334|458:288,1,93.5000028533936,0|2,1:2|0:0,0:0:0:0:
247,197,79987,2,0,P|254:243|261:289,1,93.5000028533936,8|2,0:0|0:0,0:0:0:0:
412,120,80321,1,0,1:2:0:0:
266,23,80487,2,0,P|224:13|167:37,1,93.5000028533936,2|8,0:0|0:0,0:0:0:0:
333,178,80821,1,2,0:0:0:0:
443,9,80987,6,0,P|432:69|424:121,1,93.5000028533936,4|0,1:2|0:0,0:0:0:0:
302,199,81321,2,0,P|294:152|285:106,1,93.5000028533936,8|2,0:0|0:0,0:0:0:0:
478,291,81654,1,0,1:2:0:0:
387,142,81821,1,2,0:0:0:0:
310,319,81987,2,0,P|265:328|223:310,1,93.5000028533936,8|2,0:0|0:0,0:0:0:0:
78,179,82321,6,0,P|86:229|94:286,1,93.5000028533936,0|8,1:2|0:0,0:0:0:0:
116,298,82571,1,8,0:0:0:0:
116,298,82654,2,0,P|109:325|106:351,3,46.7500014266968,8|8|8|8,0:0|0:0|0:0|0:0,0:0:0:0:
176,193,82987,5,12,0:0:0:0:
5,303,83154,1,0,1:2:0:0:
254,383,83487,5,8,0:0:0:0:
254,383,83571,1,8,0:0:0:0:
254,383,83654,2,0,P|263:332|276:282,1,85,6|0,1:2|0:0,0:0:0:0:
139,191,83987,2,0,P|148:232|155:274,1,85,8|0,0:0|0:0,0:0:0:0:
311,81,84321,1,0,1:2:0:0:
232,234,84487,1,2,1:2:0:0:
150,70,84654,1,10,0:0:0:0:
332,196,84821,6,0,B|430:178|390:247|503:228,1,170,2|0,0:0|0:0,0:0:0:0:
508,98,85321,1,8,0:0:0:0:
365,23,85487,2,0,P|360:65|356:107,1,85,2|0,1:2|0:0,0:0:0:0:
235,230,85821,2,0,P|230:187|223:144,1,85,2|8,1:2|0:0,0:0:0:0:
112,20,86154,1,2,0:0:0:0:
112,20,86237,1,2,0:0:0:0:
112,20,86321,6,0,P|69:13|18:36,1,85,2|0,1:2|0:0,0:0:0:0:
146,182,86654,2,0,P|186:193|229:183,1,85,8|0,0:0|0:0,0:0:0:0:
292,40,86987,1,0,1:2:0:0:
377,188,87154,1,2,1:2:0:0:
377,188,87237,1,0,0:0:0:0:
377,188,87321,2,0,L|386:138,1,42.5,10|0,0:0|0:0,0:0:0:0:
472,25,87487,6,0,B|496:45|522:61|522:61|496:181,1,170,6|0,1:2|1:2,0:0:0:0:
460,309,87987,1,14,0:0:0:0:
377,188,88154,1,8,0:3:0:0:
377,188,88237,1,8,0:3:0:0:
377,188,88321,2,0,L|331:199,1,42.5,4|4,0:3|0:3,0:0:0:0:
177,330,88487,1,10,0:0:0:0:
276,138,88654,1,10,0:0:0:0:
387,353,88821,1,14,0:0:0:0:
