osu file format v14

[General]
AudioFilename: audio.mp3
AudioLeadIn: 0
PreviewTime: 46237
Countdown: 0
SampleSet: Soft
StackLeniency: 0.5
Mode: 0
LetterboxInBreaks: 0
WidescreenStoryboard: 1

[Editor]
Bookmarks: 37831
DistanceSpacing: 0.3
BeatDivisor: 4
GridSize: 32
TimelineZoom: 1.8

[Metadata]
Title:killy killy JOKER (TV Size)
TitleUnicode:killy killy JOKER (TV Size)
Artist:Wakeshima Kanon
ArtistUnicode:分島花音
Creator:A r M i N
Version:Reform's Extra
Source:selector infected WIXOSS
Tags:opening op card game Ruko Kominato Tama naotyu- Japanese pop j-pop Armin A_r_M_i_N Reform Kujinn schoolboy Komore Rosiie soop Kudosu so0p Xenon- Xen Xehn
BeatmapID:2619743
BeatmapSetID:1258913

[Difficulty]
HPDrainRate:5.2
CircleSize:3.5
OverallDifficulty:9
ApproachRate:9.2
SliderMultiplier:1.82
SliderTickRate:1

[Events]
//Background and Video events
0,0,"killy bg.jpg",0,0
//Break Periods
//Storyboard Layer 0 (Background)
//Storyboard Layer 1 (Fail)
//Storyboard Layer 2 (Pass)
//Storyboard Layer 3 (Foreground)
//Storyboard Layer 4 (Overlay)
//Storyboard Sound Samples

[TimingPoints]
988,333.333333333333,4,2,1,80,1,0
6321,-200,4,2,1,60,0,0
6404,-200,4,2,1,10,0,0
7654,-200,4,2,1,60,0,0
8321,-100,4,2,1,70,0,0
14654,-125,4,2,1,45,0,0
19654,-100,4,2,1,70,0,0
24987,-125,4,2,1,50,0,0
34821,-111.111111111111,4,2,1,60,0,0
35654,-100,4,2,1,70,0,0
46321,-90.9090909090909,4,2,1,80,0,1
61654,-90.9090909090909,4,2,1,80,0,0
62321,-90.9090909090909,4,2,1,80,0,1
82987,-100,4,2,1,70,0,0

[Colours]
Combo1 : 255,255,100
Combo2 : 60,140,145
Combo3 : 227,146,244
Combo4 : 171,196,170
Combo5 : 137,137,219
Combo6 : 81,217,70
Combo7 : 255,153,51
Combo8 : 43,83,145

[HitObjects]
443,94,6321,6,0,B|373:45|298:110|348:146|256:221|165:143,1,318.5,2|0,0:0|0:0,0:0:0:0:
113,57,7654,2,0,P|123:115|138:208,1,136.5,2|0,0:0|1:2,0:0:0:0:
50,317,8321,6,0,P|83:283|140:278,1,91,8|0,0:0|1:2,0:0:0:0:
278,357,8654,1,6,0:3:0:0:
278,357,8737,1,2,0:0:0:0:
278,357,8821,1,2,0:0:0:0:
278,357,8904,1,2,0:0:0:0:
278,357,8987,6,0,P|269:293|260:245,1,91,6|0,1:2|0:0,0:0:0:0:
446,176,9321,2,0,P|438:220|432:265,1,91,10|0,0:0|0:0,0:0:0:0:
267,82,9654,1,2,1:2:0:0:
335,226,9821,1,2,1:2:0:0:
411,82,9987,1,10,0:0:0:0:
218,191,10154,6,0,P|153:194|90:93,1,182,2|0,0:0|0:0,0:0:0:0:
211,21,10654,1,8,0:0:0:0:
344,168,10821,2,0,P|398:167|435:131,1,91,2|0,1:2|0:0,0:0:0:0:
299,8,11154,2,0,P|287:69|279:123,1,91,2|8,1:2|0:0,0:0:0:0:
208,273,11487,5,2,0:0:0:0:
208,273,11571,1,2,0:0:0:0:
208,273,11654,2,0,P|200:228|191:183,1,91,2|0,1:2|0:0,0:0:0:0:
28,124,11987,2,0,P|68:153|121:144,1,91,8|0,0:0|0:0,0:0:0:0:
225,6,12321,1,0,1:2:0:0:
86,73,12487,1,2,1:2:0:0:
241,134,12654,1,10,0:0:0:0:
0,24,12821,6,0,P|13:92|36:228,1,182,6|0,1:2|1:2,0:0:0:0:
172,352,13321,2,0,P|182:284|191:236,1,91,14|0,0:0|0:0,0:0:0:0:
351,108,13654,1,8,0:0:0:0:
330,283,13821,1,10,0:3:0:0:
208,151,13987,2,0,P|163:136|74:223,1,182,4|4,0:3|0:0,0:0:0:0:
74,217,14654,6,0,P|114:236|157:229,1,72.8,2|0,0:0|0:0,0:0:0:0:
215,303,14987,1,2,0:0:0:0:
215,303,15154,2,0,P|255:284|298:291,1,72.8,2|0,0:0|0:0,0:0:0:0:
390,371,15487,2,0,L|365:198,1,145.6,2|0,0:0|0:0,0:0:0:0:
438,83,15987,1,2,0:0:0:0:
438,83,16154,2,0,P|397:148|317:143,1,145.6,2|2,0:0|0:0,0:0:0:0:
203,84,16654,1,2,0:0:0:0:
304,21,16821,2,0,L|346:16,2,36.4,2|2|2,1:2|0:0|1:2,0:0:0:0:
304,21,17321,6,0,L|293:122,1,72.8,2|0,0:0|0:0,0:0:0:0:
213,158,17654,1,2,0:0:0:0:
213,158,17821,2,0,L|224:259,1,72.8,2|0,0:0|0:0,0:0:0:0:
354,351,18154,2,0,P|320:310|225:334,1,145.6,2|0,0:0|0:0,0:0:0:0:
160,376,18654,1,2,0:0:0:0:
160,376,18821,2,0,P|114:365|81:359,1,72.8,2|0,0:0|0:0,0:0:0:0:
1,265,19154,1,2,1:2:0:0:
97,191,19321,2,0,P|108:238|114:291,1,72.8,8|0,0:0|1:2,0:0:0:0:
196,121,19654,6,0,P|263:100|338:190,1,182,4|8,1:2|0:0,0:0:0:0:
250,287,20154,2,0,P|240:220|233:180,1,91,0|0,0:0|1:2,0:0:0:0:
391,310,20487,1,0,1:2:0:0:
294,380,20654,1,2,0:0:0:0:
438,205,20821,6,0,P|425:269|409:390,1,182,10|0,0:0|1:2,0:0:0:0:
318,177,21321,2,0,P|308:111|297:57,1,91,8|0,0:0|0:0,0:0:0:0:
150,250,21654,1,0,1:2:0:0:
198,99,21821,1,0,1:2:0:0:
266,251,21987,2,0,P|310:279|371:264,1,91,8|0,0:0|0:0,0:0:0:0:
133,144,22321,6,0,P|88:143|51:169,1,91,2|2,1:2|0:0,0:0:0:0:
181,297,22654,1,10,0:0:0:0:
244,137,22821,2,0,P|250:200|265:339,1,182,2|2,0:0|1:2,0:0:0:0:
343,119,23321,1,2,0:0:0:0:
229,206,23487,6,0,P|175:192|126:180,1,91,10|0,0:0|0:0,0:0:0:0:
338,87,23821,2,0,P|392:73|441:61,1,91,2|8,1:2|0:0,0:0:0:0:
207,50,24154,5,0,0:0:0:0:
327,255,24321,1,10,0:0:0:0:
414,40,24487,1,10,0:0:0:0:
414,40,24821,5,2,0:0:0:0:
481,129,24987,2,0,P|467:184|486:302,1,145.6,6|0,1:2|1:2,0:0:0:0:
253,222,25654,2,0,P|288:173|385:184,1,145.6,2|0,1:2|1:2,0:0:0:0:
286,348,26321,6,0,B|211:329|239:393|139:370,1,145.6,2|0,1:2|1:2,0:0:0:0:
23,227,26987,2,0,P|38:291|52:398,1,145.6,2|0,1:2|1:2,0:0:0:0:
138,227,27487,1,0,0:0:0:0:
138,227,27654,6,0,P|148:154|164:84,1,145.6,2|0,1:2|1:2,0:0:0:0:
392,51,28321,2,0,P|358:93|256:72,1,145.6,0|2,1:2|1:2,0:0:0:0:
186,26,28821,1,2,0:0:0:0:
186,26,28987,6,0,P|113:35|36:44,1,145.6,0|0,1:2|1:2,0:0:0:0:
156,217,29654,2,0,P|229:226|306:235,1,145.6,2|0,1:2|1:2,0:0:0:0:
378,165,30154,1,0,0:0:0:0:
378,165,30321,6,0,P|400:232|405:338,1,145.6,2|0,1:2|1:2,0:0:0:0:
293,46,30987,2,0,P|271:113|266:219,1,145.6,2|0,1:2|1:2,0:0:0:0:
78,91,31654,6,0,P|109:44|209:54,1,145.6,2|0,1:2|1:2,0:0:0:0:
115,242,32321,2,0,P|44:246|0:191,1,145.6,2|0,1:2|1:2,0:0:0:0:
201,147,32987,6,0,L|274:163,1,72.8,2|2,1:2|0:0,0:0:0:0:
382,252,33321,2,0,L|309:268,1,72.8,2|2,1:2|0:0,0:0:0:0:
185,382,33654,2,0,P|197:324|207:279,1,72.8,0|2,1:2|0:0,0:0:0:0:
71,214,33987,2,0,P|78:249|85:285,1,72.8,2|2,1:2|0:0,0:0:0:0:
176,87,34321,5,0,1:2:0:0:
4,153,34487,1,8,0:3:0:0:
172,228,34654,1,8,0:0:0:0:
99,52,34821,2,0,L|67:235,1,163.799995001221,4|8,1:2|0:0,0:0:0:0:
16,29,35321,1,10,0:0:0:0:
162,176,35487,1,8,0:0:0:0:
231,19,35654,6,0,B|333:-6|303:98|424:52,1,182,6|10,1:2|0:0,0:0:0:0:
271,189,36154,2,0,P|263:127|253:80,1,91,2|0,1:2|0:0,0:0:0:0:
467,203,36487,2,0,P|458:247|453:292,1,91,2|8,1:2|0:0,0:0:0:0:
365,112,36821,1,2,0:0:0:0:
306,313,36987,6,0,P|243:328|170:222,1,182,0|10,1:2|0:0,0:0:0:0:
257,117,37487,2,0,P|217:152|161:148,1,91,2|0,1:2|0:0,0:0:0:0:
56,17,37821,1,0,1:2:0:0:
187,65,37987,1,8,0:0:0:0:
49,142,38154,1,2,0:0:0:0:
297,23,38321,6,0,P|275:82|258:215,1,182,0|10,1:2|0:0,0:0:0:0:
86,292,38821,2,0,B|182:261|159:357|263:326,1,182,6|2,1:2|1:2,0:0:0:0:
405,190,39321,1,8,0:0:0:0:
465,330,39487,6,0,P|406:351|316:253,1,182,6|0,1:2|1:2,0:0:0:0:
270,101,39987,1,10,0:0:0:0:
190,287,40154,2,0,P|176:219|164:169,1,91,6|0,1:2|0:0,0:0:0:0:
398,109,40487,2,0,P|388:153|379:198,1,91,6|8,1:2|0:0,0:0:0:0:
254,29,40821,1,0,1:2:0:0:
105,113,40987,6,0,B|82:231|161:172|133:305,2,182,6|8|0,1:2|0:0|1:2,0:0:0:0:
216,169,41821,1,0,1:2:0:0:
54,243,41987,1,8,0:0:0:0:
232,341,42154,6,0,P|288:358|377:259,1,182,4|0,1:2|1:2,0:0:0:0:
261,179,42654,2,0,P|279:240|288:289,1,91,8|0,0:0|0:0,0:0:0:0:
355,60,42987,1,0,1:2:0:0:
183,149,43154,1,2,1:2:0:0:
387,204,43321,1,10,0:0:0:0:
258,19,43487,1,2,0:0:0:0:
95,183,43654,6,0,L|117:282,1,91,6|8,1:2|0:0,0:0:0:0:
146,306,43904,1,8,0:0:0:0:
146,306,43987,2,0,L|138:365,2,45.5,8|8|4,0:0|0:0|1:2,0:0:0:0:
296,152,44321,1,10,0:0:0:0:
296,152,44404,1,8,0:0:0:0:
296,152,44487,1,8,0:0:0:0:
380,322,44654,1,4,1:2:0:0:
199,229,44821,1,8,0:0:0:0:
199,229,44904,1,8,0:0:0:0:
199,229,44987,5,2,1:2:0:0:
377,65,45154,2,0,B|347:176|426:124|392:252,1,182,12|0,0:0|0:0,0:0:0:0:
316,359,45654,2,0,P|266:361|228:333,1,91,8|0,0:0|0:0,0:0:0:0:
165,139,45987,2,0,P|215:137|253:165,1,91,12|0,0:0|0:0,0:0:0:0:
101,253,46321,5,4,1:2:0:0:
206,24,46487,1,2,0:0:0:0:
269,268,46654,1,8,0:0:0:0:
112,68,46821,1,2,0:0:0:0:
186,322,46987,5,0,1:2:0:0:
322,105,47154,1,2,0:0:0:0:
98,215,47321,1,8,0:0:0:0:
340,311,47487,1,2,0:0:0:0:
186,104,47654,5,0,1:2:0:0:
263,359,47821,1,2,0:0:0:0:
350,89,47987,1,8,0:0:0:0:
251,318,48154,1,2,0:0:0:0:
147,72,48321,5,0,1:2:0:0:
392,199,48487,1,2,0:0:0:0:
149,306,48654,1,8,0:0:0:0:
245,49,48821,1,2,0:0:0:0:
397,284,48987,6,0,P|403:201|436:81,1,200.200006109619,4|8,1:2|0:0,0:0:0:0:
289,218,49487,1,2,0:0:0:0:
170,58,49654,2,0,P|219:23|275:33,1,100.10000305481,0|2,1:2|0:0,0:0:0:0:
143,223,49987,2,0,P|93:221|56:189,1,100.10000305481,8|2,0:0|0:0,0:0:0:0:
258,118,50321,5,0,1:2:0:0:
160,321,50487,2,0,P|148:250|134:175,1,100.10000305481,2|8,0:0|0:0,0:0:0:0:
294,111,50821,2,0,P|285:160|276:209,1,100.10000305481,2|0,0:0|1:2,0:0:0:0:
179,119,51154,1,2,0:0:0:0:
371,223,51321,1,8,0:0:0:0:
185,311,51487,1,2,0:0:0:0:
185,311,51571,1,0,0:0:0:0:
185,311,51654,5,4,1:2:0:0:
270,63,51821,1,2,0:0:0:0:
322,334,51987,1,8,0:0:0:0:
171,108,52154,1,2,0:0:0:0:
425,222,52321,5,0,1:2:0:0:
169,330,52487,1,2,0:0:0:0:
330,128,52654,1,8,0:0:0:0:
296,384,52821,1,2,0:0:0:0:
134,182,52987,5,0,1:2:0:0:
383,290,53154,1,2,0:0:0:0:
120,164,53321,1,8,0:0:0:0:
372,62,53487,1,2,0:0:0:0:
245,296,53654,5,0,1:2:0:0:
141,29,53821,1,2,0:0:0:0:
402,161,53987,1,8,0:0:0:0:
143,267,54154,1,2,0:0:0:0:
252,14,54321,6,0,P|277:102|296:233,1,200.200006109619,4|8,1:2|0:0,0:0:0:0:
380,43,54821,1,2,0:0:0:0:
226,229,54987,2,0,B|327:197|299:308|420:268,1,200.200006109619,0|8,1:2|0:0,0:0:0:0:
320,88,55487,1,2,0:0:0:0:
242,337,55654,6,0,P|180:340|121:213,1,200.200006109619,0|8,1:2|0:0,0:0:0:0:
212,83,56154,1,2,0:0:0:0:
86,202,56321,2,0,P|31:197|-8:144,1,100.10000305481,0|2,1:2|0:0,0:0:0:0:
98,31,56654,1,8,0:0:0:0:
191,190,56821,1,2,0:0:0:0:
326,25,56987,6,0,L|295:246,1,200.200006109619,4|8,1:2|0:0,0:0:0:0:
86,299,57487,2,0,P|101:218|220:205,1,200.200006109619,6|0,0:0|1:2,0:0:0:0:
289,342,57987,1,8,0:0:0:0:
467,174,58154,2,0,B|364:141|398:265|264:214,1,200.200006109619,4|0,1:2|1:2,0:0:0:0:
332,92,58654,1,8,0:0:0:0:
429,270,58821,1,2,0:0:0:0:
304,77,58987,6,0,L|283:266,2,150.150004582214,10|8|8,0:0|0:0|0:0,0:0:0:0:
155,21,59654,6,0,P|131:74|151:141,1,100.10000305481,0|0,1:2|1:2,0:0:0:0:
287,226,59987,2,0,P|253:178|185:162,1,100.10000305481,12|0,0:0|0:0,0:0:0:0:
57,337,60321,1,0,1:2:0:0:
200,256,60487,1,0,1:2:0:0:
40,126,60654,2,0,P|51:203|60:268,1,100.10000305481,12|0,0:0|0:0,0:0:0:0:
273,375,60987,6,0,P|279:325|287:275,1,100.10000305481,0|0,1:2|1:2,0:0:0:0:
383,119,61321,2,0,P|334:147|270:130,1,100.10000305481,12|0,0:0|0:0,0:0:0:0:
91,42,61654,1,8,0:0:0:0:
180,210,61821,2,0,L|191:268,2,50.0500015274048,8|8|0,0:0|0:0|1:2,0:0:0:0:
307,7,62154,1,8,0:0:0:0:
307,7,62237,1,8,0:0:0:0:
307,7,62321,5,4,1:2:0:0:
356,276,62487,1,2,0:0:0:0:
202,44,62654,1,8,0:0:0:0:
433,186,62821,1,2,0:0:0:0:
157,169,62987,5,0,1:2:0:0:
396,58,63154,1,2,0:0:0:0:
230,276,63321,1,8,0:0:0:0:
294,8,63487,1,2,0:0:0:0:
321,307,63654,5,0,1:2:0:0:
213,35,63821,1,2,0:0:0:0:
160,307,63987,1,8,0:0:0:0:
287,89,64154,1,2,0:0:0:0:
414,303,64321,5,0,1:2:0:0:
147,153,64487,1,2,0:0:0:0:
396,269,64654,1,8,0:0:0:0:
137,351,64821,1,2,0:0:0:0:
348,166,64987,6,0,P|415:159|490:291,1,200.200006109619,4|8,1:2|0:0,0:0:0:0:
325,349,65487,1,2,0:0:0:0:
168,223,65654,2,0,P|187:282|196:339,1,100.10000305481,0|2,1:2|0:0,0:0:0:0:
255,140,65987,2,0,P|264:90|280:43,1,100.10000305481,8|2,0:0|0:0,0:0:0:0:
321,234,66321,5,0,1:2:0:0:
187,59,66487,2,0,P|148:42|79:61,1,100.10000305481,2|8,0:0|0:0,0:0:0:0:
298,204,66821,2,0,P|346:214|392:196,1,100.10000305481,2|0,0:0|1:2,0:0:0:0:
140,198,67154,1,2,0:0:0:0:
307,59,67321,1,8,0:0:0:0:
236,295,67487,1,2,0:0:0:0:
236,295,67571,1,0,0:0:0:0:
236,295,67654,5,4,1:2:0:0:
155,35,67821,1,2,0:0:0:0:
103,323,67987,1,8,0:0:0:0:
234,82,68154,1,2,0:0:0:0:
339,354,68321,5,0,1:2:0:0:
239,95,68487,1,2,0:0:0:0:
192,376,68654,1,8,0:0:0:0:
324,139,68821,1,2,0:0:0:0:
442,305,68987,5,0,1:2:0:0:
209,155,69154,1,2,0:0:0:0:
443,279,69321,1,8,0:0:0:0:
192,376,69487,1,2,0:0:0:0:
406,94,69654,5,0,1:2:0:0:
316,329,69821,1,2,0:0:0:0:
225,65,69987,1,8,0:0:0:0:
445,228,70154,1,2,0:0:0:0:
212,350,70321,6,0,P|202:264|173:136,1,200.200006109619,4|8,1:2|0:0,0:0:0:0:
70,284,70821,1,2,0:0:0:0:
159,52,70987,2,0,P|228:37|305:148,1,200.200006109619,0|8,1:2|0:0,0:0:0:0:
75,204,71487,1,2,0:0:0:0:
345,260,71654,6,0,B|244:229|273:346|158:304,1,200.200006109619,0|8,1:2|0:0,0:0:0:0:
255,120,72154,1,2,0:0:0:0:
398,355,72321,2,0,P|388:276|424:133,1,200.200006109619,0|8,1:2|0:0,0:0:0:0:
225,256,72821,1,2,0:0:0:0:
349,59,72987,6,0,P|303:80|227:55,1,100.10000305481,4|2,1:2|0:0,0:0:0:0:
81,20,73321,1,8,0:0:0:0:
218,227,73487,2,0,P|211:126|186:14,1,200.200006109619,2|2,0:0|0:0,0:0:0:0:
108,223,73987,1,8,0:0:0:0:
296,101,74154,1,2,0:0:0:0:
310,309,74321,6,0,P|260:357|133:315,1,200.200006109619,4|8,1:2|0:0,0:0:0:0:
255,136,74821,1,2,0:0:0:0:
429,335,74987,2,0,P|436:271|443:203,1,100.10000305481,0|2,1:2|0:0,0:0:0:0:
271,108,75321,2,0,P|276:157|281:207,1,100.10000305481,8|2,0:0|0:0,0:0:0:0:
495,49,75654,6,0,B|394:19|420:133|303:87,1,200.200006109619,4|8,1:2|0:0,0:0:0:0:
69,205,76154,2,0,P|83:264|90:316,1,100.10000305481,6|0,1:2|0:0,0:0:0:0:
191,29,76487,2,0,P|142:-2|77:21,1,100.10000305481,4|8,1:2|0:0,0:0:0:0:
296,259,76821,6,0,P|367:281|447:163,1,200.200006109619,4|0,1:2|1:2,0:0:0:0:
355,73,77321,2,0,P|348:151|345:196,1,100.10000305481,12|0,0:2|0:0,0:0:0:0:
418,349,77654,1,4,1:2:0:0:
281,255,77821,2,0,L|225:243,2,50.0500015274048,8|8|8,0:0|0:0|0:3,0:0:0:0:
444,151,78154,1,4,0:3:0:0:
444,151,78237,1,4,0:3:0:0:
444,151,78321,6,0,P|434:213|423:287,1,100.10000305481,4|0,1:2|0:0,0:0:0:0:
238,121,78654,1,8,0:0:0:0:
338,11,78821,2,0,P|348:73|359:147,1,100.10000305481,2|0,0:0|1:2,0:0:0:0:
256,288,79154,1,2,0:0:0:0:
171,112,79321,1,8,0:0:0:0:
338,201,79487,1,2,0:0:0:0:
169,321,79654,6,0,P|118:338|64:310,1,100.10000305481,0|2,1:2|0:0,0:0:0:0:
212,171,79987,2,0,P|263:154|317:182,1,100.10000305481,8|2,0:0|0:0,0:0:0:0:
429,260,80321,1,0,1:2:0:0:
271,366,80487,2,0,P|263:288|254:224,1,100.10000305481,2|8,0:0|0:0,0:0:0:0:
387,140,80821,1,2,0:0:0:0:
196,192,80987,6,0,B|96:154|118:277|-4:218,1,200.200006109619,4|8,1:2|0:0,0:0:0:0:
30,52,81487,2,0,P|43:109|51:158,1,100.10000305481,2|0,0:0|1:2,0:0:0:0:
218,46,81821,1,2,0:0:0:0:
156,215,81987,2,0,P|143:272|135:321,1,100.10000305481,8|2,0:0|0:0,0:0:0:0:
391,67,82321,5,0,1:2:0:0:
306,222,82487,1,8,0:0:0:0:
306,222,82571,1,8,0:0:0:0:
306,222,82654,2,0,L|322:300,1,50.0500015274048,8|8,0:0|0:0,0:0:0:0:
180,101,82821,2,0,L|169:51,1,50.0500015274048,8|8,0:0|0:0,0:0:0:0:
166,299,82987,5,12,0:0:0:0:
296,54,83154,1,0,1:2:0:0:
303,62,83487,5,8,0:0:0:0:
303,62,83571,1,8,0:0:0:0:
303,62,83654,2,0,P|249:50|197:37,1,91,6|0,1:2|0:0,0:0:0:0:
354,198,83987,2,0,P|398:187|442:177,1,91,8|0,0:0|0:0,0:0:0:0:
191,297,84321,1,0,1:2:0:0:
273,128,84487,1,2,1:2:0:0:
385,323,84654,1,10,0:0:0:0:
125,185,84821,6,0,P|83:241|141:360,1,182,2|0,0:0|0:0,0:0:0:0:
282,228,85321,1,8,0:0:0:0:
200,113,85487,2,0,P|144:99|89:87,1,91,2|0,1:2|0:0,0:0:0:0:
273,325,85821,2,0,P|329:311|384:299,1,91,2|8,1:2|0:0,0:0:0:0:
312,65,86154,5,2,0:0:0:0:
312,65,86237,1,2,0:0:0:0:
312,65,86321,2,0,P|301:127|290:187,1,91,2|0,1:2|0:0,0:0:0:0:
491,280,86654,2,0,P|482:235|474:190,1,91,8|0,0:0|0:0,0:0:0:0:
278,277,86987,1,0,1:2:0:0:
389,102,87154,1,2,1:2:0:0:
389,102,87237,1,0,0:0:0:0:
389,102,87321,1,10,0:0:0:0:
427,325,87487,6,0,B|333:286|354:400|238:351,1,182,6|0,1:2|1:2,0:0:0:0:
141,93,87987,1,14,0:0:0:0:
309,219,88154,1,8,0:3:0:0:
309,219,88237,1,8,0:3:0:0:
309,219,88321,1,4,0:3:0:0:
61,199,88487,5,10,0:0:0:0:
352,62,88654,1,10,0:0:0:0:
231,384,88821,1,14,0:0:0:0:
