osu file format v14

[General]
AudioFilename: audio.mp3
AudioLeadIn: 0
PreviewTime: 46237
Countdown: 0
SampleSet: Soft
StackLeniency: 0.5
Mode: 0
LetterboxInBreaks: 0
WidescreenStoryboard: 1

[Editor]
DistanceSpacing: 1.4
BeatDivisor: 4
GridSize: 16
TimelineZoom: 1

[Metadata]
Title:killy killy JOKER (TV Size)
TitleUnicode:killy killy JOKER (TV Size)
Artist:Wakeshima Kanon
ArtistUnicode:分島花音
Creator:A r M i N
Version:Kudosu's Hard
Source:selector infected WIXOSS
Tags:opening op card game Ruko Kominato Tama naotyu- Japanese pop j-pop Armin A_r_M_i_N Reform Kujinn schoolboy Komore Rosiie soop Kudosu so0p Xenon- Xen Xehn
BeatmapID:2623710
BeatmapSetID:1258913

[Difficulty]
HPDrainRate:5
CircleSize:4
OverallDifficulty:6
ApproachRate:8
SliderMultiplier:1.4
SliderTickRate:1

[Events]
//Background and Video events
0,0,"killy bg.jpg",0,0
//Break Periods
//Storyboard Layer 0 (Background)
//Storyboard Layer 1 (Fail)
//Storyboard Layer 2 (Pass)
//Storyboard Layer 3 (Foreground)
//Storyboard Layer 4 (Overlay)
//Storyboard Sound Samples

[TimingPoints]
988,333.333333333333,4,2,1,80,1,0
6321,-250,4,2,1,60,0,0
6404,-250,4,2,1,10,0,0
7654,-250,4,2,1,60,0,0
8321,-100,4,2,1,70,0,0
14321,-125,4,2,1,70,0,0
14654,-125,4,2,1,45,0,0
19654,-111.111111111111,4,2,1,70,0,0
24987,-133.333333333333,4,2,1,50,0,0
33821,-117.647058823529,4,2,1,50,0,0
34821,-111.111111111111,4,2,1,60,0,0
35654,-111.111111111111,4,2,1,70,0,0
46321,-100,4,2,1,80,0,1
61654,-100,4,2,1,80,0,0
62321,-100,4,2,1,80,0,1
82987,-111.111111111111,4,2,1,70,0,0
83654,-99.9999999999999,4,2,1,70,0,0

[Colours]
Combo1 : 255,255,100
Combo2 : 60,140,145
Combo3 : 227,146,244
Combo4 : 171,196,170
Combo5 : 137,137,219
Combo6 : 81,217,70
Combo7 : 255,153,51
Combo8 : 43,83,145

[HitObjects]
79,68,6321,6,0,B|168:54|183:133|270:110,1,196,2|0,0:0|0:0,0:0:0:0:
264,111,7654,1,2,0:0:0:0:
377,167,8154,1,0,1:2:0:0:
377,167,8321,2,0,L|387:97,1,70,8|0,0:0|1:2,0:0:0:0:
292,209,8654,6,0,L|299:256,3,35,6|2|2|2,0:3|0:0|0:0|0:0,0:0:0:0:
281,264,8987,6,0,P|216:222|153:243,2,140,6|10|2,1:2|0:0|1:2,0:0:0:0:
362,320,9821,2,0,L|372:250,1,70,2|10,1:2|0:0,0:0:0:0:
278,355,10154,2,0,P|205:341|135:332,1,140,2|0,0:0|0:0,0:0:0:0:
56,368,10654,1,8,0:0:0:0:
67,279,10821,2,0,L|51:184,1,70,2|0,1:2|0:0,0:0:0:0:
100,124,11154,2,0,L|5:108,1,70,2|8,1:2|0:0,0:0:0:0:
152,205,11487,1,2,0:0:0:0:
152,205,11571,1,2,0:0:0:0:
152,205,11654,6,0,P|190:150|170:67,2,140,2|8|0,1:2|0:0|1:2,0:0:0:0:
217,274,12487,2,0,L|286:263,1,70,2|10,1:2|0:0,0:0:0:0:
363,320,12821,2,0,L|385:177,1,140,6|0,1:2|1:2,0:0:0:0:
441,107,13321,2,0,L|511:118,1,70,14|0,0:0|0:0,0:0:0:0:
368,50,13654,2,0,L|273:65,1,70,8|10,0:0|0:3,0:0:0:0:
204,85,13987,2,0,L|219:-9,1,70,4|0,0:3|0:0,0:0:0:0:
268,140,14321,6,0,P|192:108|161:120,2,112,4|2|2,0:0|0:0|0:0,0:0:0:0:
319,203,15154,2,0,L|192:182,1,112,2|2,0:0|0:0,0:0:0:0:
150,242,15654,2,0,L|160:305,1,56,2|0,0:0|0:0,0:0:0:0:
77,277,15987,1,2,0:0:0:0:
77,277,16154,2,0,P|68:197|96:172,1,112,2|2,0:0|0:0,0:0:0:0:
150,129,16654,2,0,L|141:73,1,56,2|2,0:0|1:2,0:0:0:0:
206,24,16987,6,0,P|130:-8|99:4,2,112,2|2|2,1:2|0:0|0:0,0:0:0:0:
271,74,17821,2,0,L|397:53,1,112,2|2,0:0|0:0,0:0:0:0:
462,33,18321,2,0,L|454:89,1,56,2|0,0:0|0:0,0:0:0:0:
495,165,18654,1,2,0:0:0:0:
495,165,18821,2,0,L|512:275,1,112,2|2,0:0|1:2,0:0:0:0:
455,347,19321,2,0,L|510:355,1,56,8|0,0:0|1:2,0:0:0:0:
422,262,19654,6,0,P|363:228|293:254,1,125.999996154785,4|8,1:2|0:0,0:0:0:0:
233,285,20154,2,0,L|212:158,1,125.999996154785,0|0,0:0|1:2,0:0:0:0:
263,91,20654,1,2,0:0:0:0:
191,45,20821,2,0,P|151:70|64:45,1,125.999996154785,10|0,0:0|1:2,0:0:0:0:
18,118,21321,2,0,L|28:181,1,62.9999980773926,8|0,0:0|0:0,0:0:0:0:
63,265,21654,2,0,L|0:254,1,62.9999980773926,0|0,1:2|1:2,0:0:0:0:
116,330,21987,2,0,L|179:319,1,62.9999980773926,8|0,0:0|0:0,0:0:0:0:
261,358,22321,6,0,L|281:231,1,125.999996154785,2|10,1:2|0:0,0:0:0:0:
204,188,22821,2,0,P|256:146|336:168,1,125.999996154785,2|2,0:0|1:2,0:0:0:0:
388,188,23321,1,2,0:0:0:0:
467,157,23487,2,0,L|456:94,1,62.9999980773926,10|0,0:0|0:0,0:0:0:0:
388,194,23821,2,0,L|368:318,1,125.999996154785,2|0,1:2|0:0,0:0:0:0:
300,370,24321,1,10,0:0:0:0:
219,346,24487,1,10,0:0:0:0:
57,298,24987,6,0,L|77:171,3,105.000004005432,6|0|2|0,1:2|1:2|1:2|1:2,0:0:0:0:
3,119,26321,2,0,P|56:83|107:92,3,105.000004005432,2|0|2|0,1:2|1:2|1:2|1:2,0:0:0:0:
185,35,27654,6,0,P|238:71|289:62,1,105.000004005432,2|0,1:2|1:2,0:0:0:0:
388,16,28321,2,0,L|367:142,1,105.000004005432,0|2,1:2|1:2,0:0:0:0:
301,161,28821,1,2,0:0:0:0:
301,161,28987,2,0,L|321:287,1,105.000004005432,0|0,1:2|1:2,0:0:0:0:
366,376,29654,2,0,L|262:359,1,105.000004005432,2|0,1:2|1:2,0:0:0:0:
170,388,30321,6,0,P|157:323|186:278,3,105.000004005432,2|0|2|0,1:2|1:2|1:2|1:2,0:0:0:0:
218,182,31654,2,0,L|107:199,1,105.000004005432,2|0,1:2|1:2,0:0:0:0:
115,72,32321,2,0,L|225:89,1,105.000004005432,2|0,1:2|1:2,0:0:0:0:
317,0,32987,6,0,L|326:52,1,52.5000020027161,2|2,1:2|0:0,0:0:0:0:
398,94,33321,2,0,L|389:145,1,52.5000020027161,2|2,1:2|0:0,0:0:0:0:
346,217,33654,1,0,1:2:0:0:
346,217,33821,2,0,L|407:226,2,59.5000011348725,2|2|2,0:0|1:2|0:0,0:0:0:0:
288,276,34321,2,0,L|300:355,1,59.5000011348725,0|8,1:2|0:3,0:0:0:0:
229,384,34654,1,8,0:0:0:0:
229,384,34821,6,0,P|159:343|111:363,1,125.999996154785,4|8,1:2|0:0,0:0:0:0:
33,322,35321,2,0,L|43:385,1,62.9999980773926,10|8,0:0|0:0,0:0:0:0:
101,274,35654,6,0,L|121:147,1,125.999996154785,6|10,1:2|0:0,0:0:0:0:
69,82,36154,2,0,L|6:91,1,62.9999980773926,2|0,1:2|0:0,0:0:0:0:
140,34,36487,2,0,L|202:43,1,62.9999980773926,2|8,1:2|0:0,0:0:0:0:
277,0,36821,2,0,L|298:138,1,125.999996154785,2|0,0:0|0:0,0:0:0:0:
234,181,37321,1,10,0:0:0:0:
234,181,37487,2,0,L|171:171,1,62.9999980773926,2|0,1:2|0:0,0:0:0:0:
293,243,37821,2,0,L|355:233,1,62.9999980773926,0|8,1:2|0:0,0:0:0:0:
415,170,38154,6,0,P|445:224|421:293,1,125.999996154785,2|0,0:0|0:0,0:0:0:0:
491,341,38654,1,10,0:0:0:0:
412,373,38821,2,0,L|332:360,1,62.9999980773926,6|0,1:2|0:0,0:0:0:0:
267,384,39154,2,0,L|254:304,1,62.9999980773926,2|8,1:2|0:0,0:0:0:0:
187,272,39487,2,0,B|129:259|117:301|59:290,1,125.999996154785,6|0,1:2|1:2,0:0:0:0:
0,346,39987,1,10,0:0:0:0:
77,384,40154,1,6,1:2:0:0:
8,226,40487,2,0,L|20:146,1,62.9999980773926,6|8,1:2|0:0,0:0:0:0:
32,81,40821,1,0,1:2:0:0:
108,166,40987,6,0,L|232:146,2,125.999996154785,6|8|0,1:2|0:0|1:2,0:0:0:0:
54,98,41821,2,0,L|64:34,1,62.9999980773926,0|8,1:2|0:0,0:0:0:0:
2,164,42154,2,0,L|21:288,1,125.999996154785,4|0,1:2|1:2,0:0:0:0:
87,342,42654,2,0,P|130:299|191:304,1,125.999996154785,8|0,0:0|1:2,0:0:0:0:
274,287,43154,1,2,1:2:0:0:
275,287,43321,2,0,L|266:350,1,62.9999980773926,10|2,0:0|0:0,0:0:0:0:
218,225,43654,5,6,1:2:0:0:
301,207,43821,1,8,0:0:0:0:
301,207,43904,1,8,0:0:0:0:
301,207,43987,2,0,L|348:214,2,31.4999990386963,8|8|4,0:0|0:0|1:2,0:0:0:0:
232,140,44321,2,0,L|184:147,2,31.4999990386963,10|8|8,0:0|0:0|0:0,0:0:0:0:
296,85,44654,1,4,1:2:0:0:
222,34,44821,2,0,L|174:41,2,31.4999990386963,8|8|2,0:0|0:0|1:2,0:0:0:0:
303,89,45154,6,0,B|336:58|388:63|388:63|408:116|466:117,1,188.999994232178,12|8,0:0|0:0,0:0:0:0:
461,116,45987,2,0,L|448:195,1,62.9999980773926,12|0,0:0|0:0,0:0:0:0:
474,298,46321,6,0,P|389:258|338:274,1,140,4|8,1:2|0:0,0:0:0:0:
255,220,46821,1,2,0:0:0:0:
176,276,46987,2,0,L|188:355,1,70,0|2,1:2|0:0,0:0:0:0:
256,214,47321,2,0,L|266:144,1,70,8|2,0:0|0:0,0:0:0:0:
202,71,47654,2,0,L|132:81,1,70,0|2,1:2|0:0,0:0:0:0:
29,104,47987,2,0,P|35:62|39:34,1,70,8|2,0:0|0:0,0:0:0:0:
91,158,48321,2,0,P|96:194|101:227,1,70,0|2,1:2|0:0,0:0:0:0:
70,320,48654,2,0,P|35:314|0:309,1,70,8|2,0:0|0:0,0:0:0:0:
143,383,48987,6,0,L|281:361,1,140,4|8,1:2|0:0,0:0:0:0:
377,383,49487,1,2,0:0:0:0:
349,289,49654,2,0,B|359:225|359:225|345:207|345:207|355:144,2,140,0|8|0,1:2|0:0|1:2,0:0:0:0:
262,244,50487,2,0,L|192:254,1,70,2|8,0:0|0:0,0:0:0:0:
98,281,50821,2,0,L|108:211,1,70,2|0,0:0|1:2,0:0:0:0:
69,124,51154,2,0,L|0:134,1,70,2|8,0:0|0:0,0:0:0:0:
156,81,51487,1,2,0:0:0:0:
156,81,51571,1,0,0:0:0:0:
156,81,51654,6,0,L|225:91,1,70,4|2,1:2|0:0,0:0:0:0:
310,43,51987,2,0,L|320:112,1,70,8|2,0:0|0:0,0:0:0:0:
378,189,52321,2,0,P|412:191|443:176,1,70,0|2,1:2|0:0,0:0:0:0:
306,250,52654,2,0,P|273:235|236:239,1,70,8|2,0:0|0:0,0:0:0:0:
167,310,52987,2,0,L|156:240,1,70,0|2,1:2|0:0,0:0:0:0:
71,194,53321,2,0,P|57:232|66:265,1,70,8|2,0:0|0:0,0:0:0:0:
148,157,53654,2,0,P|162:119|153:86,1,70,0|2,1:2|0:0,0:0:0:0:
171,1,53987,2,0,L|102:12,1,70,8|2,0:0|0:0,0:0:0:0:
240,52,54321,6,0,L|382:74,1,140,4|8,1:2|0:0,0:0:0:0:
464,34,54821,1,2,0:0:0:0:
464,34,54987,2,0,B|474:97|474:97|460:115|460:115|470:178,1,140,0|8,1:2|0:0,0:0:0:0:
512,257,55487,1,2,0:0:0:0:
414,244,55654,2,0,L|275:265,1,140,0|8,1:2|0:0,0:0:0:0:
189,223,56154,1,2,0:0:0:0:
111,284,56321,2,0,L|126:378,1,70,0|2,1:2|0:0,0:0:0:0:
190,216,56654,2,0,L|200:146,1,70,8|2,0:0|0:0,0:0:0:0:
118,88,56987,6,0,P|145:56|262:64,1,140,4|8,1:2|0:0,0:0:0:0:
331,17,57487,2,0,L|309:155,1,140,6|0,0:0|1:2,0:0:0:0:
382,221,57987,1,8,0:0:0:0:
313,292,58154,2,0,B|254:282|254:282|219:300|219:300|154:290,1,140,4|0,1:2|1:2,0:0:0:0:
83,272,58654,2,0,L|95:351,1,70,8|2,0:0|0:0,0:0:0:0:
143,213,58987,2,0,L|159:109,2,105,10|8|8,0:0|0:0|0:0,0:0:0:0:
217,278,59654,6,0,L|286:267,1,70,0|0,1:2|1:2,0:0:0:0:
372,315,59987,2,0,L|382:245,1,70,12|0,0:0|0:0,0:0:0:0:
468,197,60321,2,0,P|431:154|338:159,1,140,0|12,1:2|0:0,0:0:0:0:
268,103,60821,1,0,0:0:0:0:
200,169,60987,2,0,L|210:238,1,70,0|0,1:2|1:2,0:0:0:0:
105,148,61321,2,0,L|115:78,1,70,12|0,0:0|0:0,0:0:0:0:
34,197,61654,2,0,L|0:191,4,35,8|8|8|8|0,0:0|0:0|0:0|0:0|1:2,0:0:0:0:
111,246,62154,1,8,0:0:0:0:
111,246,62237,1,8,0:0:0:0:
111,246,62321,6,0,L|88:388,1,140,4|8,1:2|0:0,0:0:0:0:
184,336,62821,1,2,0:0:0:0:
184,336,62987,2,0,P|224:313|258:322,1,70,0|2,1:2|0:0,0:0:0:0:
335,288,63321,2,0,L|324:357,1,70,8|2,0:0|0:0,0:0:0:0:
256,220,63654,2,0,L|245:150,1,70,0|2,1:2|0:0,0:0:0:0:
328,100,63987,2,0,P|362:106|397:110,1,70,8|2,0:0|0:0,0:0:0:0:
248,49,64321,2,0,P|213:53|178:59,1,70,0|2,1:2|0:0,0:0:0:0:
93,14,64654,2,0,L|82:83,1,70,8|2,0:0|0:0,0:0:0:0:
16,161,64987,6,0,P|116:126|156:153,1,140,4|8,1:2|0:0,0:0:0:0:
226,91,65487,1,2,0:0:0:0:
212,189,65654,2,0,B|222:253|222:253|208:271|208:271|218:334,2,140,0|8|0,1:2|0:0|1:2,0:0:0:0:
300,146,66487,2,0,L|394:161,1,70,2|8,0:0|0:0,0:0:0:0:
463,181,66821,2,0,L|452:111,1,70,2|0,0:0|1:2,0:0:0:0:
395,247,67154,2,0,L|384:316,1,70,2|8,0:0|0:0,0:0:0:0:
304,373,67487,1,2,0:0:0:0:
304,373,67571,1,0,0:0:0:0:
304,373,67654,6,0,L|234:362,1,70,4|2,1:2|0:0,0:0:0:0:
139,383,67987,2,0,L|128:313,1,70,8|2,0:0|0:0,0:0:0:0:
207,254,68321,2,0,L|217:184,1,70,0|2,1:2|0:0,0:0:0:0:
178,100,68654,2,0,L|248:90,1,70,8|2,0:0|0:0,0:0:0:0:
323,153,68987,2,0,L|392:163,1,70,0|2,1:2|0:0,0:0:0:0:
487,136,69321,2,0,L|476:205,1,70,8|2,0:0|0:0,0:0:0:0:
406,273,69654,2,0,L|416:342,1,70,0|2,1:2|0:0,0:0:0:0:
326,377,69987,2,0,L|256:366,1,70,8|2,0:0|0:0,0:0:0:0:
159,384,70321,6,0,L|133:225,1,140,4|8,1:2|0:0,0:0:0:0:
61,181,70821,1,2,0:0:0:0:
150,139,70987,2,0,B|214:149|214:149|232:135|232:135|295:145,1,140,0|8,1:2|0:0,0:0:0:0:
363,92,71487,1,2,0:0:0:0:
285,33,71654,2,0,L|146:54,1,140,0|8,1:2|0:0,0:0:0:0:
55,16,72154,1,2,0:0:0:0:
60,114,72321,2,0,L|47:193,1,70,0|2,1:2|0:0,0:0:0:0:
82,264,72654,2,0,L|12:274,1,70,8|2,0:0|0:0,0:0:0:0:
153,330,72987,6,0,P|193:295|280:321,1,140,4|8,1:2|0:0,0:0:0:0:
362,371,73487,2,0,L|339:228,1,140,2|2,0:0|0:0,0:0:0:0:
312,133,73987,2,0,L|381:143,1,70,8|2,0:0|0:0,0:0:0:0:
259,59,74321,2,0,L|120:80,2,140,4|8|0,1:2|0:0|1:2,0:0:0:0:
349,46,75154,1,2,0:0:0:0:
312,133,75321,2,0,L|296:227,1,70,8|2,0:0|0:0,0:0:0:0:
368,292,75654,6,0,P|305:248|228:279,1,140,4|8,1:2|0:0,0:0:0:0:
163,312,76154,1,6,1:2:0:0:
163,312,76487,2,0,L|173:381,1,70,4|8,1:2|0:0,0:0:0:0:
68,284,76821,2,0,B|76:232|76:232|62:214|62:214|72:150,1,140,4|0,1:2|1:2,0:0:0:0:
89,53,77321,2,0,L|20:64,1,70,12|0,0:2|0:0,0:0:0:0:
166,115,77654,1,4,1:2:0:0:
240,53,77821,1,8,0:0:0:0:
240,53,77904,1,8,0:0:0:0:
240,53,77987,2,0,L|287:60,3,35,8|8|4|4,0:3|0:3|0:3|0:3,0:0:0:0:
299,77,78321,6,0,L|437:55,2,140,4|8|0,1:2|0:0|1:2,0:0:0:0:
360,156,79154,1,2,0:0:0:0:
292,226,79321,2,0,L|222:215,1,70,8|2,0:0|0:0,0:0:0:0:
361,297,79654,2,0,L|499:275,2,140,0|8|0,1:2|0:0|1:2,0:0:0:0:
290,366,80487,2,0,L|220:355,1,70,2|8,0:0|0:0,0:0:0:0:
133,384,80821,1,2,0:0:0:0:
133,384,80987,6,0,L|110:241,1,140,4|8,1:2|0:0,0:0:0:0:
158,162,81487,2,0,L|88:151,1,70,2|0,0:0|1:2,0:0:0:0:
231,226,81821,2,0,L|310:213,1,70,2|8,0:0|0:0,0:0:0:0:
383,267,82154,1,2,0:0:0:0:
383,267,82321,2,0,L|393:197,1,70,0|8,1:2|0:0,0:0:0:0:
327,125,82654,2,0,L|292:130,3,35,8|8|8|8,0:0|0:0|0:0|0:0,0:0:0:0:
270,117,82987,6,0,L|282:37,1,62.9999980773926,12|0,0:0|1:2,0:0:0:0:
229,264,83654,6,0,L|376:242,2,140,6|8|0,1:2|0:0|1:2,0:0:0:0:
148,320,84488,2,0,L|138:250,1,70,2|10,1:2|0:0,0:0:0:0:
232,355,84821,2,0,P|297:313|360:334,1,140,2|0,0:0|0:0,0:0:0:0:
454,368,85321,1,8,0:0:0:0:
431,280,85488,2,0,L|447:185,1,70,2|0,1:2|0:0,0:0:0:0:
410,124,85821,2,0,L|505:108,1,70,2|8,1:2|0:0,0:0:0:0:
358,205,86154,1,2,0:0:0:0:
358,205,86238,1,2,0:0:0:0:
358,205,86321,6,0,P|320:150|340:67,2,140,2|8|0,1:2|0:0|1:2,0:0:0:0:
293,274,87154,2,0,L|224:263,1,70,2|10,1:2|0:0,0:0:0:0:
147,320,87488,2,0,L|125:177,1,140,6|0,1:2|1:2,0:0:0:0:
41,139,87987,2,0,P|97:89|182:109,1,140,14|4,0:0|0:3,0:0:0:0:
253,69,88487,6,0,L|237:163,1,70,10|10,0:0|0:0,0:0:0:0:
322,189,88821,1,14,0:0:0:0:
