osu file format v14

[General]
AudioFilename: audio.mp3
AudioLeadIn: 0
PreviewTime: 46237
Countdown: 0
SampleSet: Soft
StackLeniency: 0.5
Mode: 0
LetterboxInBreaks: 0
WidescreenStoryboard: 1

[Editor]
DistanceSpacing: 1.4
BeatDivisor: 4
GridSize: 4
TimelineZoom: 1

[Metadata]
Title:killy killy JOKER (TV Size)
TitleUnicode:killy killy JOKER (TV Size)
Artist:Wakeshima Kanon
ArtistUnicode:分島花音
Creator:A r M i N
Version:Insane
Source:selector infected WIXOSS
Tags:opening op card game Ruko Kominato Tama naotyu- Japanese pop j-pop Armin A_r_M_i_N Reform Kujinn schoolboy Komore Rosiie soop Kudosu so0p Xenon- Xen Xehn
BeatmapID:2617185
BeatmapSetID:1258913

[Difficulty]
HPDrainRate:5
CircleSize:3.4
OverallDifficulty:8
ApproachRate:9
SliderMultiplier:1.7
SliderTickRate:1

[Events]
//Background and Video events
0,0,"killy bg.jpg",0,0
//Break Periods
//Storyboard Layer 0 (Background)
//Storyboard Layer 1 (Fail)
//Storyboard Layer 2 (Pass)
//Storyboard Layer 3 (Foreground)
//Storyboard Layer 4 (Overlay)
//Storyboard Sound Samples

[TimingPoints]
988,333.333333333333,4,2,1,80,1,0
6321,-200,4,2,1,60,0,0
6404,-200,4,2,1,10,0,0
7654,-200,4,2,1,60,0,0
7737,-200,4,2,1,10,0,0
8154,-200,4,2,1,60,0,0
8321,-100,4,2,1,70,0,0
14654,-125,4,2,1,45,0,0
19654,-100,4,2,1,70,0,0
24987,-125,4,2,1,50,0,0
34821,-111.111111111111,4,2,1,60,0,0
35654,-100,4,2,1,70,0,0
46321,-90.9090909090909,4,2,1,80,0,1
61654,-90.9090909090909,4,2,1,80,0,0
62321,-90.9090909090909,4,2,1,80,0,1
82987,-100,4,2,1,70,0,0

[Colours]
Combo1 : 255,255,100
Combo2 : 60,140,145
Combo3 : 227,146,244
Combo4 : 171,196,170
Combo5 : 137,137,219
Combo6 : 81,217,70
Combo7 : 255,153,51
Combo8 : 43,83,145

[HitObjects]
264,31,6321,6,0,B|236:75|188:91|188:91|244:243,1,255,2|0,0:0|0:0,0:0:0:0:
487,191,7654,6,0,P|452:140|392:143,1,127.5,2|0,0:0|1:2,0:0:0:0:
346,238,8321,6,0,L|360:320,1,85,8|0,0:0|1:2,0:0:0:0:
288,150,8654,2,0,L|246:142,3,42.5,6|2|2|2,0:3|0:0|0:0|0:0,0:0:0:0:
210,134,8987,6,0,P|189:170|187:212,1,85,6|0,1:2|0:0,0:0:0:0:
295,362,9321,2,0,P|273:325|238:302,1,85,10|0,0:0|0:0,0:0:0:0:
54,321,9654,2,0,P|96:320|133:302,1,85,2|2,1:2|1:2,0:0:0:0:
210,134,9987,1,10,0:0:0:0:
73,218,10154,1,2,0:0:0:0:
149,50,10321,6,0,P|228:31|299:82,1,170,0|8,1:2|0:0,0:0:0:0:
323,180,10821,2,0,L|240:166,1,85,2|0,1:2|0:0,0:0:0:0:
398,107,11154,2,0,P|422:141|427:183,1,85,2|8,1:2|0:0,0:0:0:0:
387,355,11487,1,2,0:0:0:0:
387,355,11571,1,2,0:0:0:0:
387,355,11654,6,0,L|373:272,1,85,2|0,1:2|0:0,0:0:0:0:
240,166,11987,2,0,L|225:249,1,85,8|0,0:0|0:0,0:0:0:0:
62,342,12321,1,0,1:2:0:0:
140,192,12487,1,2,1:2:0:0:
209,384,12654,1,10,0:0:0:0:
46,238,12821,6,0,B|29:205|7:187|7:187|46:86,1,170,6|0,1:2|1:2,0:0:0:0:
220,17,13321,2,0,L|234:100,1,85,14|0,0:0|0:0,0:0:0:0:
315,273,13654,1,8,0:0:0:0:
176,188,13821,1,10,0:3:0:0:
134,310,13987,2,0,P|53:320|2:256,1,170,4|4,0:3|0:0,0:0:0:0:
153,14,14654,6,0,L|164:81,1,68,2|0,0:0|0:0,0:0:0:0:
256,141,14987,1,2,0:0:0:0:
256,141,15154,2,0,L|233:275,1,136,2|2,0:0|0:0,0:0:0:0:
166,355,15654,2,0,P|133:307|138:231,1,136,2|2,0:0|0:0,0:0:0:0:
233,275,16154,2,0,B|302:259|292:313|362:297,1,136,2|2,0:0|0:0,0:0:0:0:
454,248,16654,2,0,L|465:315,1,68,2|2,0:0|1:2,0:0:0:0:
476,348,16904,1,2,0:0:0:0:
476,348,16987,1,2,1:2:0:0:
395,114,17321,6,0,P|361:114|329:127,1,68,2|0,0:0|0:0,0:0:0:0:
260,199,17654,1,2,0:0:0:0:
259,199,17821,2,0,P|194:208|137:174,1,136,2|2,0:0|0:0,0:0:0:0:
51,113,18321,2,0,B|83:173|83:173|50:233,1,136,2|2,0:0|0:0,0:0:0:0:
0,324,18821,2,0,L|67:335,1,68,2|0,0:0|0:0,0:0:0:0:
153,275,19154,1,2,1:2:0:0:
261,384,19321,2,0,L|250:317,1,68,8|0,0:0|1:2,0:0:0:0:
362,155,19654,6,0,P|434:139|508:194,2,170,4|8|0,1:2|0:0|1:2,0:0:0:0:
246,289,20487,1,0,1:2:0:0:
417,243,20654,1,2,0:0:0:0:
273,101,20821,6,0,L|262:185,1,85,10|0,0:0|0:0,0:0:0:0:
364,50,21154,2,0,P|337:18|296:-1,1,85,0|8,1:2|0:0,0:0:0:0:
362,155,21487,2,0,P|401:148|438:123,1,85,0|0,0:0|1:2,0:0:0:0:
273,101,21821,1,0,1:2:0:0:
338,257,21987,2,0,L|422:267,1,85,8|0,0:0|0:0,0:0:0:0:
250,203,22321,5,2,1:2:0:0:
322,360,22487,1,2,0:0:0:0:
362,155,22654,1,10,0:0:0:0:
234,307,22821,2,0,P|162:323|88:268,1,170,2|2,0:0|1:2,0:0:0:0:
189,134,23321,1,2,0:0:0:0:
323,252,23487,6,0,L|333:336,1,85,10|0,0:0|0:0,0:0:0:0:
179,219,23821,2,0,L|189:134,1,85,2|8,1:2|0:0,0:0:0:0:
234,307,24154,1,0,0:0:0:0:
75,215,24321,1,10,0:0:0:0:
292,151,24487,1,10,0:0:0:0:
292,151,24821,1,2,0:0:0:0:
161,84,24987,6,0,L|179:219,1,136,6|0,1:2|1:2,0:0:0:0:
352,333,25654,2,0,P|338:270|276:254,1,136,2|0,1:2|1:2,0:0:0:0:
89,347,26321,2,0,P|151:367|197:322,1,136,2|0,1:2|1:2,0:0:0:0:
143,78,26987,2,0,B|120:109|85:125|85:125|123:248,1,204,2|0,1:2|0:0,0:0:0:0:
197,322,27654,6,0,B|266:306|256:360|326:344,1,136,2|0,1:2|1:2,0:0:0:0:
417,154,28321,2,0,B|399:176|379:191|379:191|400:271,1,136,0|2,1:2|1:2,0:0:0:0:
426,373,28821,1,2,0:0:0:0:
327,345,28987,2,0,B|257:329|267:383|197:367,1,136,0|0,1:2|1:2,0:0:0:0:
27,210,29654,2,0,B|48:243|84:261|84:261|205:223,1,204,2|0,1:2|0:0,0:0:0:0:
277,147,30321,6,0,P|216:117|151:131,1,136,2|0,1:2|1:2,0:0:0:0:
305,249,30987,2,0,P|360:211|381:148,1,136,2|0,1:2|1:2,0:0:0:0:
259,12,31654,2,0,L|276:146,1,136,2|0,1:2|1:2,0:0:0:0:
73,261,32321,2,0,P|25:187|109:166,1,204,2|0,1:2|0:0,0:0:0:0:
176,248,32987,6,0,P|218:251|246:241,1,68,2|2,1:2|0:0,0:0:0:0:
335,99,33321,2,0,P|314:125|305:158,1,68,2|2,1:2|0:0,0:0:0:0:
448,272,33654,1,0,1:2:0:0:
409,175,33821,1,2,0:0:0:0:
345,257,33987,1,2,1:2:0:0:
512,189,34154,1,2,0:0:0:0:
296,90,34321,6,0,L|305:158,1,68,0|8,1:2|0:3,0:0:0:0:
413,54,34654,1,8,0:0:0:0:
236,5,34821,2,0,P|196:62|214:154,1,152.999995330811,4|8,1:2|0:0,0:0:0:0:
345,257,35321,1,10,0:0:0:0:
296,90,35487,1,8,0:0:0:0:
186,251,35654,6,0,P|107:270|36:219,1,170,6|10,1:2|0:0,0:0:0:0:
229,155,36154,2,0,P|263:177|284:214,1,85,2|0,1:2|0:0,0:0:0:0:
125,167,36487,2,0,L|140:84,1,85,2|8,1:2|0:0,0:0:0:0:
186,251,36821,1,2,0:0:0:0:
0,327,36987,6,0,B|22:362|52:373|52:373|149:349,1,170,0|10,1:2|0:0,0:0:0:0:
285,215,37487,2,0,L|316:383,1,170,2|0,1:2|1:2,0:0:0:0:
186,251,37987,2,0,L|103:236,1,85,8|2,0:0|0:0,0:0:0:0:
224,128,38321,6,0,P|304:110|372:157,1,170,0|10,1:2|0:0,0:0:0:0:
483,253,38821,2,0,L|498:170,1,85,6|0,1:2|0:0,0:0:0:0:
311,242,39154,1,2,1:2:0:0:
461,354,39321,1,8,0:0:0:0:
372,157,39487,6,0,P|291:138|223:185,1,170,6|0,1:2|1:2,0:0:0:0:
125,356,39987,1,10,0:0:0:0:
44,235,40154,2,0,L|127:250,1,85,6|0,1:2|0:0,0:0:0:0:
312,329,40487,2,0,L|229:344,1,85,6|8,1:2|0:0,0:0:0:0:
331,202,40821,1,0,1:2:0:0:
404,382,40987,6,0,L|434:214,2,170,6|8|0,1:2|0:0|1:2,0:0:0:0:
312,329,41821,1,0,1:2:0:0:
512,284,41987,1,8,0:0:0:0:
341,182,42154,6,0,B|254:157|267:234|180:210,1,170,4|0,1:2|1:2,0:0:0:0:
29,102,42654,2,0,P|67:119|92:153,1,85,8|0,0:0|0:0,0:0:0:0:
75,339,42987,2,0,P|71:297|88:258,1,85,0|2,1:2|1:2,0:0:0:0:
205,109,43321,1,10,0:0:0:0:
176,315,43487,1,2,0:0:0:0:
1,202,43654,5,6,1:2:0:0:
181,210,43821,1,8,0:0:0:0:
201,214,43904,1,8,0:0:0:0:
221,221,43987,1,8,0:0:0:0:
239,233,44071,1,8,0:0:0:0:
254,247,44154,1,4,1:2:0:0:
92,153,44321,6,0,L|84:111,2,42.5,10|8|8,0:0|0:0|0:0,0:0:0:0:
185,106,44654,1,4,1:2:0:0:
0,50,44821,6,0,L|7:8,2,42.5,8|8|2,0:0|0:0|1:2,0:0:0:0:
181,210,45154,2,0,B|267:185|254:262|341:238,1,170,12|0,0:0|0:0,0:0:0:0:
426,76,45654,2,0,L|411:159,1,85,8|0,0:0|0:0,0:0:0:0:
512,334,45987,2,0,L|497:251,1,85,12|0,0:0|0:0,0:0:0:0:
309,137,46321,5,4,1:2:0:0:
415,308,46487,1,0,0:0:0:0:
512,137,46654,1,8,0:0:0:0:
340,238,46821,1,2,0:0:0:0:
512,334,46987,6,0,L|495:241,1,93.5000028533936,0|2,1:2|0:0,0:0:0:0:
427,67,47321,2,0,L|410:159,1,93.5000028533936,8|2,0:0|0:0,0:0:0:0:
200,242,47654,5,0,1:2:0:0:
327,97,47821,1,2,0:0:0:0:
384,285,47987,1,8,0:0:0:0:
234,144,48154,1,2,0:0:0:0:
172,342,48321,6,0,P|219:344|261:326,1,93.5000028533936,0|2,1:2|0:0,0:0:0:0:
127,168,48654,2,0,P|102:207|97:253,1,93.5000028533936,8|2,0:0|0:0,0:0:0:0:
315,193,48987,6,0,B|362:87|362:87|314:34,1,187.000005706787,4|8,1:2|0:0,0:0:0:0:
212,205,49487,1,2,0:0:0:0:
384,271,49654,2,0,P|411:232|417:174,1,93.5000028533936,0|2,1:2|0:0,0:0:0:0:
273,289,49987,2,0,L|289:381,1,93.5000028533936,8|2,0:0|0:0,0:0:0:0:
212,205,50321,1,0,1:2:0:0:
384,271,50487,5,2,0:0:0:0:
190,352,50654,1,8,0:0:0:0:
315,193,50821,2,0,P|394:167|477:224,1,187.000005706787,2|2,0:0|0:0,0:0:0:0:
273,289,51321,2,0,P|236:261|214:219,1,93.5000028533936,8|2,0:0|0:0,0:0:0:0:
215,192,51571,1,0,0:0:0:0:
215,192,51654,5,4,1:2:0:0:
384,271,51821,1,2,0:0:0:0:
190,352,51987,1,8,0:0:0:0:
315,193,52154,1,2,0:0:0:0:
414,372,52321,2,0,L|322:356,1,93.5000028533936,0|2,1:2|0:0,0:0:0:0:
458,196,52654,2,0,P|483:235|488:281,1,93.5000028533936,8|2,0:0|0:0,0:0:0:0:
357,169,52987,5,0,1:2:0:0:
506,104,53154,1,2,0:0:0:0:
384,271,53321,1,8,0:0:0:0:
292,88,53487,1,2,0:0:0:0:
189,276,53654,6,0,L|281:292,1,93.5000028533936,0|2,1:2|0:0,0:0:0:0:
115,201,53987,2,0,P|90:240|85:286,1,93.5000028533936,8|2,0:0|0:0,0:0:0:0:
216,174,54321,6,0,P|172:113|66:109,1,187.000005706787,4|8,1:2|0:0,0:0:0:0:
189,276,54821,1,2,0:0:0:0:
303,118,54987,2,0,L|395:102,1,93.5000028533936,0|2,1:2|0:0,0:0:0:0:
475,268,55321,2,0,L|383:252,1,93.5000028533936,8|2,0:0|0:0,0:0:0:0:
225,355,55654,6,0,B|247:323|274:301|274:301|232:193,1,187.000005706787,0|8,1:2|0:0,0:0:0:0:
168,0,56154,1,2,0:0:0:0:
38,163,56321,2,0,L|130:179,1,93.5000028533936,0|2,1:2|0:0,0:0:0:0:
276,44,56654,1,8,0:0:0:0:
100,79,56821,1,2,0:0:0:0:
232,194,56987,6,0,B|326:166|312:251|407:224,1,187.000005706787,4|8,1:2|0:0,0:0:0:0:
505,59,57487,2,0,P|419:46|379:124,1,187.000005706787,6|0,0:0|1:2,0:0:0:0:
481,298,57987,1,8,0:0:0:0:
320,211,58154,6,0,L|228:227,1,93.5000028533936,4|0,1:2|0:0,0:0:0:0:
379,124,58487,1,0,1:2:0:0:
381,327,58654,2,0,L|289:311,1,93.5000028533936,8|2,0:0|0:0,0:0:0:0:
266,343,58904,1,2,0:0:0:0:
266,343,58987,2,0,L|128:367,2,140.25000428009,10|8|8,0:0|0:0|0:0,0:0:0:0:
207,171,59654,6,0,P|182:210|178:257,1,93.5000028533936,0|0,1:2|1:2,0:0:0:0:
365,311,59987,2,0,L|336:125,1,187.000005706787,12|0,0:0|1:2,0:0:0:0:
432,3,60487,1,0,1:2:0:0:
250,67,60654,2,0,P|203:62|164:37,1,93.5000028533936,12|0,0:0|0:0,0:0:0:0:
11,180,60987,6,0,P|49:155|96:150,1,93.5000028533936,0|0,1:2|1:2,0:0:0:0:
267,283,61321,2,0,L|83:255,1,187.000005706787,12|8,0:0|0:0,0:0:0:0:
192,111,61821,6,0,L|200:157,2,46.7500014266968,8|8|0,0:0|0:0|1:2,0:0:0:0:
367,30,62154,2,0,L|359:76,1,46.7500014266968,8|8,0:0|0:0,0:0:0:0:
263,34,62321,5,4,1:2:0:0:
462,76,62487,1,2,0:0:0:0:
309,207,62654,1,8,0:0:0:0:
367,30,62821,1,2,0:0:0:0:
493,177,62987,2,0,L|401:161,1,93.5000028533936,0|2,1:2|0:0,0:0:0:0:
297,311,63321,2,0,P|343:306|382:281,1,93.5000028533936,8|2,0:0|0:0,0:0:0:0:
211,169,63654,5,0,1:2:0:0:
176,361,63821,1,2,0:0:0:0:
309,207,63987,1,8,0:0:0:0:
372,384,64154,1,2,0:0:0:0:
215,261,64321,2,0,L|123:277,1,93.5000028533936,0|2,1:2|0:0,0:0:0:0:
292,104,64654,2,0,L|384:120,1,93.5000028533936,8|2,0:0|0:0,0:0:0:0:
246,10,64987,6,0,P|190:80|210:168,1,187.000005706787,4|8,1:2|0:0,0:0:0:0:
359,247,65487,1,2,0:0:0:0:
384,87,65654,2,0,L|292:103,1,93.5000028533936,0|2,1:2|0:0,0:0:0:0:
461,162,65987,2,0,P|486:123|491:76,1,93.5000028533936,8|2,0:0|0:0,0:0:0:0:
357,191,66321,5,0,1:2:0:0:
444,254,66487,2,0,L|460:162,1,93.5000028533936,2|8,0:0|0:0,0:0:0:0:
347,298,66821,2,0,P|396:350|506:341,1,187.000005706787,2|2,0:0|0:0,0:0:0:0:
357,191,67321,2,0,P|303:200|268:226,1,93.5000028533936,8|2,0:0|0:0,0:0:0:0:
258,251,67571,1,0,0:0:0:0:
258,251,67654,5,4,1:2:0:0:
317,91,67821,1,2,0:0:0:0:
347,298,67987,1,8,0:0:0:0:
155,219,68154,1,2,0:0:0:0:
357,191,68321,6,0,L|449:175,1,93.5000028533936,0|2,1:2|0:0,0:0:0:0:
219,132,68654,2,0,L|127:116,1,93.5000028533936,8|2,0:0|0:0,0:0:0:0:
0,307,68987,5,0,1:2:0:0:
155,219,69154,1,2,0:0:0:0:
0,119,69321,1,8,0:0:0:0:
107,315,69487,1,2,0:0:0:0:
219,132,69654,6,0,L|127:116,1,93.5000028533936,0|2,1:2|0:0,0:0:0:0:
294,208,69987,2,0,P|319:168|324:122,1,93.5000028533936,8|2,0:0|0:0,0:0:0:0:
191,236,70321,6,0,P|250:226|341:314,1,187.000005706787,4|8,1:2|0:0,0:0:0:0:
501,168,70821,1,2,0:0:0:0:
511,274,70987,2,0,P|465:268|426:244,1,93.5000028533936,0|2,1:2|0:0,0:0:0:0:
381,52,71321,2,0,P|399:94|398:141,1,93.5000028533936,8|2,0:0|0:0,0:0:0:0:
205,222,71654,6,0,P|210:134|296:115,1,187.000005706787,0|8,1:2|0:0,0:0:0:0:
426,244,72154,1,2,0:0:0:0:
296,314,72321,2,0,L|312:222,1,93.5000028533936,0|2,1:2|0:0,0:0:0:0:
489,331,72654,2,0,P|446:349|400:347,1,93.5000028533936,8|2,0:0|0:0,0:0:0:0:
211,187,72987,6,0,L|395:154,1,187.000005706787,4|8,1:2|0:0,0:0:0:0:
248,87,73487,2,0,P|148:100|106:174,1,187.000005706787,2|2,0:0|0:0,0:0:0:0:
227,279,73987,2,0,L|211:187,1,93.5000028533936,8|2,0:0|0:0,0:0:0:0:
77,350,74321,6,0,B|171:322|157:407|252:380,1,187.000005706787,4|8,1:2|0:0,0:0:0:0:
388,216,74821,1,2,0:0:0:0:
418,319,74987,2,0,L|326:303,1,93.5000028533936,0|2,1:2|0:0,0:0:0:0:
474,153,75321,2,0,P|492:196|490:243,1,93.5000028533936,8|2,0:0|0:0,0:0:0:0:
327,128,75654,6,0,P|238:111|170:171,1,187.000005706787,4|8,1:2|0:0,0:0:0:0:
87,364,76154,2,0,L|71:272,1,93.5000028533936,6|0,1:2|0:0,0:0:0:0:
268,215,76487,2,0,L|252:307,1,93.5000028533936,4|8,1:2|0:0,0:0:0:0:
161,137,76821,6,0,B|189:121|209:94|209:94|330:128,1,187.000005706787,4|0,1:2|1:2,0:0:0:0:
491,20,77321,2,0,P|450:42|422:79,1,93.5000028533936,12|0,0:2|0:0,0:0:0:0:
431,275,77654,2,0,P|433:228|416:186,1,93.5000028533936,4|8,1:2|0:0,0:0:0:0:
384,170,77904,1,8,0:0:0:0:
384,170,77987,2,0,L|338:161,3,46.7500014266968,8|8|4|4,0:3|0:3|0:3|0:3,0:0:0:0:
312,139,78321,6,0,L|220:155,1,93.5000028533936,4|0,1:2|0:0,0:0:0:0:
103,51,78654,1,8,0:0:0:0:
43,216,78821,2,0,P|84:194|112:157,1,93.5000028533936,2|0,0:0|1:2,0:0:0:0:
0,22,79154,2,0,P|-1:68|15:111,1,93.5000028533936,2|8,0:0|0:0,0:0:0:0:
200,96,79487,6,0,B|294:68|280:153|375:126,1,187.000005706787,2|2,0:0|0:0,0:0:0:0:
493,1,79987,2,0,L|477:93,1,93.5000028533936,8|2,0:0|0:0,0:0:0:0:
512,244,80321,1,0,1:2:0:0:
375,125,80487,2,0,P|328:123|285:140,1,93.5000028533936,2|8,0:0|0:0,0:0:0:0:
171,272,80821,1,2,0:0:0:0:
348,382,80987,6,0,B|369:350|397:334|397:334|348:228,1,187.000005706787,4|8,1:2|0:0,0:0:0:0:
199,78,81487,2,0,L|183:170,1,93.5000028533936,2|0,0:0|1:2,0:0:0:0:
389,112,81821,2,0,L|373:20,1,93.5000028533936,2|8,0:0|0:0,0:0:0:0:
286,141,82154,1,2,0:0:0:0:
449,200,82321,6,0,P|481:165|494:121,1,93.5000028533936,0|8,1:2|0:0,0:0:0:0:
491,83,82571,1,8,0:0:0:0:
491,83,82654,2,0,L|483:36,3,46.7500014266968,8|8|8|8,0:0|0:0|0:0|0:0,0:0:0:0:
476,2,82987,5,12,0:0:0:0:
286,141,83154,1,0,1:2:0:0:
102,64,83487,5,8,0:0:0:0:
102,64,83571,1,8,0:0:0:0:
102,64,83654,2,0,P|123:100|125:142,1,85,6|0,1:2|0:0,0:0:0:0:
17,292,83988,2,0,P|39:255|74:232,1,85,8|0,0:0|0:0,0:0:0:0:
258,251,84321,2,0,P|216:250|179:232,1,85,0|2,1:2|1:2,0:0:0:0:
341,184,84654,1,10,0:0:0:0:
301,349,84821,1,2,0:0:0:0:
242,145,84987,6,0,P|280:96|382:85,1,170,0|8,1:2|0:0,0:0:0:0:
469,27,85487,2,0,L|483:110,1,85,2|0,1:2|0:0,0:0:0:0:
395,272,85821,2,0,L|410:189,1,85,2|8,1:2|0:0,0:0:0:0:
459,359,86154,1,2,0:0:0:0:
459,359,86237,1,2,0:0:0:0:
459,359,86321,6,0,P|421:377|379:378,1,85,2|0,1:2|0:0,0:0:0:0:
238,251,86654,2,0,P|274:275|296:311,1,85,8|0,0:0|0:0,0:0:0:0:
134,266,86987,1,0,1:2:0:0:
254,149,87154,1,2,1:2:0:0:
198,351,87321,1,10,0:0:0:0:
338,215,87487,6,0,L|508:244,1,170,6|0,1:2|1:2,0:0:0:0:
382,112,87987,1,14,0:0:0:0:
505,48,88154,2,0,L|512:89,2,42.5,8|8|4,0:3|0:3|0:3,0:0:0:0:
312,32,88487,5,10,0:0:0:0:
461,183,88654,1,10,0:0:0:0:
243,234,88821,1,14,0:0:0:0:
