osu file format v14

[General]
AudioFilename: Selector_Infected_Wixoss_-_Opening_(killy_killy_JOKER)_FULL_Lyrics.mp3
AudioLeadIn: 0
PreviewTime: 209537
Countdown: 1
SampleSet: Soft
StackLeniency: 0.3
Mode: 0
LetterboxInBreaks: 1
WidescreenStoryboard: 0

[Editor]
DistanceSpacing: 0.5
BeatDivisor: 4
GridSize: 4
TimelineZoom: 2.000006

[Metadata]
Title:killy killy JOKER
TitleUnicode:killy killy JOKER
Artist:Wakeshima Kanon
ArtistUnicode:Wakeshima Kanon
Creator:P A N
Version:eXtra
Source:Selector Infected Wixoss
Tags:
BeatmapID:629665
BeatmapSetID:277901

[Difficulty]
HPDrainRate:7
CircleSize:4.1
OverallDifficulty:8
ApproachRate:9.3
SliderMultiplier:2
SliderTickRate:1

[Events]
//Background and Video events
0,0,"Ruu.jpg",0,0
//Break Periods
//Storyboard Layer 0 (Background)
//Storyboard Layer 1 (Fail)
//Storyboard Layer 2 (Pass)
//Storyboard Layer 3 (Foreground)
//Storyboard Layer 4 (Overlay)
//Storyboard Sound Samples

[TimingPoints]
956,333.333333333333,4,2,1,60,1,0
956,-200,4,2,1,60,0,0
1539,-200,4,2,1,5,0,0
1622,-166.666666666667,4,2,1,60,0,0
1872,-166.666666666667,4,2,1,5,0,0
1955,-142.857142857143,4,2,1,60,0,0
2205,-142.857142857143,4,2,1,5,0,0
2289,-125,4,2,1,60,0,0
2539,-125,4,2,1,5,0,0
2622,-200,4,2,1,60,0,0
2872,-200,4,2,1,5,0,0
2955,-142.857142857143,4,2,1,60,0,0
3205,-142.857142857143,4,2,1,5,0,0
3289,-166.666666666667,4,2,1,60,0,0
3539,-166.666666666667,4,2,1,5,0,0
3622,-200,4,2,1,60,0,0
3872,-200,4,2,1,5,0,0
3955,-166.666666666667,4,2,1,60,0,0
4205,-166.666666666667,4,2,1,5,0,0
4289,-142.857142857143,4,2,1,60,0,0
4539,-142.857142857143,4,2,1,5,0,0
4622,-166.666666666667,4,2,1,60,0,0
4872,-166.666666666667,4,2,1,5,0,0
4955,-200,4,2,1,60,0,0
5205,-200,4,2,1,5,0,0
5289,-166.666666666667,4,2,1,60,0,0
5539,-166.666666666667,4,2,1,5,0,0
5622,-142.857142857143,4,2,1,60,0,0
6205,-142.857142857143,4,2,1,5,0,0
6289,-166.666666666667,4,2,1,60,0,0
6872,-166.666666666667,4,2,1,5,0,0
6955,-142.857142857143,4,2,1,60,0,0
7539,-142.857142857143,4,2,1,5,0,0
7622,-125,4,2,1,60,0,0
8205,-125,4,2,1,5,0,0
8289,-142.857142857143,4,2,1,60,0,0
8539,-142.857142857143,4,2,1,5,0,0
8622,-166.666666666667,4,2,1,60,0,0
8872,-166.666666666667,4,2,1,5,0,0
8955,-125,4,2,1,60,0,0
9622,333.333333333333,4,2,1,60,1,0
22955,-133.333333333333,4,2,2,60,0,0
28288,-100,4,2,1,70,0,0
33622,-133.333333333333,4,2,2,60,0,0
38955,-100,4,2,1,70,0,0
44288,-133.333333333333,4,2,2,60,0,0
54955,-100,4,2,1,70,0,0
65622,-100,4,2,1,80,0,1
70622,-100,4,2,1,80,0,0
70955,-100,4,2,1,80,0,1
76288,-100,4,2,1,80,0,0
81622,-100,4,2,1,80,0,1
86622,-100,4,2,1,80,0,0
86955,-100,4,2,1,80,0,1
92288,-100,4,2,1,80,0,0
113622,-100,4,2,1,80,0,1
114538,-100,4,2,1,5,0,1
114622,-100,4,2,1,80,0,1
115538,-100,4,2,1,5,0,1
115622,-100,4,2,1,80,0,1
115872,-100,4,2,1,5,0,1
115955,-100,4,2,1,80,0,1
116205,-100,4,2,1,5,0,1
116288,-100,4,2,1,80,0,1
116872,-100,4,2,1,5,0,1
116955,-100,4,2,1,80,0,1
118288,-90.9090909090909,4,2,1,80,0,1
118372,-90.9090909090909,4,2,1,5,0,1
118455,-71.4285714285714,4,2,1,80,0,1
118538,-71.4285714285714,4,2,1,5,0,1
118622,-58.8235294117647,4,2,1,80,0,1
118705,-58.8235294117647,4,2,1,5,0,1
118788,-50,4,2,1,80,0,1
118872,-50,4,2,1,5,0,1
118955,-100,4,2,1,80,0,1
119872,-100,4,2,1,5,0,1
119955,-100,4,2,1,80,0,1
120872,-100,4,2,1,5,0,1
120955,-100,4,2,1,80,0,1
121205,-100,4,2,1,5,0,1
121288,-100,4,2,1,80,0,1
123622,-58.8235294117647,4,2,1,80,0,1
123705,-58.8235294117647,4,2,1,5,0,1
123788,-71.4285714285714,4,2,1,80,0,1
123872,-71.4285714285714,4,2,1,5,0,1
123955,-90.9090909090909,4,2,1,80,0,1
124038,-90.9090909090909,4,2,1,5,0,1
124122,-90.9090909090909,4,2,1,80,0,1
126205,-90.9090909090909,4,2,1,5,0,1
126288,-90.9090909090909,4,2,1,80,0,1
126538,-90.9090909090909,4,2,1,5,0,1
126622,-90.9090909090909,4,2,1,80,0,1
126705,-90.9090909090909,4,2,1,5,0,1
126788,-90.9090909090909,4,2,1,80,0,1
126872,-90.9090909090909,4,2,1,5,0,1
126955,-100,4,2,1,80,0,1
127372,-100,4,2,1,5,0,1
127455,-100,4,2,1,80,0,1
136622,-117.647058823529,4,2,1,80,0,1
136705,-117.647058823529,4,2,1,5,0,1
136788,-133.333333333333,4,2,1,80,0,1
136872,-133.333333333333,4,2,1,5,0,1
136955,-100,4,2,1,80,0,1
137038,-100,4,2,1,5,0,1
137122,-133.333333333333,4,2,1,80,0,1
137205,-133.333333333333,4,2,1,5,0,1
137288,-86.9565217391304,4,2,1,80,0,1
137372,-86.9565217391304,4,2,1,5,0,1
137455,-133.333333333333,4,2,1,80,0,1
137538,-133.333333333333,4,2,1,5,0,1
137622,-100,4,2,1,80,0,1
138038,-100,4,2,1,5,0,1
138122,-100,4,2,1,80,0,1
138538,-100,4,2,1,5,0,1
138622,-100,4,2,1,80,0,1
138705,-100,4,2,1,5,0,1
138788,-100,4,2,1,80,0,1
139122,-83.3333333333333,4,2,1,80,0,1
139205,-83.3333333333333,4,2,1,5,0,1
139288,-90.9090909090909,4,2,1,80,0,1
139372,-90.9090909090909,4,2,1,5,0,1
139455,-100,4,2,1,80,0,1
139538,-100,4,2,1,5,0,1
139622,-111.111111111111,4,2,1,80,0,1
139705,-111.111111111111,4,2,1,5,0,1
139788,-125,4,2,1,80,0,1
139872,-125,4,2,1,5,0,1
139955,-142.857142857143,4,2,1,80,0,1
140038,-142.857142857143,4,2,1,5,0,1
140122,-166.666666666667,4,2,1,80,0,1
140205,-166.666666666667,4,2,1,5,0,1
140288,-200,4,2,1,80,0,1
140372,-200,4,2,1,5,0,1
140455,-125,4,2,1,80,0,1
140538,-125,4,2,1,5,0,1
140622,-142.857142857143,4,2,1,80,0,1
140705,-142.857142857143,4,2,1,5,0,1
140788,-100,4,2,1,80,0,1
141955,-111.111111111111,4,2,1,80,0,1
142038,-111.111111111111,4,2,1,5,0,1
142122,-125,4,2,1,80,0,1
142205,-125,4,2,1,5,0,1
142288,-142.857142857143,4,2,1,80,0,1
142372,-142.857142857143,4,2,1,5,0,1
142455,-125,4,2,1,80,0,1
142538,-125,4,2,1,5,0,1
142622,-111.111111111111,4,2,1,80,0,1
142705,-111.111111111111,4,2,1,5,0,1
142788,-100,4,2,1,80,0,1
144122,-80,4,2,1,80,0,1
144788,-57.1428571428571,4,2,1,80,0,1
145288,-40,4,2,1,80,0,1
145622,-57.1428571428571,4,2,1,80,0,0
145955,-133.333333333333,4,2,1,70,0,0
147788,-133.333333333333,4,2,1,30,0,0
148288,-133.333333333333,4,2,1,70,0,0
150455,-133.333333333333,4,2,1,30,0,0
150955,-133.333333333333,4,2,1,70,0,0
153288,-133.333333333333,4,2,1,30,0,0
153622,-133.333333333333,4,2,1,70,0,0
155955,-133.333333333333,4,2,1,30,0,0
156288,-133.333333333333,4,2,1,70,0,0
176455,-133.333333333333,4,2,2,70,0,0
177622,-100,4,2,1,70,0,0
187288,-100,4,2,2,70,0,0
188288,-133.333333333333,4,2,2,60,0,0
204288,-133.333333333333,4,2,1,30,0,0
205622,-133.333333333333,4,2,1,50,0,0
206955,-100,4,2,1,60,0,0
207788,-100,4,2,2,60,0,0
207955,-100,4,2,1,60,0,0
209122,-50,4,2,1,60,0,0
209288,-133.333333333333,4,2,1,60,0,0
209622,-100,4,2,1,80,0,1
214622,-100,4,2,1,80,0,0
214955,-100,4,2,1,80,0,1
220288,-100,4,2,1,80,0,0
225622,-100,4,2,1,80,0,1
230622,-100,4,2,1,80,0,0
230955,-100,4,2,1,80,0,1
236288,-100,4,2,1,70,0,0
246288,-133.333333333333,4,2,3,70,0,0
247955,-133.333333333333,4,2,1,70,0,0
248288,-100,4,2,1,70,0,0
258622,-66.6666666666667,4,2,1,70,0,0
258955,-100,4,2,1,70,0,0
260205,-100,4,2,1,5,0,0
260288,-100,4,2,1,70,0,0
260705,-100,4,2,1,5,0,0
260788,-100,4,2,1,70,0,0
261205,-100,4,2,1,5,0,0
261288,-100,4,2,1,70,0,0
261538,-100,4,2,1,5,0,0
261622,-100,4,2,1,70,0,0
263205,-100,4,2,1,5,0,0
263288,-125,4,2,1,70,0,0
263538,-125,4,2,1,5,0,0
263622,-153.846153846154,4,2,1,70,0,0
263872,-153.846153846154,4,2,1,5,0,0
263955,-200,4,2,1,70,0,0
264205,-200,4,2,1,5,0,0
264288,-100,4,2,1,70,0,0
266205,-100,4,2,1,5,0,0
266288,-100,4,2,1,70,0,0
266872,-100,4,2,1,5,0,0
266955,-100,4,2,1,70,0,0
270872,-100,4,2,1,5,0,0

[Colours]
Combo1 : 0,128,255
Combo2 : 255,255,255
Combo3 : 255,255,128
Combo4 : 128,255,128

[HitObjects]
407,54,956,6,0,P|459:120|385:158,1,175
325,132,1622,6,0,P|277:123|236:133,1,89.9999972534181
188,197,1955,6,0,B|192:229|192:229|184:251|184:251|194:280|190:311,1,104.999996795654
113,304,2289,6,0,B|101:248|101:248|113:211|113:211|109:185,1,120
63,117,2622,6,0,B|55:80|55:80|61:39,1,75
139,77,2955,6,0,B|175:70|175:70|214:78|214:78|259:72,1,104.999996795654
317,35,3289,6,0,L|412:42,1,89.9999972534181
470,101,3622,6,0,P|477:140|470:181,1,75
420,242,3955,6,0,L|329:233,1,89.9999972534181
257,195,4289,6,0,P|243:144|262:91,1,104.999996795654
317,35,4622,6,0,L|222:32,1,89.9999972534181
157,78,4955,6,0,P|119:86|70:75,1,75
12,42,5289,6,0,B|-1:87|-1:87|20:143,1,89.9999972534181
62,197,5622,6,0,P|126:201|128:354,1,244.999992523194
94,278,6289,6,0,P|172:229|276:283,1,209.999993591309
330,339,6955,6,0,P|396:346|478:202,1,244.999992523194
437,135,7622,6,0,B|368:111|305:135|305:135|246:157|159:138,1,280
97,91,8289,6,0,P|80:144|99:190,1,104.999996795654
169,231,8622,6,0,P|214:240|267:235,1,89.9999972534181
339,218,8955,6,0,P|391:225|394:380,1,240
357,301,9622,5,0,0:0:0:0:
169,231,9899,2,0,L|88:240,2,66.6666666666667
430,71,10789,5,2,0:0:0:0:
294,75,10955,1,2,0:0:0:0:
398,162,11122,1,0,0:0:0:0:
423,181,11205,1,0,0:0:0:0:
448,201,11289,1,0,0:0:0:0:
359,23,11455,1,2,0:0:0:0:
285,200,11622,1,8,0:0:0:0:
448,201,11789,1,2,0:0:0:0:
316,294,11955,1,0,0:0:0:0:
271,314,12039,1,0,0:0:0:0:
222,322,12122,1,0,0:0:0:0:
170,317,12205,1,0,0:0:0:0:
125,293,12289,6,0,P|102:240|127:144,1,150,6|0,0:0|0:0,0:0:0:0:
181,93,12622,1,8,0:0:0:0:
337,106,12789,1,0,0:0:0:0:
337,106,12872,1,0,0:0:0:0:
337,106,12955,1,2,0:0:0:0:
448,201,13122,1,0,0:0:0:0:
442,343,13288,1,8,0:0:0:0:
354,197,13455,1,0,0:0:0:0:
354,197,13538,1,0,0:0:0:0:
354,197,13622,6,0,B|305:183|266:198|266:198|239:184|239:184|203:197,1,150,2|0,0:0|0:0,0:0:0:0:
128,196,13955,1,8,0:0:0:0:
334,26,14122,1,6,0:0:0:0:
448,201,14288,1,0,0:0:0:0:
261,99,14455,1,2,0:0:0:0:
475,102,14622,1,8,0:0:0:0:
369,288,14788,1,0,0:0:0:0:
369,288,14872,1,0,0:0:0:0:
369,288,14955,6,0,B|323:300|295:285|295:285|311:318|293:368,1,150,2|0,0:0|0:0,0:0:0:0:
221,323,15288,2,0,P|212:274|242:218,1,100,8|0,0:0|0:0,0:0:0:0:
363,129,15622,1,2,0:0:0:0:
233,27,15788,1,0,0:0:0:0:
193,21,15872,1,0,0:0:0:0:
153,17,15955,1,8,0:0:0:0:
113,23,16038,1,0,0:0:0:0:
73,31,16122,6,0,B|61:71|72:98|72:98|66:117|66:117|76:134|76:134|72:158|72:158|72:191,1,150,6|0,0:0|0:0,0:0:0:0:
75,255,16455,1,2,0:0:0:0:
226,109,16622,1,8,0:0:0:0:
221,324,16788,1,0,0:0:0:0:
221,324,16872,1,0,0:0:0:0:
221,324,16955,1,2,0:0:0:0:
149,123,17122,1,0,0:0:0:0:
345,46,17288,2,0,P|403:51|452:135,1,150,8|0,0:0|0:0,0:0:0:0:
451,201,17622,6,0,B|441:251|454:277|454:277|466:309|450:363,1,150,6|0,0:0|0:0,0:0:0:0:
378,311,17955,1,8,0:0:0:0:
452,122,18122,1,0,0:0:0:0:
294,276,18288,1,2,0:0:0:0:
291,94,18455,1,0,0:0:0:0:
221,324,18622,1,8,0:0:0:0:
149,123,18788,1,0,0:0:0:0:
149,123,18872,1,0,0:0:0:0:
149,123,18955,5,2,0:0:0:0:
350,208,19122,1,0,0:0:0:0:
144,238,19288,1,8,0:0:0:0:
291,94,19455,1,2,0:0:0:0:
141,32,19622,1,0,0:0:0:0:
18,145,19788,1,2,0:0:0:0:
85,294,19955,1,8,0:0:0:0:
259,284,20122,1,0,0:0:0:0:
259,284,20205,1,0,0:0:0:0:
259,284,20288,6,0,B|308:280|308:280|357:305|412:274,1,150,2|0,0:0|0:0,0:0:0:0:
465,218,20622,2,0,L|460:107,1,100,8|0,0:0|0:0,0:0:0:0:
287,14,20955,1,2,0:0:0:0:
350,208,21122,1,0,0:0:0:0:
350,208,21205,1,0,0:0:0:0:
350,208,21288,1,8,0:0:0:0:
198,368,21455,6,0,P|131:358|84:286,1,150,6|0,0:0|0:0,0:0:0:0:
74,207,21788,1,2,0:0:0:0:
259,284,21955,2,0,B|305:275|305:275|355:290|355:290|415:284,1,150,8|0,0:0|0:0,0:0:0:0:
465,218,22288,1,8,0:0:0:0:
306,358,22455,1,2,0:0:0:0:
306,358,22538,1,2,0:0:0:0:
306,358,22622,1,2,0:0:0:0:
98,310,22788,1,2,0:0:0:0:
53,112,22955,5,6,0:0:0:0:
220,46,23288,2,0,B|261:32|300:47|300:47|333:56|381:44,1,150.000005722046,8|0,0:0|0:0,0:0:0:0:
457,54,23788,2,0,P|451:95|458:138,1,75.0000028610231,0|8,0:0|0:0,0:0:0:0:
465,218,24122,1,0,0:0:0:0:
383,181,24288,6,0,B|343:183|343:183|314:178|314:178|276:188|230:179,1,150.000005722046,0|8,0:0|0:0,0:0:0:0:
151,142,24788,2,0,P|143:174|156:226,1,75.0000028610231
204,287,25122,2,0,P|211:323|203:359,1,75.0000028610231,0|8,0:0|0:0,0:0:0:0:
71,242,25455,1,2,0:0:0:0:
234,180,25622,5,2,0:0:0:0:
234,180,25955,1,8,0:0:0:0:
309,229,26122,1,0,0:0:0:0:
384,181,26288,1,0,0:0:0:0:
354,95,26455,1,0,0:0:0:0:
263,96,26622,1,8,0:0:0:0:
234,180,26788,1,0,0:0:0:0:
151,215,26955,6,0,P|98:222|19:164,1,150.000005722046,0|8,0:0|0:0,0:0:0:0:
50,84,27455,2,0,P|55:49|47:8,1,75.0000028610231
191,27,27788,1,2,0:0:0:0:
106,141,27955,1,0,0:3:0:0:
191,27,28122,1,2,0:0:0:0:
106,141,28288,6,0,L|119:308,1,150,4|0,0:0|0:0,0:0:0:0:
170,355,28622,2,0,P|219:363|277:348,1,100,8|0,0:0|0:0,0:0:0:0:
310,207,28955,1,2,0:0:0:0:
444,274,29122,2,0,P|456:318|443:377,1,100,2|0,0:0|0:0,0:0:0:0:
310,207,29455,2,0,P|298:163|311:104,1,100,8|0,0:0|0:0,0:0:0:0:
272,282,29788,5,2,0:0:0:0:
385,156,29955,1,8,0:0:0:0:
366,322,30122,1,0,0:0:0:0:
364,346,30205,1,0,0:0:0:0:
363,370,30288,1,2,0:0:0:0:
512,334,30455,1,2,0:0:0:0:
476,175,30622,1,8,0:0:0:0:
310,207,30788,1,0,0:0:0:0:
310,207,30872,1,0,0:0:0:0:
310,207,30955,6,0,B|263:193|230:210|230:210|209:200|209:200|183:206|183:206|157:206,1,150,2|0,0:0|0:0,0:0:0:0:
101,151,31288,2,0,P|90:106|101:51,1,100,8|0,0:0|0:0,0:0:0:0:
50,222,31622,1,2,0:0:0:0:
172,103,31788,2,0,P|219:93|276:106,1,100,2|0,0:0|0:0,0:0:0:0:
273,282,32122,2,0,P|226:292|169:279,1,100,8|0,0:0|0:0,0:0:0:0:
16,145,32455,5,2,0:0:0:0:
64,338,32622,1,8,0:0:0:0:
64,338,32788,1,0,0:0:0:0:
165,204,32955,1,2,0:0:0:0:
0,284,33122,1,2,0:0:0:0:
163,362,33288,2,0,B|193:352|217:359|217:359|236:354|236:354|268:371|317:357,1,150,8|0,0:0|0:0,0:0:0:0:
392,356,33622,5,6,0:0:0:0:
472,198,33955,2,0,P|490:133|466:55,1,150.000005722046,8|0,0:0|0:0,0:0:0:0:
381,25,34455,2,0,L|305:30,1,75.0000028610231,0|8,0:0|0:0,0:0:0:0:
232,82,34788,1,0,0:0:0:0:
309,127,34955,6,0,P|328:176|303:279,1,150.000005722046,0|8,0:0|0:0,0:0:0:0:
241,328,35455,2,0,B|219:333|205:328|205:328|188:332|188:332|157:326,1,75.0000028610231
102,264,35788,1,2,0:0:0:0:
61,344,35955,1,8,0:0:0:0:
34,165,36288,5,2,0:0:0:0:
218,151,36622,2,0,B|275:147|275:147|317:157|317:157|377:150,1,150.000005722046,8|0,0:0|0:0,0:0:0:0:
437,207,37122,2,0,P|445:239|438:283,1,75.0000028610231,0|8,0:0|0:0,0:0:0:0:
378,347,37455,1,0,0:0:0:0:
314,283,37622,6,0,B|276:274|241:285|241:285|204:297|161:279,1,150.000005722046,0|8,0:0|0:0,0:0:0:0:
104,216,38122,1,0,0:0:0:0:
44,282,38288,1,0,0:0:0:0:
90,131,38455,1,8,0:3:0:0:
90,131,38538,1,8,0:3:0:0:
90,131,38622,2,0,P|102:74|81:15,1,112.500004291535,8|0,0:3|0:0,0:0:0:0:
22,79,38955,6,0,L|182:75,1,150,6|0,0:0|0:0,0:0:0:0:
255,73,39288,1,8,0:0:0:0:
255,73,39622,1,2,0:0:0:0:
269,224,39788,1,2,0:0:0:0:
359,96,39955,1,0,0:0:0:0:
349,255,40122,6,0,P|300:301|187:243,1,200,8|2,0:0|0:0,0:0:0:0:
336,174,40622,2,0,P|385:179|428:218,1,100,8|0,0:0|0:0,0:0:0:0:
439,246,40872,1,0,0:0:0:0:
433,285,40955,1,2,0:0:0:0:
441,120,41122,1,2,0:0:0:0:
349,255,41288,1,8,0:0:0:0:
349,255,41622,5,2,0:0:0:0:
281,366,41788,1,2,0:0:0:0:
227,248,41955,2,0,B|177:227|130:249|130:249|80:270|25:250,1,200,8|2,0:0|0:0,0:0:0:0:
170,150,42455,1,2,0:0:0:0:
180,323,42622,1,0,0:0:0:0:
79,172,42788,6,0,P|87:106|217:77,1,200,8|2,0:0|0:0,0:0:0:0:
325,158,43288,2,0,B|357:165|383:156|383:156|406:161|406:161|428:156,1,100,8|0,0:0|0:0,0:0:0:0:
303,54,43622,1,8,0:0:0:0:
228,248,43788,1,6,0:0:0:0:
228,248,44122,1,2,0:0:0:0:
332,300,44288,6,0,P|400:320|477:293,1,150.000005722046,6|2,0:0|0:0,0:0:0:0:
238,162,44955,2,0,P|170:142|93:169,1,150.000005722046,2|2,0:0|0:0,0:0:0:0:
92,180,45622,6,0,L|94:99,1,75.0000028610231,2|0,0:0|0:0,0:0:0:0:
11,211,45955,2,0,L|21:289,1,75.0000028610231,2|0,0:0|0:0,0:0:0:0:
155,332,46288,2,0,B|194:339|225:331|225:331|246:340|246:340|266:332|266:332|308:342|349:330|349:330|360:334|360:334|383:331,1,225.000008583069,2|0,0:0|3:0,0:0:0:0:
435,265,46955,6,0,P|452:186|431:118,2,150.000005722046,2|2|2,0:0|0:0|0:0,0:0:0:0:
268,195,47955,2,0,P|231:201|183:192,1,75.0000028610231,2|0,0:0|0:0,0:0:0:0:
127,134,48288,5,2,0:0:0:0:
127,134,48455,1,0,0:0:0:0:
64,199,48622,2,0,P|50:255|72:314,1,112.500004291535,2|0,0:0|0:0,0:0:0:0:
102,332,48955,2,0,B|167:349|216:333|216:333|268:317|326:340,1,225.000008583069,0|0,0:0|3:0,0:0:0:0:
375,265,49622,6,0,P|395:191|371:122,1,150.000005722046,2|2,0:0|0:0,0:0:0:0:
205,57,50288,2,0,L|123:64,1,75.0000028610231,2|0,0:0|0:0,0:0:0:0:
65,126,50622,2,0,P|58:162|65:202,1,75.0000028610231,2|0,0:0|0:0,0:0:0:0:
147,166,50955,6,0,B|182:149|214:162|214:162|236:157|236:157|256:162|256:162|306:163,1,150.000005722046,2|2,0:0|0:0,0:0:0:0:
454,244,51622,2,0,P|461:286|454:324,1,75.0000028610231,2|0,0:0|0:0,0:0:0:0:
386,374,51955,1,2,0:0:0:0:
386,374,52288,5,4,0:3:0:0:
378,284,52455,1,0,0:0:0:0:
307,227,52622,1,4,0:3:0:0:
236,282,52788,1,0,0:0:0:0:
230,372,52955,1,4,0:3:0:0:
307,323,53122,5,0,0:0:0:0:
307,227,53288,1,4,0:3:0:0:
223,194,53455,1,2,0:0:0:0:
156,255,53622,5,4,0:3:0:0:
227,103,53788,1,8,0:3:0:0:
380,179,53955,1,8,0:3:0:0:
307,323,54122,1,6,0:0:0:0:
305,138,54288,1,0,0:0:0:0:
156,255,54455,5,4,0:3:0:0:
37,108,54622,1,4,0:3:0:0:
197,4,54788,1,4,0:3:0:0:
305,138,54955,6,0,B|363:155|406:135|406:135|430:179|410:235,1,200,6|8,0:0|0:0,0:0:0:0:
307,323,55455,2,0,B|208:322|208:322|158:352|94:322,1,200,2|2,0:0|0:0,0:0:0:0:
139,129,55955,1,8,0:0:0:0:
16,296,56122,1,0,0:0:0:0:
37,108,56288,6,0,P|86:42|205:53,1,200,2|8,0:0|0:0,0:0:0:0:
261,219,56788,1,2,0:0:0:0:
352,59,56955,1,0,0:0:0:0:
350,237,57122,1,2,0:0:0:0:
486,141,57288,1,8,0:0:0:0:
383,319,57455,1,0,0:0:0:0:
383,319,57538,1,0,0:0:0:0:
383,319,57622,6,0,P|318:349|192:321,1,200,2|8,0:0|0:0,0:0:0:0:
251,134,58122,2,0,L|410:141,1,150,4|0,0:0|0:0,0:0:0:0:
486,141,58455,1,2,0:0:0:0:
350,237,58622,1,8,0:0:0:0:
189,222,58788,6,0,P|153:161|204:39,1,200,6|2,0:0|0:0,0:0:0:0:
270,231,59288,1,8,0:0:0:0:
68,214,59455,1,6,0:0:0:0:
68,214,59788,1,6,0:0:0:0:
251,134,59955,1,8,0:0:0:0:
125,280,60122,1,0,0:0:0:0:
39,110,60288,6,0,P|87:82|178:97,1,150,6|0,0:0|0:0,0:0:0:0:
251,134,60622,2,0,P|299:144|349:133,1,100,8|0,0:0|0:0,0:0:0:0:
484,27,60955,1,2,0:0:0:0:
496,249,61122,1,2,0:0:0:0:
420,85,61288,1,8,0:0:0:0:
416,288,61455,6,0,B|376:298|351:288|351:288|330:301|330:301|309:288|309:288|273:300|225:291,1,200,6|2,0:0|0:0,0:0:0:0:
166,125,61955,2,0,P|191:74|321:88,1,200,8|2,0:0|0:0,0:0:0:0:
107,34,62455,1,2,0:0:0:0:
251,134,62622,1,8,0:0:0:0:
109,237,62788,1,0,0:0:0:0:
282,257,62955,5,6,0:0:0:0:
109,237,63122,1,8,0:0:0:0:
84,233,63205,1,8,0:0:0:0:
59,230,63288,1,8,0:0:0:0:
33,227,63372,1,8,0:0:0:0:
8,223,63455,1,12,0:0:0:0:
251,134,63622,1,8,0:0:0:0:
274,127,63705,1,8,0:0:0:0:
297,120,63788,1,8,0:0:0:0:
73,146,63955,1,12,0:0:0:0:
282,257,64122,1,8,0:0:0:0:
304,267,64205,1,8,0:0:0:0:
326,277,64288,5,8,0:0:0:0:
74,330,64455,2,0,P|41:262|80:139,1,200,6|0,0:0|0:0,0:0:0:0:
265,29,64955,2,0,B|306:38|336:27|336:27|357:35|357:35|377:26|377:26|420:26,1,150,8|0,0:0|0:0,0:0:0:0:
398,106,65288,2,0,B|404:133|404:133|397:154|397:154|417:188|399:264,1,150,8|0,0:0|0:0,0:0:0:0:
403,333,65622,5,6,0:0:0:0:
193,281,65788,1,8,0:3:0:0:
316,142,65955,1,8,0:0:0:0:
253,343,66122,1,8,0:3:0:0:
110,193,66288,1,2,0:0:0:0:
282,257,66455,1,8,0:3:0:0:
111,371,66622,1,8,0:0:0:0:
219,196,66788,1,8,0:3:0:0:
403,333,66955,5,2,0:0:0:0:
316,142,67122,1,8,0:3:0:0:
506,256,67288,1,8,0:0:0:0:
282,257,67455,1,8,0:3:0:0:
460,128,67622,1,2,0:0:0:0:
403,333,67788,1,8,0:3:0:0:
316,142,67955,1,8,0:0:0:0:
253,343,68122,1,8,0:3:0:0:
110,193,68288,6,0,P|73:120|121:6,1,200,6|8,0:0|0:0,0:0:0:0:
0,131,68788,1,8,0:3:0:0:
70,278,68955,2,0,P|121:289|171:266,1,100,2|8,0:0|0:3,0:0:0:0:
4,226,69288,2,0,P|-12:277|4:329,1,100,8|8,0:0|0:3,0:0:0:0:
170,360,69622,5,2,0:0:0:0:
110,193,69788,1,8,0:3:0:0:
284,235,69955,1,8,0:0:0:0:
241,65,70122,1,8,0:3:0:0:
200,241,70288,2,0,P|220:293|267:317,1,100,2|0,0:0|0:0,0:0:0:0:
402,272,70622,1,8,0:0:0:0:
443,125,70788,1,0,0:0:0:0:
443,125,70872,1,0,0:0:0:0:
443,125,70955,5,6,0:0:0:0:
231,163,71122,1,8,0:3:0:0:
402,272,71288,1,0,0:0:0:0:
340,74,71455,1,8,0:3:0:0:
200,241,71622,1,2,0:0:0:0:
361,166,71788,1,8,0:3:0:0:
266,12,71955,1,8,0:0:0:0:
110,100,72122,1,8,0:3:0:0:
290,228,72288,5,2,0:0:0:0:
340,74,72455,1,8,0:3:0:0:
176,33,72622,1,8,0:0:0:0:
135,184,72788,1,8,0:3:0:0:
361,166,72955,1,2,0:0:0:0:
235,321,73122,1,8,0:3:0:0:
238,131,73288,1,8,0:0:0:0:
402,243,73455,1,8,0:3:0:0:
235,321,73622,6,0,B|207:328|180:317|180:317|159:324|159:324|140:317|140:317|114:327|84:319|84:319|33:320,1,200,6|8,0:0|0:0,0:0:0:0:
16,131,74122,1,8,0:3:0:0:
176,33,74288,2,0,P|229:21|276:33,1,100,2|8,0:0|0:3,0:0:0:0:
361,166,74622,1,8,0:0:0:0:
367,12,74788,1,8,0:3:0:0:
238,131,74955,6,0,B|220:164|232:202|232:202|245:229|236:259|236:259|246:278|246:278|235:295|235:295|235:327,1,200,2|8,0:0|0:0,0:0:0:0:
318,244,75455,1,8,0:3:0:0:
160,235,75622,2,0,L|61:240,1,100,2|8,0:0|0:3,0:0:0:0:
238,131,75955,1,8,0:0:0:0:
318,244,76122,1,8,0:3:0:0:
151,144,76288,6,0,P|164:87|301:78,1,200,6|8,0:0|0:0,0:0:0:0:
403,230,76788,2,0,P|390:287|253:296,1,200,6|2,0:0|0:0,0:0:0:0:
151,144,77288,1,8,0:0:0:0:
315,33,77455,2,0,B|348:24|372:33|372:33|392:27|392:27|405:33|405:33|418:28|418:28|432:35|432:35|456:28|479:35|479:35|494:30|494:30|518:29,1,200,6|2,0:0|0:0,0:0:0:0:
510,157,77955,1,8,0:0:0:0:
404,230,78122,1,2,0:0:0:0:
289,165,78288,5,4,0:3:0:0:
97,318,78538,5,4,0:3:0:0:
66,81,78788,5,4,0:3:0:0:
151,144,78955,2,0,P|205:175|294:163,1,150,2|0,0:0|0:0,0:0:0:0:
361,114,79288,2,0,P|376:166|362:217,1,100,6|0,0:0|0:0,0:0:0:0:
296,342,79622,2,0,L|406:338,1,100,2|2,0:0|0:0,0:0:0:0:
218,295,79955,1,12,0:0:0:0:
218,295,80288,5,2,0:0:0:0:
151,144,80455,1,2,0:0:0:0:
297,208,80622,2,0,P|365:228|446:200,1,150,12|0,0:0|0:0,0:0:0:0:
495,146,80955,1,8,0:0:0:0:
461,313,81122,1,8,0:0:0:0:
456,337,81205,1,8,0:0:0:0:
452,361,81288,1,8,0:0:0:0:
297,208,81455,1,8,0:0:0:0:
281,188,81538,1,8,0:0:0:0:
265,168,81622,5,6,0:0:0:0:
77,191,81788,1,8,0:3:0:0:
210,58,81955,1,8,0:0:0:0:
207,237,82122,1,8,0:3:0:0:
77,104,82288,1,2,0:0:0:0:
105,293,82455,1,8,0:3:0:0:
189,135,82622,1,8,0:0:0:0:
267,300,82788,1,8,0:3:0:0:
354,142,82955,5,2,0:0:0:0:
207,237,83122,1,8,0:3:0:0:
383,227,83288,1,8,0:0:0:0:
291,83,83455,1,8,0:3:0:0:
442,163,83622,1,2,0:0:0:0:
265,168,83788,1,8,0:3:0:0:
365,314,83955,1,8,0:0:0:0:
354,142,84122,1,8,0:3:0:0:
207,237,84288,6,0,P|114:277|26:233,1,200,6|8,0:0|0:0,0:0:0:0:
121,117,84788,1,8,0:3:0:0:
207,237,84955,2,0,P|218:286|208:338,1,100,2|8,0:0|0:3,0:0:0:0:
121,117,85288,2,0,P|110:68|120:16,1,100,8|8,0:0|0:3,0:0:0:0:
65,182,85622,5,2,0:0:0:0:
199,69,85788,1,8,0:3:0:0:
31,102,85955,1,8,0:0:0:0:
195,157,86122,1,8,0:3:0:0:
94,259,86288,2,0,P|48:264|-4:229,1,100,2|8,0:0|0:3,0:0:0:0:
199,69,86622,1,8,0:0:0:0:
234,315,86788,1,0,0:0:0:0:
234,315,86872,1,0,0:0:0:0:
234,315,86955,5,6,0:0:0:0:
304,146,87122,1,8,0:3:0:0:
121,117,87288,1,8,0:0:0:0:
268,233,87455,1,8,0:3:0:0:
199,69,87622,1,2,0:0:0:0:
47,165,87788,1,8,0:3:0:0:
136,325,87955,1,8,0:0:0:0:
195,157,88122,1,8,0:3:0:0:
319,306,88288,5,2,0:0:0:0:
394,135,88455,1,8,0:3:0:0:
268,233,88622,1,8,0:0:0:0:
283,57,88788,1,8,0:3:0:0:
357,219,88955,1,2,0:0:0:0:
429,52,89122,1,8,0:3:0:0:
454,259,89288,1,8,0:0:0:0:
304,146,89455,1,8,0:3:0:0:
234,315,89622,6,0,B|181:335|132:317|132:317|84:302|27:320,1,200,6|8,0:0|0:0,0:0:0:0:
179,239,90122,1,8,0:3:0:0:
315,327,90288,2,0,P|369:338|422:318,1,100,2|8,0:0|0:3,0:0:0:0:
512,197,90622,1,8,0:0:0:0:
429,52,90788,1,8,0:3:0:0:
304,146,90955,6,0,B|255:158|203:147|203:147|180:156|180:156|157:146|157:146|101:148,1,200,2|8,0:0|0:0,0:0:0:0:
219,25,91455,1,8,0:3:0:0:
367,98,91622,2,0,P|381:146|364:203,1,100,2|8,0:0|0:3,0:0:0:0:
243,288,91955,1,8,0:0:0:0:
304,146,92122,1,8,0:3:0:0:
315,327,92288,6,0,P|383:344|490:280,1,200,6|8,0:0|0:0,0:0:0:0:
369,194,92788,1,8,0:3:0:0:
223,206,92955,2,0,L|109:195,1,100,2|8,0:0|0:3,0:0:0:0:
301,232,93288,1,8,0:0:0:0:
294,68,93455,1,8,0:3:0:0:
243,288,93622,6,0,P|176:308|99:272,1,150,6|0,0:0|0:0,0:0:0:0:
124,197,93955,2,0,P|133:150|117:95,1,100,8|8,0:0|0:3,0:0:0:0:
7,233,94288,2,0,P|-2:280|14:335,1,100,2|8,0:0|0:3,0:0:0:0:
146,374,94622,1,8,0:0:0:0:
124,197,94788,1,8,0:3:0:0:
243,288,94955,6,0,B|292:322|333:306|354:289|354:289|374:297|374:297|394:287|394:287|435:287,1,200,6|0,0:0|0:0,0:0:0:0:
429,50,95455,1,6,0:0:0:0:
83,50,95788,1,6,0:0:0:0:
256,48,95955,1,8,0:0:0:0:
124,197,96122,6,0,B|82:217|32:198|32:198|3:253|34:309,1,200,6|2,0:0|0:0,0:0:0:0:
206,358,96622,2,0,B|253:373|284:356|284:356|315:346|375:360,1,150,8|0,0:0|0:0,0:0:0:0:
432,355,96955,1,8,0:0:0:0:
490,231,97122,1,8,0:0:0:0:
494,181,97205,1,8,0:0:0:0:
498,131,97288,5,2,0:0:0:0:
499,110,97372,1,2,0:0:0:0:
500,90,97455,1,2,0:0:0:0:
501,70,97538,1,2,0:0:0:0:
503,26,97622,6,0,P|455:57|361:48,1,150,6|0,0:0|0:0,0:0:0:0:
297,10,97955,1,8,0:0:0:0:
203,165,98122,2,0,B|202:214|202:214|190:231|190:231|201:258|201:258|192:310|206:358,1,200,8|8,0:3|0:3,0:0:0:0:
280,207,98622,1,8,0:0:0:0:
120,270,98788,1,8,0:3:0:0:
284,302,98955,6,0,P|336:311|385:297,1,100,2|8,0:0|0:3,0:0:0:0:
203,166,99288,2,0,P|140:143|61:168,1,150,8|0,0:0|0:0,0:0:0:0:
36,243,99622,1,2,0:0:0:0:
171,337,99788,1,8,0:3:0:0:
280,207,99955,2,0,P|291:158|276:112,1,100,8|8,0:0|0:3,0:0:0:0:
36,57,100288,6,0,P|4:150|36:243,1,200,2|8,0:0|0:0,0:0:0:0:
171,337,100788,2,0,L|275:331,1,100,8|2,0:3|0:0,0:0:0:0:
466,274,101122,1,8,0:3:0:0:
280,207,101288,1,8,0:0:0:0:
393,369,101455,1,8,0:3:0:0:
401,174,101622,6,0,B|406:130|394:98|394:98|401:77|401:77|399:22,1,150,2|2,0:0|0:0,0:0:0:0:
357,54,101955,1,8,0:0:0:0:
309,70,102038,1,8,0:0:0:0:
258,70,102122,1,8,0:0:0:0:
209,58,102205,1,8,0:0:0:0:
167,30,102288,1,8,0:0:0:0:
57,213,102455,1,8,0:0:0:0:
57,213,102788,1,0,0:0:0:0:
57,213,102872,1,0,0:0:0:0:
57,213,102955,6,0,P|119:190|204:219,1,150,6|0,0:0|0:0,0:0:0:0:
253,274,103288,2,0,L|247:376,1,100,8|0,0:0|0:0,0:0:0:0:
280,197,103622,1,2,0:0:0:0:
170,318,103788,1,2,0:0:0:0:
334,344,103955,1,8,0:0:0:0:
197,213,104122,1,0,0:0:0:0:
350,147,104288,6,0,B|401:129|443:144|443:144|474:97|445:42,1,200,2|8,0:0|0:0,0:0:0:0:
271,114,104788,1,0,0:0:0:0:
409,241,104955,1,2,0:0:0:0:
364,30,105122,1,2,0:0:0:0:
280,197,105288,1,8,0:0:0:0:
239,216,105372,1,0,0:0:0:0:
197,213,105455,1,0,0:0:0:0:
154,199,105538,1,0,0:0:0:0:
120,168,105622,6,0,P|95:231|122:312,1,150,6|0,0:0|0:0,0:0:0:0:
171,366,105955,2,0,P|123:355|65:373,1,100,8|0,0:0|0:0,0:0:0:0:
263,323,106288,1,2,0:0:0:0:
209,137,106455,1,2,0:0:0:0:
25,190,106622,1,8,0:0:0:0:
25,190,106705,1,0,0:0:0:0:
25,190,106788,6,0,B|17:151|27:126|27:126|17:114|17:114|27:100|27:100|19:89|19:89|35:67|26:49|26:49|25:4,1,200,6|2,0:0|0:0,0:0:0:0:
121,166,107288,1,8,0:0:0:0:
238,17,107455,1,4,0:3:0:0:
238,17,107538,1,4,0:3:0:0:
238,17,107622,1,4,0:3:0:0:
320,186,107788,1,4,0:3:0:0:
442,44,107955,1,8,0:0:0:0:
442,44,108038,1,0,0:0:0:0:
442,44,108122,1,0,0:0:0:0:
442,44,108205,1,0,0:0:0:0:
442,44,108288,6,0,P|466:106|441:191,1,150,6|0,0:0|0:0,0:0:0:0:
398,253,108622,2,0,P|450:269|501:249,1,100,8|0,0:0|0:0,0:0:0:0:
320,186,108955,1,2,0:0:0:0:
353,366,109122,1,2,0:0:0:0:
219,231,109288,1,8,0:0:0:0:
338,82,109455,1,0,0:0:0:0:
354,63,109538,1,0,0:0:0:0:
370,43,109622,5,2,0:0:0:0:
320,186,109788,1,0,0:0:0:0:
214,61,109955,1,8,0:0:0:0:
394,144,110122,1,2,0:0:0:0:
298,301,110288,1,0,0:0:0:0:
135,214,110455,1,2,0:0:0:0:
320,186,110622,1,8,0:0:0:0:
212,333,110788,1,0,0:0:0:0:
212,333,110872,1,0,0:0:0:0:
212,333,110955,6,0,B|171:343|154:337|154:337|132:344|132:344|114:336|114:336|90:346|56:331,1,150,2|0,0:0|0:0,0:0:0:0:
17,264,111288,2,0,P|6:216|19:163,1,100,8|0,0:0|0:0,0:0:0:0:
211,127,111622,1,2,0:0:0:0:
298,301,111788,1,2,0:0:0:0:
344,321,111872,1,0,0:0:0:0:
393,326,111955,1,8,0:0:0:0:
442,318,112038,1,0,0:0:0:0:
488,299,112122,6,0,B|495:260|483:226|483:226|493:202|493:202|481:180|481:180|493:146|481:100,1,200,6|2,0:0|0:0,0:0:0:0:
388,235,112622,1,8,0:0:0:0:
362,77,112788,1,4,0:3:0:0:
358,57,112872,1,4,0:3:0:0:
355,37,112955,1,4,0:3:0:0:
306,219,113122,1,8,0:0:0:0:
118,218,113288,1,8,0:0:0:0:
69,36,113455,1,8,0:0:0:0:
39,294,113622,6,0,B|74:367|170:362|170:362|182:302|256:280|256:280|325:300|339:354|339:354|430:360|477:282,1,550,6|0,0:0|0:0,0:0:0:0:
474,192,114622,2,0,B|439:119|343:124|343:124|331:184|257:206|257:206|188:186|174:132|174:132|83:126|36:204,1,550
130,218,115622,6,0,P|190:170|208:88,1,150
302,101,115955,2,0,P|323:172|382:218,1,150
416,302,116288,6,0,B|336:340|256:266|256:266|176:334|84:301,1,350
130,218,116955,1,0,0:0:0:0:
382,218,117122,1,0,0:0:0:0:
256,24,117288,1,0,0:0:0:0:
130,218,117455,6,0,P|260:346|381:202,1,400,6|0,0:0|0:0,0:0:0:0:
382,176,118205,1,0,0:0:0:0:
383,130,118288,6,0,L|381:53,1,55.0000016784668
300,161,118455,6,0,L|299:250,1,69.9999978637696
212,161,118622,6,0,L|212:258,1,85.0000016212464
129,129,118788,6,0,L|130:28,1,100
68,191,118955,6,0,B|150:218|143:297|143:297|210:344|259:306|259:306|308:338|369:299|369:299|370:201|472:192,1,550,6|0,0:0|0:0,0:0:0:0:
488,278,119955,6,0,B|423:322|423:322|346:297|312:238|312:238|257:206|195:240|195:240|168:296|94:322|94:322|23:264,1,550,6|0,0:0|0:0,0:0:0:0:
99,207,120955,6,0,P|141:151|124:74,1,150
70,11,121288,1,0,0:0:0:0:
256,94,121455,1,0,0:0:0:0:
442,11,121622,6,0,B|400:71|401:144|457:191|457:191|403:245|403:322|466:378,1,400
256,290,122455,1,0,0:0:0:0:
55,369,122622,1,0,0:0:0:0:
256,290,122788,6,0,P|396:192|254:95,1,400,6|0,0:0|0:0,0:0:0:0:
218,95,123538,1,0,0:0:0:0:
179,95,123622,6,0,L|79:96,1,85.0000016212464
180,192,123788,6,0,L|264:192,1,69.9999978637696
179,289,123955,6,0,L|113:289,1,55.0000016784668
55,369,124122,1,0,0:0:0:0:
55,369,124205,1,0,0:0:0:0:
55,369,124288,6,0,P|16:284|63:163,1,220.000006713867,6|0,0:0|0:0,0:0:0:0:
256,165,124788,2,0,L|256:286,1,110.000003356934
255,29,125122,1,0,0:0:0:0:
455,169,125288,6,0,B|471:217|453:257|453:257|402:254|356:287|356:287|309:252|255:277|255:277|199:250|149:281|149:281|101:250|53:256|53:256|27:225|43:166,1,605.000018463135,6|0,0:0|0:0,0:0:0:0:
96,95,126288,6,0,B|136:93|176:117|176:117|212:95|259:99,1,165.000005035401
321,49,126622,2,0,L|386:19,1,55.0000016784668
321,151,126788,2,0,L|381:175,1,55.0000016784668
305,240,126955,6,0,B|281:286|293:323|293:323|257:343|257:343|222:324|222:324|232:286|203:235,1,250
139,301,127455,2,0,L|27:301,1,100
373,301,127788,2,0,L|485:301,1,100,0|8,0:0|0:0,0:0:0:0:
321,151,128122,6,0,B|265:137|255:89|255:89|246:138|179:153,1,200,6|0,0:0|0:0,0:0:0:0:
339,66,128622,1,8,0:0:0:0:
173,66,128788,1,0,0:0:0:0:
256,222,128955,2,0,L|256:334,1,100
139,301,129288,1,8,0:0:0:0:
373,301,129455,1,0,0:0:0:0:
139,301,129622,6,0,B|94:288|50:304|50:304|14:246|54:182,1,200,6|0,0:0|0:0,0:0:0:0:
173,66,130122,1,0,0:0:0:0:
256,222,130288,1,0,0:0:0:0:
339,66,130455,1,0,0:0:0:0:
467,199,130622,6,0,B|498:246|468:312|468:312|418:288|373:300|373:300|347:328|345:373|345:373|272:382|239:333,1,400,6|8,0:0|0:0,0:0:0:0:
69,98,131622,6,0,P|37:193|79:291,1,200,0|8,0:0|0:0,0:0:0:0:
256,50,132122,1,0,0:0:0:0:
440,282,132288,2,0,P|475:190|443:98,1,200,0|8,0:0|0:0,0:0:0:0:
256,50,132788,5,0,0:0:0:0:
256,255,132955,1,0,0:0:0:0:
165,120,133122,1,0,0:0:0:0:
347,120,133288,1,0,0:0:0:0:
346,296,133455,6,0,P|256:341|164:284,1,200,6|0,0:0|0:0,0:0:0:0:
256,144,133955,1,8,0:0:0:0:
96,234,134122,1,8,0:0:0:0:
60,252,134205,1,8,0:0:0:0:
24,269,134288,1,8,0:0:0:0:
165,120,134455,1,8,0:0:0:0:
185,85,134538,1,8,0:0:0:0:
218,62,134622,1,8,0:0:0:0:
256,50,134705,1,8,0:0:0:0:
294,62,134788,1,8,0:0:0:0:
327,85,134872,1,8,0:0:0:0:
347,120,134955,6,0,P|255:262|172:107,1,400,6|0,0:0|0:0,0:0:0:0:
391,268,135955,2,0,P|256:333|117:263,1,300,8|0,0:0|0:0,0:0:0:0:
30,158,136622,6,0,L|15:114,1,42.5000008106232,8|0,0:0|0:0,0:0:0:0:
98,112,136788,6,0,L|85:53,1,37.5000014305115
177,89,136955,6,0,L|172:38,1,50,2|0,0:0|0:0,0:0:0:0:
256,77,137122,6,0,L|256:36,1,37.5000014305115
335,89,137288,6,0,L|347:28,1,57.5000010967255,8|0,0:0|0:0,0:0:0:0:
413,112,137455,6,0,L|430:67,1,37.5000014305115
482,158,137622,6,0,B|451:217|460:280|460:280|405:242|333:282,1,250
255,320,138122,2,0,B|234:268|262:211|262:211|287:146|253:70,1,250
186,151,138622,2,0,P|159:156|120:147,1,50,8|0,0:0|0:0,0:0:0:0:
72,88,138788,2,0,P|94:162|76:232,1,150,6|0,0:0|0:0,0:0:0:0:
16,296,139122,6,0,L|6:358,1,59.9999981689454
96,317,139288,6,0,L|87:378,1,55.0000016784668,8|0,0:0|0:0,0:0:0:0:
176,317,139455,6,0,L|175:371,1,50
255,320,139622,6,0,L|255:374,1,44.999998626709,2|0,0:0|0:0,0:0:0:0:
336,317,139788,6,0,L|342:367,1,40
416,317,139955,6,0,L|426:368,1,34.9999989318848,8|8,0:0|0:0,0:0:0:0:
494,297,140122,6,0,L|504:344,1,29.9999990844727
493,218,140288,6,0,L|496:178,1,25,6|0,0:0|0:0,0:0:0:0:
413,236,140455,6,0,L|411:186,1,40
335,236,140622,6,0,L|328:182,1,34.9999989318848,8|0,0:0|0:0,0:0:0:0:
255,239,140788,6,0,B|226:237|205:253|205:253|169:235|130:259|130:259|98:239|53:241,1,200
104,55,141288,6,0,B|154:42|190:55|190:55|214:47|214:47|236:58|236:58|268:44|321:57|321:57|332:46|332:46|332:69|332:69|345:54|345:54|392:53,1,300,6|0,0:0|0:0,0:0:0:0:
414,191,141955,6,0,L|412:235,1,44.999998626709,8|0,0:0|0:0,0:0:0:0:
333,196,142122,6,0,L|335:236,1,40
254,205,142288,6,0,L|255:239,1,34.9999989318848,2|0,0:0|0:0,0:0:0:0:
177,196,142455,6,0,L|176:248,1,40
100,195,142622,6,0,L|97:247,1,44.999998626709,8|0,0:0|0:0,0:0:0:0:
134,324,142788,5,0,0:0:0:0:
134,324,142872,1,0,0:0:0:0:
134,324,142955,1,2,0:0:0:0:
254,205,143122,1,0,0:0:0:0:
254,205,143205,1,0,0:0:0:0:
254,205,143288,1,8,0:0:0:0:
378,324,143455,6,0,P|408:240|372:133,1,200
256,25,143955,1,8,0:0:0:0:
136,137,144122,6,0,P|97:233|140:371,1,250,6|0,0:0|0:0,0:0:0:0:
378,324,144622,1,0,0:0:0:0:
323,113,144788,6,0,P|238:60|2:123,1,350.00000333786
374,381,145288,6,0,B|499:325|509:190|509:190|492:41|328:-1,1,500,6|6,0:0|0:0,0:0:0:0:
134,324,145955,5,8,0:0:0:0:
256,169,146288,1,0,0:0:0:0:
278,139,146455,1,8,0:0:0:0:
303,111,146622,1,8,0:0:0:0:
71,138,146955,5,8,0:0:0:0:
216,273,147288,1,0,0:0:0:0:
253,273,147455,1,8,0:0:0:0:
290,273,147622,1,0,0:0:0:0:
327,273,147788,1,8,0:0:0:0:
345,273,147872,1,8,0:0:0:0:
363,273,147955,1,8,0:0:0:0:
381,273,148038,1,8,0:0:0:0:
399,273,148122,1,8,0:0:0:0:
417,274,148205,1,8,0:0:0:0:
435,274,148288,5,2,0:0:0:0:
457,88,148622,1,8,0:0:0:0:
465,51,148788,1,0,0:0:0:0:
472,14,148955,1,8,0:0:0:0:
369,78,149122,1,8,0:0:0:0:
341,52,149288,1,0,0:0:0:0:
315,24,149455,1,8,0:0:0:0:
287,128,149622,1,8,0:0:0:0:
251,299,149955,5,0,0:0:0:0:
213,299,150122,1,8,0:0:0:0:
175,298,150288,1,0,0:0:0:0:
137,297,150455,1,8,0:0:0:0:
118,296,150538,1,8,0:0:0:0:
99,295,150622,1,8,0:0:0:0:
80,294,150705,1,8,0:0:0:0:
61,294,150788,1,8,0:0:0:0:
42,294,150872,1,8,0:0:0:0:
23,294,150955,5,2,0:0:0:0:
214,373,151288,1,8,0:0:0:0:
352,241,151622,1,0,0:0:0:0:
389,244,151788,1,8,0:0:0:0:
426,247,151955,1,8,0:0:0:0:
463,249,152122,1,0,0:0:0:0:
500,254,152288,5,8,0:0:0:0:
362,76,152622,1,0,0:0:0:0:
350,40,152788,1,8,0:0:0:0:
219,215,153122,1,0,0:0:0:0:
208,250,153288,1,8,0:0:0:0:
201,267,153372,1,8,0:0:0:0:
194,284,153455,1,8,0:0:0:0:
188,301,153538,1,8,0:0:0:0:
182,318,153622,5,2,0:0:0:0:
168,84,153955,1,8,0:0:0:0:
356,147,154288,1,8,0:0:0:0:
393,143,154455,1,8,0:0:0:0:
430,138,154622,1,0,0:0:0:0:
379,329,154955,5,8,0:0:0:0:
341,324,155122,1,0,0:0:0:0:
303,321,155288,1,8,0:0:0:0:
265,316,155455,1,8,0:0:0:0:
265,141,155788,1,8,0:0:0:0:
262,103,155955,1,8,0:0:0:0:
260,84,156038,1,8,0:0:0:0:
258,65,156122,1,8,0:0:0:0:
257,46,156205,1,8,0:0:0:0:
256,27,156288,5,2,0:0:0:0:
59,81,156622,1,4,0:3:0:0:
77,281,156955,1,4,0:3:0:0:
170,315,157122,1,4,0:3:0:0:
170,315,157455,1,4,0:3:0:0:
263,281,157622,5,4,0:3:0:0:
183,224,157788,1,4,0:3:0:0:
170,215,157872,1,4,0:3:0:0:
158,206,157955,1,4,0:3:0:0:
63,185,158122,1,4,0:3:0:0:
63,185,158455,1,4,0:3:0:0:
256,129,158622,1,8,0:0:0:0:
449,185,158955,5,4,0:3:0:0:
316,54,159288,1,4,0:3:0:0:
242,376,159788,1,4,0:3:0:0:
59,81,160288,1,4,0:3:0:0:
282,211,160622,1,4,0:3:0:0:
372,168,160788,1,4,0:3:0:0:
372,168,161122,1,4,0:3:0:0:
197,254,161288,1,8,0:0:0:0:
197,254,161622,5,4,0:3:0:0:
372,168,161955,1,4,0:3:0:0:
81,322,162455,1,4,0:3:0:0:
211,34,162955,1,4,0:3:0:0:
211,34,163288,5,4,0:3:0:0:
288,99,163455,1,4,0:3:0:0:
288,99,163788,1,4,0:3:0:0:
360,32,163955,1,8,0:0:0:0:
217,167,164288,5,4,0:0:0:0:
194,187,164621,5,0,0:0:0:0:
172,207,164956,5,0,0:0:0:0:
150,227,165288,5,0,0:0:0:0:
129,248,165622,5,0,0:0:0:0:
129,248,166288,5,0,0:0:0:0:
78,331,166455,2,0,L|84:377,2,37.5000014305115
383,248,166955,6,0,P|404:186|381:105,1,150.000005722046,2|2,0:0|0:0,0:0:0:0:
212,46,167622,2,0,L|132:50,1,75.0000028610231,2|0,0:0|0:0,0:0:0:0:
114,51,167872,1,0,0:0:0:0:
91,52,167955,1,2,0:0:0:0:
129,248,168288,6,0,L|287:241,1,150.000005722046,2|2,0:0|0:0,0:0:0:0:
469,208,168955,2,0,P|477:248|469:288,1,75.0000028610231,2|0,0:0|0:0,0:0:0:0:
403,351,169288,2,0,L|244:346,1,150.000005722046,2|2,0:0|0:0,0:0:0:0:
155,343,169788,2,0,L|105:347,2,37.5000014305115,0|0|2,0:0|0:0|0:0,0:0:0:0:
129,248,170122,2,0,L|79:252,2,37.5000014305115,0|0|2,0:0|0:0|0:0,0:0:0:0:
96,157,170455,2,0,L|46:161,1,37.5000014305115
22,162,170622,1,2,0:0:0:0:
91,56,170788,1,0,0:0:0:0:
183,144,170955,6,0,B|216:150|242:141|242:141|257:148|257:148|270:140|270:140|288:138|308:147|308:147|335:146,1,150.000005722046,2|2,0:0|0:0,0:0:0:0:
466,282,171622,1,2,0:0:0:0:
427,193,171788,1,0,0:0:0:0:
427,193,171872,1,0,0:0:0:0:
427,193,171955,2,0,P|412:146|431:75,1,112.500004291535,2|0,0:0|0:0,0:0:0:0:
452,59,172288,6,0,P|407:80|306:62,1,150.000005722046,2|2,0:0|0:0,0:0:0:0:
123,20,172955,2,0,L|139:183,1,150.000005722046,2|2,0:0|0:0,0:0:0:0:
212,349,173622,2,0,L|234:197,1,150.000005722046,2|2,0:0|0:0,0:0:0:0:
318,22,174288,2,0,L|334:185,1,150.000005722046,2|2,0:0|0:0,0:0:0:0:
212,349,174955,5,2,0:0:0:0:
233,261,175122,1,0,0:0:0:0:
321,247,175288,1,2,0:0:0:0:
382,313,175455,1,0,0:0:0:0:
294,334,175622,1,2,0:0:0:0:
234,261,175788,1,0,0:0:0:0:
265,176,175955,1,2,0:0:0:0:
354,162,176122,1,0,0:0:0:0:
293,334,176288,5,2,0:0:0:0:
179,195,176455,1,8,0:3:0:0:
69,328,176622,1,8,0:3:0:0:
234,262,176788,1,6,0:0:0:0:
123,126,176955,1,8,0:3:0:0:
151,311,177122,5,4,0:3:0:0:
265,176,177288,1,4,0:3:0:0:
126,49,177455,1,4,0:3:0:0:
2,192,177622,6,0,B|10:228|4:270|4:270|14:285|14:285|5:301|5:301|17:326|9:347|9:347|9:388,1,200,6|8,0:0|0:0,0:0:0:0:
151,311,178122,2,0,P|203:301|250:309,1,100,2|0,0:0|0:0,0:0:0:0:
392,363,178455,1,2,0:0:0:0:
484,240,178622,2,0,B|493:195|479:153|479:153|485:139|485:139|477:121|477:121|483:98|483:98|482:72,1,150,8|0,0:0|0:0,0:0:0:0:
482,18,178955,6,0,B|432:17|432:17|399:34|367:19|367:19|348:28|348:28|329:17|329:17|282:17,1,200,2|8,0:0|0:0,0:0:0:0:
389,156,179455,2,0,P|402:203|392:261,1,100,2|0,0:0|0:0,0:0:0:0:
302,105,179788,1,2,0:0:0:0:
189,218,179955,2,0,P|142:231|87:219,1,100,8|0,0:0|0:0,0:0:0:0:
233,152,180288,6,0,P|265:204|234:286,1,150,2|0,0:0|0:0,0:0:0:0:
163,316,180622,1,8,0:0:0:0:
317,354,180788,2,0,B|343:359|343:359|359:353|359:353|379:363|409:353|409:353|426:358|426:358|446:351|472:355|472:355|513:355,1,200,6|0,0:0|0:0,0:0:0:0:
389,156,181288,1,8,0:0:0:0:
189,218,181455,2,0,B|144:209|119:222|119:222|103:211|103:211|90:224|90:224|66:207|37:219|37:219|1:219,1,200,6|2,0:0|0:0,0:0:0:0:
176,63,181955,1,8,0:0:0:0:
237,283,182122,1,2,0:0:0:0:
237,283,182455,1,2,0:0:0:0:
388,313,182622,2,0,P|436:323|488:308,1,100,8|0,0:0|0:0,0:0:0:0:
304,226,182955,6,0,P|252:200|160:232,1,150,6|0,0:0|0:0,0:0:0:0:
115,291,183288,2,0,P|69:305|20:293,1,100,8|0,0:0|0:0,0:0:0:0:
179,351,183622,1,2,0:0:0:0:
61,224,183788,1,2,0:0:0:0:
96,384,183955,1,8,0:0:0:0:
168,225,184122,6,0,B|178:184|166:146|166:146|170:130|170:130|157:101|168:58|168:58|161:46|161:46|167:36|167:36|165:13,1,200,6|2,0:0|0:0,0:0:0:0:
313,153,184622,2,0,P|377:193|494:141,1,200,8|2,0:0|0:0,0:0:0:0:
395,294,185122,1,2,0:0:0:0:
397,112,185288,1,8,0:0:0:0:
487,267,185455,1,0,0:0:0:0:
336,351,185622,5,8,0:0:0:0:
246,200,185788,1,4,0:3:0:0:
231,173,185872,1,4,0:3:0:0:
216,146,185955,1,4,0:3:0:0:
157,351,186122,1,12,0:0:0:0:
66,187,186289,1,4,0:3:0:0:
50,161,186372,1,4,0:3:0:0:
34,135,186455,1,4,0:3:0:0:
18,109,186539,1,4,0:3:0:0:
0,84,186622,2,0,P|56:106|142:80,1,150,6|4,0:0|0:3,0:0:0:0:
202,31,186955,5,4,0:3:0:0:
66,187,187177,1,8,0:0:0:0:
65,240,187288,1,8,0:0:0:0:
74,293,187400,1,8,0:0:0:0:
107,334,187511,5,8,0:3:0:0:
157,351,187622,1,8,0:3:0:0:
210,353,187733,1,8,0:3:0:0:
258,330,187844,5,4,0:3:0:0:
306,308,187955,1,4,0:3:0:0:
359,307,188066,1,4,0:3:0:0:
410,321,188177,5,4,0:3:0:0:
455,348,188288,1,4,0:0:0:0:
455,348,189622,5,2,0:3:0:0:
455,348,190955,5,2,0:3:0:0:
455,348,192121,5,2,0:3:0:0:
462,228,192455,1,2,0:3:0:0:
396,127,192788,1,2,0:3:0:0:
282,88,193121,1,2,0:3:0:0:
282,88,193622,5,2,0:3:0:0:
282,88,194622,1,2,0:3:0:0:
162,89,194955,5,2,0:3:0:0:
224,191,195288,1,2,0:3:0:0:
122,255,195622,1,2,0:3:0:0:
122,255,196288,5,2,0:3:0:0:
122,255,197288,2,0,L|132:341,1,75.0000028610231,2|2,0:3|0:3,0:0:0:0:
135,351,197538,1,0,0:3:0:0:
139,373,197622,5,2,0:3:0:0:
214,280,197955,1,2,0:3:0:0:
287,374,198288,1,2,0:3:0:0:
358,277,198622,1,2,0:3:0:0:
433,369,198955,5,2,0:0:0:0:
479,258,199288,1,2,0:0:0:0:
401,165,199622,1,8,0:0:0:0:
284,191,199955,1,2,0:0:0:0:
284,191,200122,1,2,0:0:0:0:
314,74,200455,1,2,0:0:0:0:
314,74,200622,1,2,0:0:0:0:
204,122,200955,1,8,0:0:0:0:
84,110,201288,1,0,0:0:0:0:
3,20,201622,5,2,0:0:0:0:
84,110,201955,1,2,0:0:0:0:
90,229,202288,1,8,0:0:0:0:
22,328,202622,1,2,0:0:0:0:
22,328,202788,1,2,0:0:0:0:
138,356,203122,1,2,0:0:0:0:
138,356,203288,1,2,0:0:0:0:
215,264,203622,1,8,0:0:0:0:
215,144,203955,1,0,0:0:0:0:
144,48,204288,5,8,0:0:0:0:
152,48,204372,1,8,0:0:0:0:
160,48,204455,1,8,0:0:0:0:
168,48,204538,1,8,0:0:0:0:
176,48,204622,1,8,0:0:0:0:
184,48,204705,1,8,0:0:0:0:
192,48,204788,1,8,0:0:0:0:
200,48,204872,1,8,0:0:0:0:
208,48,204955,1,8,0:0:0:0:
216,48,205038,1,8,0:0:0:0:
224,48,205122,1,8,0:0:0:0:
232,48,205205,1,8,0:0:0:0:
240,48,205288,1,8,0:0:0:0:
248,48,205372,1,8,0:0:0:0:
256,48,205455,1,8,0:0:0:0:
264,48,205538,1,8,0:0:0:0:
272,48,205622,5,8,0:0:0:0:
284,48,205705,1,8,0:0:0:0:
296,48,205788,1,8,0:0:0:0:
308,48,205872,1,8,0:0:0:0:
320,48,205955,1,8,0:0:0:0:
332,48,206038,1,8,0:0:0:0:
344,48,206122,1,8,0:0:0:0:
356,48,206205,1,8,0:0:0:0:
368,48,206288,1,8,0:0:0:0:
380,48,206372,1,8,0:0:0:0:
392,48,206455,1,8,0:0:0:0:
404,48,206538,1,8,0:0:0:0:
416,48,206622,1,8,0:0:0:0:
428,48,206705,1,8,0:0:0:0:
440,48,206788,1,8,0:0:0:0:
452,48,206872,1,8,0:0:0:0:
464,48,206955,6,0,P|492:118|466:194,1,150,6|0,0:0|0:0,0:0:0:0:
403,236,207288,1,8,0:0:0:0:
237,122,207455,1,2,0:0:0:0:
394,124,207622,1,2,0:0:0:0:
219,221,207788,1,8,0:3:0:0:
391,326,207955,1,4,0:3:0:0:
315,157,208122,1,4,0:3:0:0:
222,310,208288,5,8,0:0:0:0:
148,140,208455,1,8,0:0:0:0:
130,131,208538,1,8,0:0:0:0:
110,125,208622,1,8,0:0:0:0:
90,122,208705,1,8,0:0:0:0:
70,123,208788,1,8,0:0:0:0:
50,128,208872,1,8,0:0:0:0:
33,138,208955,1,8,0:0:0:0:
21,154,209038,1,8,0:0:0:0:
12,172,209122,6,0,P|8:223|37:270,1,100
65,279,209288,6,0,B|99:288|122:278|122:278|147:271|186:281,1,112.500004291535,6|0,0:0|0:0,0:0:0:0:
261,276,209622,5,6,0:0:0:0:
254,95,209788,1,8,0:3:0:0:
400,221,209955,1,8,0:0:0:0:
221,176,210122,1,8,0:3:0:0:
405,130,210288,1,2,0:0:0:0:
257,12,210455,1,8,0:3:0:0:
314,172,210622,1,8,0:0:0:0:
459,61,210788,1,8,0:3:0:0:
254,95,210955,5,2,0:0:0:0:
400,221,211122,1,8,0:3:0:0:
346,57,211288,1,8,0:0:0:0:
221,176,211455,1,8,0:3:0:0:
405,130,211622,1,2,0:0:0:0:
396,316,211788,1,8,0:3:0:0:
484,177,211955,1,8,0:0:0:0:
319,260,212122,1,8,0:3:0:0:
254,95,212288,6,0,P|168:55|74:96,1,200,4|8,0:0|0:0,0:0:0:0:
149,222,212788,1,8,0:3:0:0:
14,273,212955,2,0,P|0:224|13:175,1,100,2|8,0:0|0:3,0:0:0:0:
149,222,213288,2,0,P|163:271|150:320,1,100,8|8,0:0|0:3,0:0:0:0:
90,172,213622,5,2,0:0:0:0:
243,208,213788,1,8,0:3:0:0:
186,40,213955,1,8,0:0:0:0:
149,222,214122,1,8,0:3:0:0:
321,132,214288,2,0,B|352:126|368:132|368:132|380:129|380:129|426:129,1,100,2|8,0:0|0:3,0:0:0:0:
490,292,214622,1,8,0:0:0:0:
330,361,214788,1,0,0:0:0:0:
243,208,214955,5,6,0:0:0:0:
231,378,215122,1,8,0:3:0:0:
326,232,215288,1,8,0:0:0:0:
149,223,215455,1,8,0:3:0:0:
224,87,215622,1,2,0:0:0:0:
260,288,215788,1,8,0:3:0:0:
415,158,215955,1,8,0:0:0:0:
243,208,216122,1,8,0:3:0:0:
391,312,216288,5,2,0:0:0:0:
310,149,216455,1,8,0:3:0:0:
182,295,216622,1,8,0:0:0:0:
119,118,216788,1,8,0:3:0:0:
303,67,216955,1,2,0:0:0:0:
326,232,217122,1,8,0:3:0:0:
224,87,217288,1,8,0:0:0:0:
75,181,217455,1,8,0:3:0:0:
196,312,217622,6,0,B|239:324|272:313|272:313|290:322|290:322|307:315|307:315|341:322|398:311,1,200,6|8,0:0|0:0,0:0:0:0:
310,149,218122,1,8,0:3:0:0:
156,237,218288,2,0,P|90:275|-19:213,1,200,2|8,0:0|0:0,0:0:0:0:
40,46,218788,1,8,0:3:0:0:
224,87,218955,6,0,B|262:97|293:87|293:87|310:94|310:94|326:88|326:88|357:96|381:86|381:86|423:86,1,200,2|8,0:0|0:0,0:0:0:0:
259,15,219455,1,8,0:3:0:0:
239,187,219622,2,0,P|229:235|250:288,1,100,2|0,0:0|0:0,0:0:0:0:
154,130,219955,1,8,0:0:0:0:
314,230,220122,1,8,0:3:0:0:
156,329,220288,6,0,P|89:354|-9:264,1,200,6|8,0:0|0:0,0:0:0:0:
154,130,220788,2,0,P|217:93|325:141,1,200,6|0,0:0|0:0,0:0:0:0:
347,355,221288,1,8,0:0:0:0:
480,198,221455,2,0,B|488:151|473:124|473:124|479:110|479:110|471:94|471:94|481:71|473:42|473:42|473:3,1,200,6|0,0:0|0:0,0:0:0:0:
401,169,221955,1,8,0:0:0:0:
219,205,222122,1,0,0:0:0:0:
88,76,222288,5,4,0:3:0:0:
401,169,222538,5,4,0:3:0:0:
89,264,222788,5,4,0:3:0:0:
172,135,222955,1,2,0:0:0:0:
4,231,223122,1,0,0:0:0:0:
88,76,223288,2,0,P|156:44|267:95,1,200,6|0,0:0|0:0,0:0:0:0:
401,237,223788,1,0,0:0:0:0:
228,341,223955,2,0,B|185:354|154:344|154:344|135:353|135:353|116:344|116:344|75:344,1,150,6|0,0:0|0:0,0:0:0:0:
1,342,224288,5,2,0:0:0:0:
10,139,224455,1,2,0:0:0:0:
89,264,224622,1,8,0:0:0:0:
172,135,224788,1,0,0:0:0:0:
259,262,224955,1,8,0:0:0:0:
117,192,225122,1,8,0:0:0:0:
94,182,225205,1,8,0:0:0:0:
291,149,225372,1,8,0:0:0:0:
315,144,225455,1,8,0:0:0:0:
339,139,225538,1,8,0:0:0:0:
363,134,225622,5,6,0:0:0:0:
350,330,225788,1,8,0:3:0:0:
191,213,225955,1,8,0:0:0:0:
311,64,226122,1,8,0:3:0:0:
339,249,226288,1,2,0:0:0:0:
172,134,226455,1,8,0:3:0:0:
193,303,226622,1,8,0:0:0:0:
291,149,226788,1,8,0:3:0:0:
275,347,226955,5,2,0:0:0:0:
191,213,227122,1,8,0:3:0:0:
123,358,227288,1,8,0:0:0:0:
172,134,227455,1,8,0:3:0:0:
259,262,227622,1,2,0:0:0:0:
234,77,227788,1,8,0:3:0:0:
121,249,227955,1,8,0:0:0:0:
123,52,228122,1,8,0:3:0:0:
291,149,228288,6,0,B|330:158|358:147|358:147|374:153|374:153|388:147|388:147|420:157|497:149,1,200,6|8,0:0|0:0,0:0:0:0:
330,321,228788,1,8,0:3:0:0:
121,249,228955,2,0,P|72:237|22:253,1,100,2|8,0:0|0:3,0:0:0:0:
234,323,229288,2,0,P|283:335|333:319,1,100,8|8,0:0|0:3,0:0:0:0:
387,147,229622,5,2,0:0:0:0:
204,226,229788,1,8,0:3:0:0:
210,61,229955,1,8,0:0:0:0:
121,249,230122,1,8,0:3:0:0:
38,78,230288,1,2,0:0:0:0:
208,142,230455,2,0,P|257:151|306:136,1,100,8|8,0:3|0:0,0:0:0:0:
454,51,230788,1,0,0:0:0:0:
454,51,230872,1,0,0:0:0:0:
454,51,230955,5,6,0:0:0:0:
420,223,231122,1,8,0:3:0:0:
304,67,231288,1,8,0:0:0:0:
467,144,231455,1,8,0:3:0:0:
298,253,231622,1,2,0:0:0:0:
384,104,231788,1,8,0:3:0:0:
460,310,231955,1,8,0:0:0:0:
341,178,232122,1,8,0:3:0:0:
295,338,232288,5,2,0:0:0:0:
420,223,232455,1,8,0:3:0:0:
257,177,232622,1,8,0:0:0:0:
376,297,232788,1,8,0:3:0:0:
217,293,232955,1,2,0:0:0:0:
341,178,233122,1,8,0:3:0:0:
183,133,233288,1,8,0:0:0:0:
298,253,233455,1,8,0:3:0:0:
152,349,233622,6,0,P|86:346|15:234,1,200,6|8,0:0|0:0,0:0:0:0:
66,79,234122,1,8,0:3:0:0:
231,37,234288,2,0,L|338:45,1,100,2|8,0:0|0:3,0:0:0:0:
154,43,234622,1,8,0:0:0:0:
257,177,234788,1,8,0:3:0:0:
416,110,234955,6,0,P|424:59|409:7,1,100,2|8,0:0|0:3,0:0:0:0:
231,37,235288,1,8,0:0:0:0:
183,214,235455,1,8,0:3:0:0:
312,344,235622,1,2,0:0:0:0:
335,350,235705,1,0,0:0:0:0:
359,351,235788,1,8,0:3:0:0:
384,350,235872,1,0,0:0:0:0:
407,343,235955,1,8,0:0:0:0:
257,177,236122,1,0,0:0:0:0:
132,360,236288,5,6,0:0:0:0:
132,360,236622,1,8,0:0:0:0:
89,211,236788,1,8,0:3:0:0:
257,177,236955,2,0,B|326:185|326:185|385:168|385:168|457:180,1,200,2|8,0:0|0:0,0:0:0:0:
316,98,237455,1,2,0:0:0:0:
293,258,237622,6,0,P|238:284|144:254,1,150,6|0,0:0|0:0,0:0:0:0:
89,211,237955,1,8,0:0:0:0:
176,35,238122,2,0,B|232:57|269:35|269:35|312:6|385:39,1,200,0|2,0:0|0:0,0:0:0:0:
423,211,238622,1,8,0:0:0:0:
89,211,238955,6,0,P|72:140|106:58,1,150,6|0,0:0|0:0,0:0:0:0:
176,35,239288,1,8,0:0:0:0:
172,250,239455,1,6,0:0:0:0:
172,250,239788,1,6,0:0:0:0:
176,35,239955,1,8,0:0:0:0:
289,209,240122,6,0,B|337:221|375:206|375:206|400:216|400:216|422:205|422:205|442:215|442:215|487:208,1,200,6|0,0:0|0:0,0:0:0:0:
353,338,240622,2,0,P|305:348|249:335,1,100
92,249,240955,2,0,B|83:217|88:195|88:195|83:185|83:185|91:146,1,100,8|8,0:0|0:0,0:0:0:0:
92,73,241205,1,8,0:0:0:0:
92,73,241288,1,0,0:0:0:0:
24,339,241455,1,8,0:0:0:0:
24,339,241538,1,8,0:0:0:0:
24,339,241621,6,0,P|86:364|169:332,1,150,12|0,0:0|0:0,0:0:0:0:
226,289,241955,2,0,P|277:279|327:292,1,100,8|8,0:0|0:3,0:0:0:0:
463,355,242288,1,2,0:0:0:0:
348,213,242455,1,8,0:3:0:0:
511,289,242622,1,8,0:0:0:0:
348,213,242788,6,0,P|321:145|352:23,1,200,8|8,0:3|0:3,0:0:0:0:
223,178,243288,2,0,P|163:198|77:178,1,150,8|0,0:0|0:0,0:0:0:0:
20,125,243622,1,2,0:0:0:0:
145,35,243788,1,8,0:3:0:0:
295,67,243955,1,8,0:0:0:0:
348,213,244122,1,8,0:3:0:0:
273,344,244288,6,0,B|221:364|176:342|176:342|134:322|70:345,1,200,6|8,0:0|0:0,0:0:0:0:
223,178,244788,2,0,B|275:158|320:180|320:180|362:200|426:177,1,200,8|8,0:3|0:3,0:0:0:0:
384,348,245288,1,8,0:0:0:0:
362,108,245455,1,8,0:3:0:0:
272,260,245622,1,2,0:0:0:0:
474,260,245788,1,8,0:0:0:0:
484,259,245872,1,8,0:0:0:0:
493,259,245955,1,8,0:0:0:0:
502,259,246038,1,8,0:0:0:0:
512,259,246122,1,8,0:0:0:0:
272,260,246288,6,0,B|224:275|190:317|190:317|146:288|159:237|159:237|123:220|86:237|86:237|72:207|45:191|45:191|75:180|83:145|83:145|125:159|163:147|163:147|144:91|193:62|193:62|217:113|284:122,1,675.000025749208,0|4,0:0|0:3,0:0:0:0:
393,191,247955,1,8,0:0:0:0:
400,191,248038,1,0,0:0:0:0:
407,191,248122,1,0,0:0:0:0:
414,191,248205,1,0,0:0:0:0:
454,192,248288,6,0,L|242:192,1,200,6|8,0:0|0:0,0:0:0:0:
115,120,248788,2,0,P|74:109|33:55,1,100,8|2,0:3|0:0,0:0:0:0:
115,264,249122,2,0,P|74:275|33:329,1,100,8|8,0:3|0:0,0:0:0:0:
200,142,249455,2,0,B|196:109|199:90|199:90|196:81|196:81|199:72|199:72|197:35,1,100,8|2,0:3|0:0,0:0:0:0:
200,242,249788,2,0,B|196:275|199:294|199:294|196:303|196:303|199:312|199:312|197:349,1,100,8|8,0:3|0:0,0:0:0:0:
286,120,250122,2,0,P|327:109|368:55,1,100,8|2,0:3|0:0,0:0:0:0:
286,264,250455,2,0,P|327:275|368:329,1,100,8|8,0:3|0:0,0:0:0:0:
134,192,250788,1,8,0:3:0:0:
134,192,250872,1,0,0:0:0:0:
134,192,250955,6,0,L|343:192,1,200,6|8,0:0|0:0,0:0:0:0:
466,131,251455,2,0,P|477:87|461:30,1,100,8|2,0:3|0:0,0:0:0:0:
466,253,251788,2,0,P|477:297|461:354,1,100,8|8,0:3|0:0,0:0:0:0:
383,85,252122,2,0,L|276:86,1,100,8|2,0:3|0:0,0:0:0:0:
283,298,252455,2,0,L|383:299,1,100,8|8,0:3|0:0,0:0:0:0:
512,193,252788,1,8,0:3:0:0:
342,192,252955,2,0,L|135:192,1,200,2|8,0:0|0:0,0:0:0:0:
217,37,253455,1,8,0:3:0:0:
54,100,253622,6,0,P|23:193|70:301,1,200,6|8,0:0|0:0,0:0:0:0:
219,344,254122,2,0,P|228:292|210:235,1,100,8|2,0:3|0:0,0:0:0:0:
218,37,254455,2,0,P|227:89|209:146,1,100,8|8,0:3|0:0,0:0:0:0:
314,343,254788,2,0,P|305:291|323:234,1,100,8|2,0:3|0:0,0:0:0:0:
315,36,255121,2,0,P|306:88|324:145,1,100,8|8,0:3|0:0,0:0:0:0:
419,245,255455,2,0,P|430:293|421:342,1,100,8|2,0:3|0:0,0:0:0:0:
419,139,255788,2,0,P|430:90|421:41,1,100,8|8,0:3|0:0,0:0:0:0:
308,192,256122,1,8,0:3:0:0:
308,192,256205,1,0,0:0:0:0:
308,192,256288,6,0,B|255:211|205:191|205:191|163:173|106:193,1,200,6|8,0:0|0:0,0:0:0:0:
36,28,256788,2,0,L|35:140,1,100,8|2,0:3|0:0,0:0:0:0:
36,356,257122,2,0,L|35:244,1,100,8|8,0:3|0:0,0:0:0:0:
124,26,257455,2,0,L|123:138,1,100,8|2,0:3|0:0,0:0:0:0:
124,354,257789,2,0,L|123:242,1,100,8|8,0:3|0:0,0:0:0:0:
209,26,258122,2,0,L|208:138,1,100,8|2,0:3|0:0,0:0:0:0:
209,354,258455,1,8,0:3:0:0:
306,191,258622,2,0,L|346:191,7,37.5000014305115
388,191,258955,6,0,B|406:142|385:64|385:64|376:113|323:124|323:124|303:87|314:47|314:47|288:17|256:51|256:51|222:18|196:47|196:47|213:91|192:126|192:126|137:113|125:63|125:63|88:126|121:191,1,750,6|0,0:0|0:0,0:0:0:0:
203,233,260288,2,0,B|224:271|217:304|217:304|256:335|256:335|297:306|297:306|289:272|312:227,1,250
374,282,260788,2,0,B|313:294|256:262|256:262|203:293|126:282,1,250
78,208,261288,2,0,P|55:146|88:55,1,150,8|0,0:0|0:0,0:0:0:0:
155,25,261622,6,0,B|189:64|264:19|264:19|274:60|274:60|260:92|260:92|271:121|271:121|260:157|260:157|273:221|273:221|332:188|332:188|348:151|348:151|373:135|373:135|386:106|386:106|431:102|431:102|411:194|502:245,1,700,6|0,0:0|0:0,0:0:0:0:
350,354,262955,6,0,P|286:381|192:352,1,150
273,301,263288,6,0,P|230:286|193:211,1,120
277,218,263622,6,0,P|265:175|287:123,1,97.4999955368044
345,179,263955,6,0,P|363:150|407:135,1,75
427,214,264288,6,0,B|371:239|390:320|390:320|305:281|257:382|257:382|210:278|125:326|125:326|147:239|63:198,1,600,6|0,0:0|0:0,0:0:0:0:
36,112,265455,1,0,0:0:0:0:
36,112,265622,2,0,B|78:74|71:11|71:11|125:65|195:26|195:26|176:81|224:134,1,350,6|0,0:0|0:0,0:0:0:0:
297,122,266288,2,0,B|336:81|317:26|317:26|387:65|441:11|441:11|434:74|476:112,1,350,2|0,0:0|0:0,0:0:0:0:
456,212,266955,6,0,B|443:281|443:281|406:242|349:277|349:277|396:315|350:375|350:375|309:337|256:367|256:367|203:333|154:376|154:376|121:304|166:274|166:274|103:233|63:278|63:278|39:202,1,800,6|2,0:0|0:0,0:0:0:0:
173,63,268455,1,8,0:3:0:0:
256,205,268622,1,8,0:0:0:0:
339,63,268788,1,2,0:0:0:0:
339,63,268872,1,2,0:0:0:0:
339,63,268955,1,8,0:0:0:0:
172,166,269122,1,8,0:0:0:0:
154,175,269205,1,4,0:3:0:0:
136,184,269288,1,8,0:0:0:0:
118,194,269372,1,4,0:3:0:0:
100,204,269455,1,8,0:0:0:0:
412,204,269622,5,12,0:0:0:0:
255,357,269788,1,12,0:0:0:0:
256,118,269955,1,8,0:0:0:0:
339,285,270122,1,2,0:0:0:0:
173,285,270288,1,8,0:0:0:0:
421,112,270455,1,4,0:3:0:0:
421,112,270538,1,4,0:3:0:0:
421,112,270622,1,4,0:3:0:0:
91,112,270788,1,6,0:0:0:0:
256,192,270872,12,0,276955,0:0:0:0:
