osu file format v14

[General]
AudioFilename: audio.mp3
AudioLeadIn: 0
PreviewTime: 288212
Countdown: 0
SampleSet: Soft
StackLeniency: 0.7
Mode: 0
LetterboxInBreaks: 0
WidescreenStoryboard: 1

[Editor]
Bookmarks: 1540,62171,87434,137961,158171,183434,223855,223934,224013,224092,224171,224250,224329,224408,224487,224566,224645,224724,224803,224882,224961,225040,225118,225197,225276,225355,225434,225513,225592,225671,225750,225829,225908,225987,226066,226145,226224,226303,226382,226461,226540,226618,226697,226776,226855,226934,227013,227092,227171,227250,227329,227408,227487,227566,227645,227724,227803,227882,227961,228040,228118,228197,228276,228355,228434,228513,228592,228671,228750,228829,228908,228987,229066,229145,229224,229303,229382,229461,229540,229618,229697,229776,229855,229934,230013,230092,230171,230250,230329,230408,230487,230566,230645,230724,230803,230882,230961,231040,231118,231197,231276,231355,231434,231513,231592,231671,231750,231829,231908,231987,232066,232145,232224,232303,232382,232461,232540,232618,232697,268066,308487,348908,379224,409540
DistanceSpacing: 0.9
BeatDivisor: 4
GridSize: 32
TimelineZoom: 4.899998

[Metadata]
Title:fragment ornament
TitleUnicode:fragment ornament
Artist:Wakeshima Kanon
ArtistUnicode:分島花音
Creator:Deca
Version:promises
Source:
Tags:iljaaz attendant DECADE 10th anniversary best album cello japanese pop shota horie 堀江 晶太 ほりえ しょうた
BeatmapID:2348775
BeatmapSetID:1124057

[Difficulty]
HPDrainRate:6
CircleSize:4.1
OverallDifficulty:9
ApproachRate:9.3
SliderMultiplier:1.6
SliderTickRate:1

[Events]
//Background and Video events
0,0,"78265249_p0.jpg",0,0
//Break Periods
2,19442,21214
2,224705,232161
2,264494,266267
//Storyboard Layer 0 (Background)
//Storyboard Layer 1 (Fail)
//Storyboard Layer 2 (Pass)
//Storyboard Layer 3 (Foreground)
//Storyboard Layer 4 (Overlay)
//Storyboard Sound Samples

[TimingPoints]
1558,315.789473684211,4,2,24,35,1,0
1558,-133.333333333333,4,2,24,35,0,0
5347,-181.818181818181,4,2,24,35,0,0
11663,-142.857142857143,4,2,24,35,0,0
12926,-125,4,2,24,35,0,0
14189,-142.857142857143,4,2,24,35,0,0
21768,-125,4,2,24,45,0,0
29347,-111.111111111111,4,2,25,45,0,0
31084,-111.111111111111,4,2,1,45,0,0
31242,-249.999999999999,4,2,1,45,0,0
31321,-249.999999999999,4,2,11,5,0,0
31873,-90.9090909090909,4,2,1,70,0,0
35663,-80,4,2,1,70,0,0
35979,-90.9090909090909,4,2,1,70,0,0
36926,-80,4,2,1,70,0,0
37242,-90.9090909090909,4,2,1,70,0,0
39452,-80,4,2,1,70,0,0
41979,-111.111111111111,4,2,1,70,0,0
42294,-111.111111111111,4,2,24,45,0,0
44505,-100,4,2,24,45,0,0
45136,-111.111111111111,4,2,24,45,0,0
52084,-90.9090909090908,4,2,24,45,0,0
52558,-100,4,2,24,45,0,0
59347,-90.9090909090909,4,2,25,40,0,0
59663,-90.9090909090909,4,2,1,50,0,0
60926,-90.9090909090909,4,2,1,60,0,0
62189,-90.9090909090909,4,2,1,55,0,0
62663,-76.9230769230769,4,2,1,55,0,0
63452,-76.9230769230769,4,2,32,55,0,0
63610,-76.9230769230769,4,2,1,55,0,0
63768,-76.9230769230769,4,2,32,55,0,0
63926,-76.9230769230769,4,2,1,55,0,0
64084,-100,4,2,1,55,0,0
64400,-100,4,2,32,55,0,0
64715,-100,4,2,1,55,0,0
65031,-100,4,2,32,55,0,0
65189,-100,4,2,1,55,0,0
65979,-100,4,2,32,55,0,0
66137,-100,4,2,1,55,0,0
66295,-100,4,2,32,55,0,0
66453,-100,4,2,1,55,0,0
68505,-100,4,2,32,55,0,0
68663,-100,4,2,1,55,0,0
84926,-100,4,2,1,35,0,0
87452,-90.9090909090909,4,2,1,75,0,0
91558,-80,4,2,1,75,0,0
92347,-90.9090909090909,4,2,1,75,0,0
95347,-80,4,2,1,75,0,0
99452,-95.2380952380952,4,2,1,75,0,0
100084,-80,4,2,1,75,0,0
102610,-90.9090909090909,4,2,1,75,0,0
105136,-71.4285714285714,4,2,1,75,0,0
107663,-90.9090909090909,4,2,1,75,0,0
108926,-80,4,2,1,75,0,0
109558,-90.9090909090909,4,2,1,75,0,0
111452,-80,4,2,1,75,0,0
113189,-90.9090909090909,4,2,1,75,0,0
115242,-80,4,2,1,75,0,0
122031,-60.6060606060606,4,2,1,75,0,0
122505,-68.9655172413793,4,2,1,75,0,0
122821,-100,4,2,1,75,0,0
125347,-142.857142857143,4,2,1,75,0,0
125426,-142.857142857143,4,2,11,5,0,0
126610,-90.909090909091,4,2,1,75,0,0
127873,-90.909090909091,4,2,1,70,0,0
132926,-80,4,2,1,70,0,0
133242,-90.909090909091,4,2,1,70,0,0
137031,-80,4,2,1,70,0,0
137979,-111.111111111111,4,2,1,55,0,0
148084,-99.9999999999999,4,2,1,55,0,0
157242,-83.3333333333333,4,2,1,55,0,0
158505,-90.9090909090909,4,2,1,55,0,0
159452,-90.9090909090909,4,2,32,55,0,0
159610,-90.9090909090909,4,2,1,55,0,0
161979,-90.9090909090909,4,2,32,55,0,0
162136,-90.9090909090909,4,2,1,55,0,0
162926,-83.3333333333333,4,2,1,55,0,0
163873,-90.9090909090909,4,2,1,55,0,0
164189,-83.3333333333333,4,2,1,55,0,0
164505,-83.3333333333333,4,2,32,55,0,0
164663,-83.3333333333333,4,2,1,55,0,0
164821,-90.9090909090909,4,2,1,55,0,0
167031,-80,4,2,32,55,0,0
167189,-80,4,2,1,55,0,0
168294,-111.111111111111,4,2,1,55,0,0
177136,-90.9090909090908,4,2,1,55,0,0
178715,-90.9090909090908,4,2,1,40,0,0
179031,-90.9090909090908,4,2,1,45,0,0
179347,-90.9090909090908,4,2,1,50,0,0
179663,-90.9090909090908,4,2,1,55,0,0
179979,-90.9090909090908,4,2,1,60,0,0
180294,-90.9090909090908,4,2,1,65,0,0
180610,-90.9090909090908,4,2,1,70,0,0
180926,-90.9090909090908,4,2,1,65,0,0
183452,-90.9090909090908,4,2,1,75,0,0
185663,-80,4,2,1,75,0,0
186294,-90.9090909090908,4,2,1,75,0,0
186926,-80,4,2,1,75,0,0
187242,-90.9090909090908,4,2,1,75,0,0
193558,-80,4,2,1,75,0,0
202715,-71.4285714285714,4,2,1,75,0,0
203663,-80,4,2,1,75,0,0
206189,-90.9090909090908,4,2,1,75,0,0
211242,-80,4,2,1,75,0,0
212821,-71.4285714285714,4,2,1,75,0,0
213768,-80,4,2,1,75,0,0
223873,-125,4,2,1,45,0,0
233821,-125,4,2,1,35,0,0
233979,-125,4,2,1,55,0,0
245347,-142.857142857143,4,2,1,55,0,0
249768,-111.111111111111,4,2,1,55,0,0
250084,-111.111111111111,4,2,45,55,0,0
250400,-111.111111111111,4,2,1,55,0,0
251347,-166.666666666666,4,2,1,55,0,0
251663,-100,4,2,1,55,0,0
252294,-86.9565217391304,4,2,1,55,0,0
252926,-86.9565217391304,4,2,1,45,0,0
253084,-76.9230769230769,4,2,1,45,0,0
253242,-76.9230769230769,4,2,1,55,0,0
253558,-76.9230769230769,4,2,1,65,0,0
253873,-76.9230769230769,4,2,1,75,0,0
254189,-76.9230769230769,4,2,1,65,0,0
256242,-142.857142857143,4,2,1,65,0,0
257821,-90.909090909091,4,2,1,65,0,0
259084,-100,4,2,1,65,0,0
259242,-100,4,2,1,55,0,0
259558,-100,4,2,32,55,0,0
259715,-100,4,2,1,55,0,0
260189,-100,4,2,32,55,0,0
260346,-100,4,2,1,55,0,0
260821,-100,4,2,32,55,0,0
260978,-100,4,2,1,55,0,0
261452,-100,4,2,32,55,0,0
261609,-100,4,2,1,55,0,0
261768,-100,4,2,1,65,0,0
262084,-100,4,2,1,45,0,0
262400,-90.9090909090909,4,2,1,50,0,0
262715,-90.9090909090909,4,2,1,55,0,0
263031,-90.9090909090909,4,2,1,60,0,0
263347,-90.9090909090909,4,2,1,65,0,0
263663,-83.3333333333333,4,2,1,70,0,0
263979,-83.3333333333333,4,2,1,75,0,0
264294,-83.3333333333333,4,2,1,35,0,0
268084,-90.9090909090909,4,2,1,65,0,0
278189,-86.9565217391304,4,2,1,65,0,0
288294,-80,4,2,1,75,0,0
306610,-80,4,2,1,35,0,0
306768,-80,4,2,1,45,0,0
306926,-80,4,2,1,55,0,0
307084,-80,4,2,1,65,0,0
307242,-80,4,2,1,45,0,0
307558,-80,4,2,1,55,0,0
307873,-80,4,2,1,65,0,0
308189,-80,4,2,1,75,0,0
308505,-83.3333333333333,4,2,1,75,0,0
313084,-76.9230769230769,4,2,1,75,0,0
313242,-71.4285714285714,4,2,1,75,0,0
313558,-83.3333333333333,4,2,1,75,0,0
314821,-74.0740740740741,4,2,1,75,0,0
318610,-83.3333333333333,4,2,1,75,0,0
319084,-66.6666666666667,4,2,1,75,0,0
319242,-74.0740740740741,4,2,1,75,0,0
320031,-66.6666666666667,4,2,1,75,0,0
320189,-74.0740740740741,4,2,1,75,0,0
322084,-83.3333333333333,4,2,1,75,0,0
326663,-76.9230769230769,4,2,1,75,0,0
326979,-71.4285714285714,4,2,1,75,0,0
327294,-66.6666666666667,4,2,1,75,0,0
329031,-83.3333333333333,4,2,1,75,0,0
330136,-66.6666666666667,4,2,1,75,0,0
330294,-83.3333333333333,4,2,1,75,0,0
332821,-74.0740740740741,4,2,1,75,0,0
333768,-83.3333333333333,4,2,1,75,0,0
336294,-74.0740740740741,4,2,1,75,0,0
337558,-83.3333333333333,4,2,1,75,0,0
343873,-74.0740740740741,4,2,1,75,0,0
345136,-83.3333333333333,4,2,1,75,0,0
347979,-74.0740740740741,4,2,1,75,0,0
348610,-66.6666666666667,4,2,1,75,0,0
348768,-58.8235294117647,4,2,1,75,0,0
348926,-66.6666666666667,4,2,1,75,0,0
349242,-74.0740740740741,4,2,1,75,0,0
369136,-48.780487804878,4,2,1,75,0,0
369452,-74.0740740740741,4,2,1,75,0,0
381768,-66.6666666666667,4,2,1,75,0,0
383663,-74.0740740740741,4,2,1,75,0,0
387136,-66.6666666666667,4,2,1,75,0,0
389663,-74.0740740740741,4,2,1,75,0,0
399531,-74.0740740740741,4,2,1,65,0,0
400715,-74.0740740740741,4,2,1,55,0,0
401979,-74.0740740740741,4,2,1,45,0,0
403242,-74.0740740740741,4,2,1,35,0,0
404505,-74.0740740740741,4,2,1,25,0,0
405768,-74.0740740740741,4,2,1,15,0,0
407031,-74.0740740740741,4,2,1,5,0,0
408294,-74.0740740740741,4,2,1,5,0,0
409558,-74.0740740740741,4,2,1,5,0,0

[Colours]
Combo1 : 235,153,103
Combo2 : 60,174,213
Combo3 : 235,146,148
Combo4 : 147,135,201

[HitObjects]
189,241,1558,6,0,B|282:173|356:232|356:232|318:246|237:185|234:78|337:35|385:75|393:140|321:131,1,480.000018310548,2|2,0:0|0:0,0:0:0:0:
173,105,4084,2,0,B|91:158|21:53|65:-37|264:-9|272:162|202:202|89:126|96:246|117:297|158:290,1,450.000017166138,2|0,0:0|0:0,0:0:0:0:
125,303,5347,2,0,B|271:272|201:399|385:350,1,264.000008056641,2|0,0:0|0:0,0:0:0:0:
448,274,6610,5,2,0:0:0:0:
334,205,7242,1,2,0:0:0:0:
260,249,7873,2,0,P|270:299|268:383,1,132.00000402832,2|0,0:0|0:0,0:0:0:0:
251,384,8505,1,2,0:0:0:0:
177,256,9136,2,0,B|70:238|113:321|-2:288,1,176.000005371094,2|0,0:0|0:0,0:0:0:0:
142,109,10400,2,0,B|146:85|146:85|106:55|106:55|37:56|-15:134|41:204,1,264.000008056641,2|0,0:0|0:0,0:0:0:0:
174,190,11663,6,0,B|281:163|281:163|271:207|302:236,1,167.999994873047,2|0,0:0|0:0,0:0:0:0:
505,240,12294,2,0,B|451:223|451:223|414:176|414:176|356:158,1,167.999994873047,2|0,0:0|0:0,0:0:0:0:
272,51,12926,2,0,B|208:38|240:-21|310:-12|340:41|283:138,1,223.999993164063,2|0,0:0|0:0,0:0:0:0:
276,151,13558,1,2,0:0:0:0:
45,267,14189,6,0,B|136:247|97:307|209:288,1,167.999994873047,2|0,0:0|0:0,0:0:0:0:
424,335,14821,2,0,B|473:296|414:232|414:232|360:244,1,167.999994873047,2|0,0:0|0:0,0:0:0:0:
259,160,15452,2,0,B|269:238|269:238|274:246|274:246|287:340,1,167.999994873047,2|0,0:0|0:0,0:0:0:0:
212,370,16084,2,0,P|182:362|151:362,1,55.9999982910157,2|0,0:0|0:0,0:0:0:0:
161,284,16400,2,0,P|128:289|100:300,1,55.9999982910157,2|0,0:0|0:0,0:0:0:0:
71,212,16715,2,0,B|143:180|177:127|143:44|125:-19|24:-10|4:43|-33:120|72:171|173:89|200:74|200:74|299:14|359:24|421:70|382:169|339:209|262:208|234:139|294:107|316:128,1,867.999973510743,2|0,0:0|0:0,0:0:0:0:
308,123,19242,1,6,0:0:0:0:
62,129,21768,6,0,B|100:121|100:121|150:126|150:126|198:115,1,128,14|8,0:0|0:0,0:0:0:0:
213,103,22242,2,0,P|217:152|223:183,1,64,2|8,0:0|0:0,0:0:0:0:
334,227,22715,6,0,B|404:184|404:184|342:174,1,128,10|8,0:0|0:0,0:0:0:0:
249,245,23189,2,0,B|251:327|251:327|290:278,1,128,2|0,0:0|0:0,0:0:0:0:
275,162,23663,2,0,B|202:122|202:122|225:181,1,128,10|8,0:0|0:0,0:0:0:0:
157,266,24294,5,10,0:0:0:0:
157,266,24452,2,0,B|74:272|124:314|11:301,1,128,2|2,0:0|0:0,0:0:0:0:
162,346,24926,2,0,B|180:349|180:349|226:376|226:376|262:383,1,96,8|0,0:0|0:0,0:0:0:0:
249,380,25242,2,0,P|252:327|264:248,1,128,10|8,0:0|0:0,0:0:0:0:
275,234,25715,2,0,P|267:266|262:302,1,64,2|8,0:0|0:0,0:0:0:0:
424,244,26189,2,0,P|411:195|337:187,1,128,10|8,0:0|0:0,0:0:0:0:
218,119,26821,6,0,B|177:114|177:114|169:110|169:110|83:100,1,128,10|8,0:0|0:0,0:0:0:0:
68,67,27294,2,0,P|77:112|79:149,1,64,2|8,0:0|0:0,0:0:0:0:
71,221,27610,1,2,0:0:0:0:
18,288,27768,2,0,P|68:271|163:264,1,128,10|10,0:0|0:0,0:0:0:0:
213,200,28242,2,0,P|219:238|227:278,1,64,2|8,0:0|0:0,0:0:0:0:
299,315,28558,1,2,0:0:0:0:
302,187,28715,2,0,P|299:247|299:336,1,128,10|10,0:0|0:0,0:0:0:0:
305,45,29347,6,0,B|340:35|340:35|406:58|375:126,1,143.999995605469,10|10,0:0|0:0,0:0:0:0:
226,99,29821,2,0,B|190:105|190:105|137:134|137:134|73:142,1,143.999995605469,2|2,0:0|0:0,0:0:0:0:
41,67,30294,2,0,P|90:62|119:56,1,71.9999978027344,10|0,0:0|0:0,0:0:0:0:
281,154,30610,1,8,0:0:0:0:
229,271,30768,1,2,0:0:0:0:
178,180,30926,1,10,0:0:0:0:
403,292,31084,5,0,3:2:0:0:
403,292,31163,1,0,3:2:0:0:
403,292,31242,2,0,P|399:239|396:177,1,112,12|0,3:2|0:0,0:0:0:0:
407,157,31873,6,0,B|375:151|375:151|320:180|320:180|260:164,1,132.00000402832,6|0,1:2|0:0,0:0:0:0:
254,157,32189,2,0,P|263:203|264:252,1,88.000002685547,10|0,1:2|0:0,0:0:0:0:
105,90,32505,2,0,P|88:140|82:182,1,88.000002685547,2|0,1:2|3:2,0:0:0:0:
8,275,32821,1,10,1:2:0:0:
165,252,32979,1,0,3:2:0:0:
165,252,33057,1,8,3:2:0:0:
165,252,33136,2,0,B|275:257|203:312|342:304,1,176.000005371094,2|8,1:2|1:2,0:0:0:0:
413,228,33610,1,0,0:0:0:0:
448,348,33768,5,2,1:2:0:0:
322,213,33926,1,0,3:2:0:0:
475,141,34084,2,0,P|493:186|487:254,1,88.000002685547,8|0,1:2|3:2,0:0:0:0:
510,298,34321,1,8,3:2:0:0:
510,298,34400,2,0,P|416:311|321:337,1,176.000005371094,2|10,1:2|1:2,0:0:0:0:
240,291,34873,1,0,0:0:0:0:
365,221,35031,5,2,1:2:0:0:
285,181,35189,1,0,3:2:0:0:
153,262,35347,5,10,1:2:0:0:
59,295,35505,1,0,0:0:0:0:
48,61,35663,6,0,B|145:76|145:76|120:104|123:137,1,150,2|0,1:2|0:0,0:0:0:0:
121,146,35979,2,0,B|150:145|150:145|180:151|180:151|228:144,1,88.000002685547,8|0,1:2|0:0,0:0:0:0:
317,94,36294,1,2,1:2:0:0:
405,133,36452,1,0,3:2:0:0:
304,256,36610,2,0,P|281:218|290:160,1,88.000002685547,8|0,1:2|0:0,0:0:0:0:
474,72,36926,6,0,P|520:112|494:214,1,150,6|0,1:2|0:0,0:0:0:0:
512,225,37242,2,0,P|450:212|399:204,1,88.000002685547,10|0,1:2|0:0,0:0:0:0:
373,303,37558,1,2,1:2:0:0:
273,342,37715,1,0,3:2:0:0:
146,207,37873,2,0,P|151:164|151:112,1,88.000002685547,10|0,1:2|0:0,0:0:0:0:
0,312,38189,6,0,B|33:293|72:322|72:322|78:335|78:335|122:384|178:338,1,176.000005371094,2|8,1:2|1:2,0:0:0:0:
242,201,38663,1,0,0:0:0:0:
366,346,38821,1,2,1:2:0:0:
189,278,38979,1,0,3:2:0:0:
346,130,39136,6,0,P|363:182|343:237,1,88.000002685547,8|0,1:2|3:2,0:0:0:0:
420,280,39373,1,8,3:2:0:0:
420,280,39452,2,0,B|347:289|347:289|309:329|309:329|224:340,2,200,2|10|2,1:2|1:2|1:2,0:0:0:0:
236,249,40242,1,0,3:2:0:0:
133,374,40400,2,0,P|113:334|138:267,1,100,10|0,1:2|0:0,0:0:0:0:
234,124,40715,5,2,1:2:0:0:
332,203,40873,1,2,3:2:0:0:
60,213,41031,5,12,1:2:0:0:
157,180,41189,1,0,3:2:0:0:
260,280,41347,5,14,3:2:0:0:
291,310,41425,1,0,3:2:0:0:
333,322,41504,1,0,3:2:0:0:
375,311,41583,1,0,3:2:0:0:
395,282,41663,1,14,3:2:0:0:
430,257,41741,1,4,3:3:0:0:
474,257,41820,1,4,3:3:0:0:
510,281,41899,1,4,3:3:0:0:
506,294,41979,6,0,P|492:235|490:131,1,143.999995605469,6|0,3:2|3:2,0:0:0:0:
234,106,42452,2,0,B|256:57|306:60|306:60|324:92|376:96,1,143.999995605469,2|0,0:2|0:0,0:0:0:0:
512,75,42926,2,0,B|475:63|475:63|422:25|422:25|367:11,1,143.999995605469,10|8,0:2|0:2,0:0:0:0:
366,178,43400,1,2,0:0:0:0:
431,239,43558,2,0,P|445:193|425:119,1,107.999996704102,8|0,0:2|0:0,0:0:0:0:
428,116,43873,1,10,0:2:0:0:
194,229,44189,6,0,P|242:236|287:252,1,71.9999978027344,10|0,0:2|0:0,0:0:0:0:
131,324,44505,2,0,B|208:375|208:375|192:217,1,240,2|2,0:2|0:2,0:0:0:0:
217,140,45136,2,0,B|146:132|179:174|88:155,1,107.999996704102,8|0,0:2|0:0,0:0:0:0:
92,169,45452,2,0,P|69:128|145:76,1,143.999995605469,10|8,0:2|0:2,0:0:0:0:
217,47,45926,1,2,0:0:0:0:
285,67,46084,2,0,P|234:53|189:34,1,71.9999978027344,8|0,0:2|0:0,0:0:0:0:
396,7,46400,6,0,P|384:59|376:141,1,107.999996704102,10|0,0:2|0:0,0:0:0:0:
370,138,46715,2,0,P|403:126|438:117,1,71.9999978027344,10|0,0:2|0:0,0:0:0:0:
354,225,47031,1,10,0:0:0:0:
157,176,47347,5,8,0:0:0:0:
157,176,47505,2,0,B|224:228|212:335|134:344|80:316|77:279|130:228|193:269,1,287.999991210938,2|0,0:0|0:0,0:0:0:0:
257,334,48294,1,8,0:0:0:0:
320,288,48452,2,0,B|357:261|399:269|399:269|406:317|448:333,1,143.999995605469,2|0,0:0|0:0,0:0:0:0:
508,329,48926,1,8,0:0:0:0:
485,153,49242,6,0,P|463:188|468:228,1,71.9999978027344,10|0,0:0|0:0,0:0:0:0:
365,161,49558,2,0,B|267:137|309:192|202:153,1,143.999995605469,10|8,0:0|0:0,0:0:0:0:
166,95,50031,1,2,0:0:0:0:
80,240,50189,2,0,P|109:213|101:138,1,107.999996704102,10|0,0:0|0:0,0:0:0:0:
30,133,50505,2,0,P|10:160|8:208,1,71.9999978027344,8|0,0:0|0:0,0:0:0:0:
237,301,50821,6,0,B|296:287|295:225|187:179|89:288|89:305,1,251.999992309571,10|0,0:0|0:0,0:0:0:0:
71,319,51452,1,10,0:0:0:0:
3,249,51610,1,0,3:2:0:0:
200,138,51768,5,8,0:0:0:0:
76,198,51926,1,0,3:2:0:0:
189,346,52084,6,0,B|241:345|291:369|291:369|342:357|315:293,1,176.000005371094,6|8,3:2|0:0,0:0:0:0:
328,225,52558,2,0,P|331:264|338:315,1,80,2|8,0:0|0:0,0:0:0:0:
121,149,53031,2,0,B|110:94|172:79|172:79|157:123|178:153,1,160,10|8,0:0|0:0,0:0:0:0:
248,178,53505,2,0,B|108:147|165:231|39:177,1,200,2|0,0:0|0:0,0:0:0:0:
32,153,53979,2,0,B|38:185|38:185|31:206|31:206|34:233,1,80,10|0,0:0|0:0,0:0:0:0:
121,366,54294,1,10,0:0:0:0:
289,269,54452,1,2,3:2:0:0:
179,212,54610,2,0,B|185:264|185:264|219:305|219:305|227:369,1,160,10|8,3:2|0:0,0:0:0:0:
367,294,55084,6,0,P|381:249|314:189,1,120,2|0,0:0|0:0,0:0:0:0:
331,189,55400,1,0,0:0:0:0:
377,102,55558,2,0,B|291:92|324:160|200:119,1,160,10|8,0:0|0:0,0:0:0:0:
142,104,56031,2,0,B|105:113|105:113|147:127,2,80,2|8|0,0:0|0:0|0:0,0:0:0:0:
301,35,56505,1,10,0:0:0:0:
377,102,56663,2,0,P|387:52|364:4,1,80,2|8,0:0|0:0,0:0:0:0:
224,126,56979,5,2,0:0:0:0:
224,126,57058,1,2,0:0:0:0:
224,126,57136,2,0,P|237:176|235:299,1,160,12|10,0:0|0:0,0:0:0:0:
224,300,57610,1,2,0:0:0:0:
330,245,57768,1,10,0:0:0:0:
275,368,58084,5,10,0:0:0:0:
174,384,58242,1,2,0:0:0:0:
113,224,58558,5,2,0:0:0:0:
1,165,58715,1,10,0:0:0:0:
242,158,59031,6,0,P|267:151|291:231,1,120,10|0,0:0|0:0,0:0:0:0:
330,245,59347,2,0,B|244:243|291:293|205:292,1,132.00000402832,10|0,0:0|0:0,0:0:0:0:
134,330,59663,5,2,1:2:0:0:
120,42,59979,2,0,P|144:78|203:125,1,88.000002685547,0|0,1:2|0:0,0:0:0:0:
0,188,60294,2,0,P|19:149|30:74,1,88.000002685547,2|0,1:2|0:0,0:0:0:0:
187,218,60610,2,0,P|143:220|73:248,1,88.000002685547,0|0,1:2|0:0,0:0:0:0:
272,102,60926,5,10,1:2:0:0:
291,119,61031,2,0,P|338:130|372:137,1,58.6666684570313,0|0,3:2|3:2,0:0:0:0:
277,236,61242,5,8,3:3:0:0:
324,246,61347,2,0,P|370:232|403:221,1,58.6666684570313,8|8,3:2|3:2,0:0:0:0:
472,44,61558,5,10,3:2:0:0:
510,81,61663,1,4,3:3:0:0:
509,135,61768,1,4,3:3:0:0:
477,155,61873,1,4,3:3:0:0:
456,206,61979,1,4,3:3:0:0:
493,251,62084,1,4,3:3:0:0:
510,237,62189,1,6,3:2:0:0:
336,38,62347,1,2,3:2:0:0:
336,38,62663,6,0,B|266:66|266:66|216:161|283:192,1,207.999990478516,8|0,0:0|0:0,0:0:0:0:
413,5,63136,1,2,1:2:0:0:
183,57,63294,2,0,B|278:63|269:148|386:125,1,207.999990478516,0|8,3:2|3:2,0:0:0:0:
183,57,63768,1,10,0:2:0:0:
109,213,63926,1,2,3:2:0:0:
22,127,64084,6,0,B|17:114|17:114|100:132,1,80,8|0,1:2|3:2,0:0:0:0:
174,261,64400,2,0,P|115:250|66:296,1,120,10|0,0:0|0:0,0:0:0:0:
60,308,64715,5,6,1:2:0:0:
258,176,64873,2,0,B|301:189|301:189|315:206|315:206|378:224,1,120,2|0,3:2|0:0,0:0:0:0:
375,125,65189,6,0,B|325:153|269:178|269:178|294:232|316:289,1,240,12|2,3:2|1:2,0:0:0:0:
389,109,65821,2,0,P|347:98|288:64,1,80,2|8,3:2|0:2,0:0:0:0:
464,236,66136,1,8,3:2:0:0:
303,317,66294,2,0,P|261:326|215:342,1,80,8|8,0:2|3:2,0:0:0:0:
197,361,66531,1,8,3:2:0:0:
197,361,66610,5,8,3:2:0:0:
258,176,66768,1,8,3:3:0:0:
182,133,66926,5,4,3:3:0:0:
143,17,67084,1,4,3:3:0:0:
336,206,67242,5,6,3:2:0:0:
59,306,67400,2,0,B|103:290|135:318|135:318|158:368|227:360,1,160,2|14,3:2|1:2,0:0:0:0:
59,306,68189,5,2,1:2:0:0:
267,100,68347,2,0,P|208:134|214:227,1,160,2|8,3:2|3:2,0:0:0:0:
336,332,68821,2,0,L|423:356,1,80,10|8,1:2|3:2,0:0:0:0:
482,375,69058,1,8,3:2:0:0:
498,381,69136,1,10,3:2:0:0:
379,241,69294,1,8,3:2:0:0:
477,125,69452,2,0,B|519:168|519:168|482:244,1,120,0|0,1:2|0:0,0:0:0:0:
477,241,69768,5,6,3:2:0:0:
324,74,69926,2,0,B|267:57|267:57|252:86|214:102,1,120,2|0,3:2|0:0,0:0:0:0:
192,28,70242,2,0,B|254:45|254:45|277:77|277:77|341:96,1,160,12|0,1:2|0:0,0:0:0:0:
162,227,70715,1,2,1:2:0:0:
106,169,70873,1,2,3:2:0:0:
328,235,71031,6,0,L|299:335,1,80,10|8,1:2|3:2,0:0:0:0:
106,169,71347,2,0,B|123:230|123:230|155:247|155:247|172:314,1,160,10|4,1:2|1:3,0:0:0:0:
89,367,71742,1,0,3:2:0:0:
57,349,71821,1,0,3:2:0:0:
42,314,71900,1,0,3:2:0:0:
60,282,71979,1,14,3:2:0:0:
92,259,72058,1,8,3:2:0:0:
124,230,72136,1,8,3:2:0:0:
128,185,72215,1,8,3:2:0:0:
106,169,72294,6,0,B|92:127|74:96|74:96|110:78|161:45,1,160,6|2,1:2|1:2,0:0:0:0:
278,142,72768,2,0,L|378:170,2,80,2|0|2,1:2|1:2|0:0,0:0:0:0:
368,7,73242,2,0,B|406:-2|406:-2|460:30|442:87,1,120,0|0,1:2|0:0,0:0:0:0:
381,99,73558,6,0,L|403:206,1,80,2|0,1:2|0:2,0:0:0:0:
269,355,73873,2,0,L|291:248,1,80,2|0,1:2|0:2,0:0:0:0:
381,99,74189,1,0,1:2:0:0:
209,224,74347,2,0,P|160:219|130:182,1,80,8|2,3:2|1:2,0:0:0:0:
209,224,74821,6,0,B|164:197|126:231|126:231|93:280|38:268,1,160,6|2,1:2|1:2,0:0:0:0:
246,143,75294,2,0,P|282:159|329:169,1,80,2|0,0:0|1:2,0:0:0:0:
203,356,75610,2,0,P|237:341|289:332,2,80,2|0|2,0:0|1:2|0:0,0:0:0:0:
295,241,76084,5,0,1:2:0:0:
121,73,76242,2,0,B|95:96|95:96|191:122,1,120,8|0,3:2|0:0,0:0:0:0:
246,143,76558,1,8,3:2:0:0:
290,56,76715,5,0,3:2:0:0:
133,182,76873,1,10,3:2:0:0:
306,264,77031,2,0,P|325:300|324:354,2,80,0|2|6,1:2|0:0|1:2,0:0:0:0:
299,259,77663,6,0,P|259:276|207:289,1,80,0|0,1:2|0:0,0:0:0:0:
349,145,77979,2,0,P|395:127|476:196,1,160,0|2,1:2|1:2,0:0:0:0:
314,64,78452,1,2,0:0:0:0:
472,198,78610,6,0,B|391:197|398:258|293:236,1,160,0|0,1:2|1:2,0:0:0:0:
96,32,79242,5,2,1:2:0:0:
258,160,79400,1,8,3:2:0:0:
194,206,79558,2,0,P|153:209|115:179,1,80,2|0,1:2|3:2,0:0:0:0:
45,181,79794,1,0,3:2:0:0:
45,181,79873,6,0,B|82:160|128:173|128:173|157:209|212:205,2,160,6|0|0,1:2|1:2|1:2,0:0:0:0:
207,214,80821,6,0,P|222:250|224:301,1,80,2|0,1:2|0:0,0:0:0:0:
416,139,81136,2,0,B|344:126|353:82|267:63,1,160,2|0,1:2|1:2,0:0:0:0:
416,139,81610,1,0,0:0:0:0:
450,59,81768,5,8,3:2:0:0:
407,46,81847,1,8,3:3:0:0:
366,64,81926,1,8,3:3:0:0:
340,99,82005,1,8,3:3:0:0:
314,137,82084,1,8,3:2:0:0:
269,153,82163,1,4,3:3:0:0:
227,138,82242,1,4,3:3:0:0:
202,113,82321,1,4,3:3:0:0:
198,92,82400,6,0,B|235:84|265:71|265:71|274:115|302:186,1,160,6|0,3:2|3:2,0:0:0:0:
400,236,82873,1,0,3:2:0:0:
400,236,82952,1,0,3:2:0:0:
400,236,83031,2,0,L|383:297,1,40,4|0,3:2|3:2,0:0:0:0:
365,346,83189,1,8,3:2:0:0:
207,257,83347,5,8,3:3:0:0:
52,354,83505,1,4,3:3:0:0:
192,384,83663,5,6,3:2:0:0:
101,203,83821,1,8,3:2:0:0:
255,153,83979,5,14,3:2:0:0:
295,24,84136,1,8,3:2:0:0:
171,88,84294,5,14,3:2:0:0:
357,137,84452,1,8,3:2:0:0:
140,313,84610,5,14,3:2:0:0:
393,227,84768,1,8,3:2:0:0:
285,114,87452,6,0,B|399:118|318:179|462:195,1,176.000005371094,6|10,1:2|1:2,0:0:0:0:
150,132,87926,1,0,0:0:0:0:
238,250,88084,2,0,P|246:211|216:160,1,88.000002685547,2|0,1:2|3:2,0:0:0:0:
70,161,88400,2,0,P|62:200|92:251,1,88.000002685547,10|0,1:2|0:0,0:0:0:0:
147,338,88715,5,2,1:2:0:0:
327,246,88873,1,0,3:2:0:0:
503,350,89031,5,8,1:2:0:0:
398,384,89189,2,0,L|420:177,1,176.000005371094,0|0,0:0|3:2,0:0:0:0:
451,3,89663,5,10,1:2:0:0:
343,72,89821,1,2,3:2:0:0:
343,72,89900,1,8,3:2:0:0:
343,72,89979,2,0,B|373:78|373:78|419:124|419:124|477:142,1,132.00000402832,0|0,1:2|0:0,0:0:0:0:
491,147,90294,2,0,P|517:121|503:64,1,88.000002685547,10|0,1:2|0:0,0:0:0:0:
345,152,90610,1,2,1:2:0:0:
234,19,90768,1,0,3:2:0:0:
91,176,90926,2,0,P|148:163|238:143,1,132.00000402832,10|0,1:2|0:0,0:0:0:0:
389,32,91242,5,2,1:2:0:0:
281,96,91400,1,0,3:2:0:0:
470,232,91558,2,0,B|376:212|449:167|321:151,1,150,8|0,1:2|0:0,0:0:0:0:
347,155,91873,2,0,P|315:191|339:243,1,100,0|0,1:2|3:2,0:0:0:0:
465,108,92189,1,10,1:2:0:0:
512,301,92347,5,0,3:2:0:0:
512,301,92426,1,10,3:2:0:0:
512,301,92505,2,0,B|468:304|468:304|390:359|390:359|348:366,1,176.000005371094,4|8,1:2|1:2,0:0:0:0:
200,344,92979,1,0,0:0:0:0:
329,236,93136,1,0,1:2:0:0:
200,344,93294,1,0,3:2:0:0:
118,212,93452,2,0,L|221:230,1,88.000002685547,8|0,1:2|0:0,0:0:0:0:
29,62,93768,6,0,P|76:56|178:33,1,132.00000402832,0|0,1:2|0:0,0:0:0:0:
192,65,94084,1,8,1:2:0:0:
310,164,94242,1,2,0:0:0:0:
512,53,94400,1,2,1:2:0:0:
390,123,94558,1,2,3:2:0:0:
509,195,94715,1,10,1:2:0:0:
324,33,94873,5,0,3:2:0:0:
324,33,94952,1,8,3:2:0:0:
324,33,95031,2,0,P|315:86|309:180,1,132.00000402832,2|0,1:2|0:0,0:0:0:0:
374,231,95347,2,0,B|341:233|341:233|312:244|312:244|267:246,1,100,8|0,1:2|0:0,0:0:0:0:
197,156,95663,1,0,1:2:0:0:
88,253,95821,1,0,3:2:0:0:
86,43,95979,1,10,1:2:0:0:
0,121,96136,5,2,3:2:0:0:
0,121,96215,1,8,3:2:0:0:
0,121,96294,2,0,P|60:130|207:158,1,200,0|12,1:2|1:2,0:0:0:0:
266,222,96768,1,0,0:0:0:0:
499,182,96926,5,12,1:2:0:0:
328,128,97084,1,0,3:2:0:0:
158,20,97242,5,12,1:2:0:0:
199,45,97320,1,0,3:2:0:0:
220,90,97399,1,2,3:2:0:0:
213,139,97478,1,0,3:2:0:0:
196,155,97558,2,0,B|94:153|156:204|36:194,1,150,6|0,1:2|0:0,0:0:0:0:
7,130,97873,1,10,1:2:0:0:
270,311,98031,2,0,B|320:319|320:319|421:270|342:188,1,200,2|0,0:0|3:2,0:0:0:0:
273,0,98505,5,10,1:2:0:0:
483,68,98663,1,2,0:0:0:0:
335,112,98821,2,0,B|444:132|353:161|505:177,1,150,0|0,1:2|0:0,0:0:0:0:
508,150,99136,1,10,1:2:0:0:
353,201,99294,1,2,3:2:0:0:
353,201,99373,1,8,3:2:0:0:
353,201,99452,2,0,P|279:213|176:248,1,167.999994873047,0|10,1:2|1:2,0:0:0:0:
0,99,99926,5,2,0:0:0:0:
85,24,100084,2,0,P|123:64|98:167,1,150,0|0,1:2|0:0,0:0:0:0:
76,174,100400,1,10,1:2:0:0:
203,340,100558,1,2,3:2:0:0:
203,340,100636,1,8,3:2:0:0:
203,340,100715,2,0,B|324:307|250:396|411:356,1,200,0|10,1:2|1:2,0:0:0:0:
400,119,101189,5,2,3:2:0:0:
400,119,101268,1,8,3:2:0:0:
400,119,101347,2,0,B|347:154|374:214,1,100,0|0,1:2|3:2,0:0:0:0:
495,224,101663,1,10,1:2:0:0:
337,281,101821,1,2,3:2:0:0:
337,281,101900,1,8,3:2:0:0:
337,281,101979,1,0,1:2:0:0:
82,228,102136,5,0,3:2:0:0:
167,110,102294,2,0,P|173:186|178:239,1,100,12|2,1:2|3:2,0:0:0:0:
224,304,102531,1,8,3:2:0:0:
224,304,102610,2,0,B|144:286|144:286|44:340,1,176.000005371094,6|10,1:2|1:2,0:0:0:0:
349,368,103084,2,0,P|339:308|336:257,1,88.000002685547,2|0,0:0|1:2,0:0:0:0:
308,134,103400,1,0,3:2:0:0:
417,257,103558,5,10,1:2:0:0:
417,257,103636,1,0,3:2:0:0:
417,257,103715,2,0,P|456:269|483:277,1,44.0000013427735,2|0,3:2|3:2,0:0:0:0:
500,342,103873,2,0,P|495:270|502:198,1,132.00000402832,0|0,1:2|0:0,0:0:0:0:
512,109,104189,1,10,1:2:0:0:
310,156,104347,1,0,0:0:0:0:
130,79,104505,5,2,1:2:0:0:
304,18,104663,1,2,3:2:0:0:
209,211,104821,2,0,B|118:198|166:237|67:224,1,132.00000402832,10|0,1:2|0:0,0:0:0:0:
9,248,105136,6,0,B|-12:195|-12:195|27:134,1,111.999996582031,12|0,3:2|3:2,0:0:0:0:
90,0,105452,1,0,3:2:0:0:
206,40,105610,1,12,3:2:0:0:
287,228,105768,5,2,1:2:0:0:
460,151,105926,1,0,3:2:0:0:
512,316,106084,5,12,1:2:0:0:
336,135,106242,1,0,3:2:0:0:
211,310,106400,5,14,1:2:0:0:
156,289,106478,1,0,3:2:0:0:
138,233,106557,1,0,3:2:0:0:
171,186,106636,1,0,3:2:0:0:
194,174,106715,5,12,1:2:0:0:
248,154,106793,1,0,3:2:0:0:
266,98,106872,1,0,3:2:0:0:
233,51,106951,1,0,3:2:0:0:
206,40,107031,5,14,1:2:0:0:
200,55,107110,1,8,3:3:0:0:
195,70,107189,2,0,P|141:78|106:85,1,55.9999982910157,8|8,3:3|3:3,0:0:0:0:
0,156,107347,5,12,1:2:0:0:
6,171,107426,1,4,3:3:0:0:
11,187,107505,2,0,P|64:195|99:202,1,55.9999982910157,4|4,3:3|3:3,0:0:0:0:
322,142,107663,6,0,B|358:152|358:152|409:195|409:195|463:211,1,132.00000402832,6|0,1:2|0:0,0:0:0:0:
512,159,107979,2,0,P|529:118|481:71,1,88.000002685547,10|0,1:2|0:0,0:0:0:0:
269,0,108294,2,0,P|249:37|267:77,1,88.000002685547,2|0,1:2|3:2,0:0:0:0:
403,70,108610,1,10,1:2:0:0:
246,217,108768,5,0,3:2:0:0:
246,217,108847,1,8,3:2:0:0:
246,217,108926,2,0,B|199:236|199:236|93:237|121:113,1,200,2|8,1:2|1:2,0:0:0:0:
198,142,109400,1,0,0:0:0:0:
61,306,109558,2,0,B|164:285|125:350|242:325,1,176.000005371094,0|10,1:2|1:2,0:0:0:0:
390,234,110031,1,2,0:0:0:0:
496,273,110189,2,0,P|508:318|482:369,1,88.000002685547,0|0,1:2|3:2,0:0:0:0:
307,303,110505,2,0,P|295:258|321:207,1,88.000002685547,10|0,1:2|0:0,0:0:0:0:
507,194,110821,6,0,B|474:186|474:186|404:112|404:112|358:103,1,176.000005371094,2|10,1:2|1:2,0:0:0:0:
285,34,111294,1,0,0:0:0:0:
71,90,111452,2,0,B|95:132|95:132|61:209,1,100,2|0,1:2|3:2,0:0:0:0:
20,384,111768,5,8,1:2:0:0:
0,339,111846,1,0,3:2:0:0:
14,292,111925,1,0,3:2:0:0:
55,267,112004,1,0,3:2:0:0:
71,276,112084,2,0,B|160:272|115:334|231:322,1,150,0|0,1:2|0:0,0:0:0:0:
279,369,112400,2,0,P|290:326|263:253,1,100,14|2,1:2|0:0,0:0:0:0:
265,142,112715,5,6,1:2:0:0:
134,60,112873,1,0,3:2:0:0:
20,153,113031,1,8,1:2:0:0:
237,69,113189,6,0,P|304:64|370:193,1,220.000006713867,2|0,0:0|0:0,0:0:0:0:
356,207,113663,2,0,P|406:202|463:193,1,88.000002685547,8|0,1:2|0:0,0:0:0:0:
497,306,113979,1,0,1:2:0:0:
362,384,114136,1,0,3:2:0:0:
497,306,114294,1,8,1:2:0:0:
285,252,114452,1,2,0:0:0:0:
87,356,114610,5,2,1:2:0:0:
0,223,114768,1,2,3:2:0:0:
165,211,114926,1,10,1:2:0:0:
89,271,115084,1,2,3:2:0:0:
89,271,115163,1,8,3:2:0:0:
89,271,115242,2,0,B|51:163|134:175|84:75,1,200,0|8,1:2|3:2,0:0:0:0:
109,58,115636,1,0,3:2:0:0:
138,61,115714,1,0,3:2:0:0:
167,64,115793,1,0,3:2:0:0:
196,67,115872,1,0,1:2:0:0:
299,168,116031,5,0,3:2:0:0:
512,82,116189,2,0,P|483:75|458:68,1,50,10|0,1:2|3:2,0:0:0:0:
411,15,116347,1,2,3:2:0:0:
411,15,116426,1,0,3:2:0:0:
411,15,116505,2,0,P|388:72|462:188,1,200,0|12,1:2|1:2,0:0:0:0:
277,124,116979,1,0,0:0:0:0:
66,84,117136,6,0,P|70:108|74:133,1,50,12|0,3:2|3:2,0:0:0:0:
174,175,117294,2,0,P|169:199|165:224,1,50,0|0,3:2|3:2,0:0:0:0:
0,378,117452,1,12,3:2:0:0:
17,332,117530,1,0,3:2:0:0:
58,304,117609,1,2,3:2:0:0:
107,306,117688,1,0,3:2:0:0:
119,320,117768,2,0,B|172:329|172:329|209:363|209:363|267:378,1,150,6|0,1:2|0:0,0:0:0:0:
346,321,118084,1,10,1:2:0:0:
274,70,118242,2,0,B|231:41|231:41|126:62|177:175,1,200,2|0,0:0|3:2,0:0:0:0:
370,62,118715,5,10,1:2:0:0:
492,141,118873,1,2,3:2:0:0:
492,141,118952,1,8,3:2:0:0:
492,141,119031,2,0,B|392:139|464:193|336:191,1,150,0|0,1:2|0:0,0:0:0:0:
291,143,119347,1,10,1:2:0:0:
97,222,119505,2,0,P|153:228|213:245,1,100,2|0,0:0|1:2,0:0:0:0:
372,272,119821,1,0,3:2:0:0:
277,227,119979,1,10,1:2:0:0:
5,327,120136,5,2,3:2:0:0:
5,327,120215,1,8,3:2:0:0:
5,327,120294,2,0,B|-30:232|49:260|7:153,1,150,0|0,1:2|0:0,0:0:0:0:
0,39,120610,1,10,1:2:0:0:
171,122,120768,1,2,3:2:0:0:
171,122,120847,1,8,3:2:0:0:
171,122,120926,2,0,P|216:133|288:141,1,100,0|0,1:2|3:2,0:0:0:0:
146,259,121242,1,10,1:2:0:0:
349,261,121400,5,2,3:2:0:0:
297,353,121558,2,0,B|252:311|252:311|282:208,1,150,12|0,3:2|0:0,0:0:0:0:
269,139,121873,2,0,P|308:140|342:134,1,50,2|0,3:2|0:0,0:0:0:0:
497,99,122031,6,0,B|505:96|518:42|414:20|343:99|391:196|454:221,1,264.0000025177,14|0,3:2|3:2,0:0:0:0:
512,303,122505,2,0,B|485:307|485:307|435:345|435:345|385:345,1,116.000003540039,14|0,3:2|3:2,0:0:0:0:
334,333,122742,1,0,3:2:0:0:
334,333,122821,1,6,3:2:0:0:
201,377,122979,6,0,B|208:313|208:313|211:307|211:307|224:210,1,160,0|0,3:2|3:2,0:0:0:0:
364,123,123452,2,0,B|282:105|303:167|201:132,1,160,8|0,1:2|1:2,0:0:0:0:
30,57,123926,2,0,B|76:48|76:48|156:75|104:150,1,160,0|8,3:2|3:2,0:0:0:0:
40,205,124400,1,0,1:2:0:0:
111,242,124558,1,0,3:2:0:0:
148,363,124715,5,8,1:2:0:0:
294,301,124873,1,0,3:2:0:0:
463,368,125031,1,8,3:2:0:0:
487,321,125109,1,8,3:2:0:0:
473,271,125188,1,8,3:2:0:0:
429,243,125267,1,8,3:2:0:0:
416,251,125347,2,0,B|282:211|315:308|223:365|155:335|114:270|127:209|170:179|234:193|242:232,1,419.999987182618,6|0,3:2|0:0,0:0:0:0:
244,230,126610,2,0,P|246:258|254:290,1,44.0000013427735,14|0,3:2|3:2,0:0:0:0:
361,370,126768,5,0,3:2:0:0:
361,370,126847,1,0,3:2:0:0:
361,370,126926,2,0,P|365:348|367:326,1,44.0000013427735,12|0,3:2|3:2,0:0:0:0:
300,136,127084,1,0,3:2:0:0:
300,136,127163,1,0,3:2:0:0:
300,136,127242,2,0,P|304:157|306:179,1,44.0000013427735,12|0,3:2|3:2,0:0:0:0:
454,324,127400,5,0,3:2:0:0:
454,324,127479,1,0,3:2:0:0:
454,324,127558,2,0,P|446:303|437:283,1,44.0000013427735,14|0,3:2|3:2,0:0:0:0:
396,168,127715,1,2,3:2:0:0:
396,168,127794,1,0,3:2:0:0:
396,168,127873,2,0,B|300:181|352:245|242:246,2,176.000005371094,6|10|2,1:2|1:2|1:2,0:0:0:0:
492,227,128663,1,0,3:2:0:0:
512,66,128821,2,0,P|456:61|407:49,1,88.000002685547,10|0,1:2|0:0,0:0:0:0:
222,31,129136,5,2,1:2:0:0:
293,140,129294,1,0,3:2:0:0:
130,88,129452,1,8,1:2:0:0:
0,188,129610,1,0,3:2:0:0:
0,188,129689,1,8,3:2:0:0:
0,188,129768,2,0,B|35:199|35:199|110:271|110:271|157:287,1,176.000005371094,2|8,1:2|1:2,0:0:0:0:
341,208,130242,5,0,0:0:0:0:
278,348,130400,2,0,P|267:299|296:247,1,88.000002685547,2|0,1:2|3:2,0:0:0:0:
480,194,130715,2,0,P|491:243|462:295,1,88.000002685547,10|0,1:2|3:2,0:0:0:0:
477,368,130952,1,8,3:2:0:0:
477,368,131031,2,0,B|456:365|456:365|410:332|410:332|386:327,1,88.000002685547,2|0,1:2|3:2,0:0:0:0:
279,264,131347,1,10,1:2:0:0:
169,360,131505,1,0,0:0:0:0:
116,182,131663,5,2,1:2:0:0:
15,139,131821,1,0,3:2:0:0:
159,253,131979,2,0,B|246:234|175:205|308:178,1,132.00000402832,8|0,1:2|0:0,0:0:0:0:
269,187,132294,2,0,P|280:134|288:95,1,88.000002685547,2|0,1:2|3:2,0:0:0:0:
419,269,132610,2,0,P|412:218|408:162,1,88.000002685547,8|0,1:2|0:0,0:0:0:0:
512,35,132926,6,0,B|467:45|467:45|420:85|420:85|357:100,1,150,6|0,1:2|0:0,0:0:0:0:
378,94,133242,2,0,B|352:59|352:59|369:9,1,88.000002685547,10|0,1:2|0:0,0:0:0:0:
512,132,133558,1,2,1:2:0:0:
408,181,133715,1,0,3:2:0:0:
304,135,133873,2,0,B|222:127|262:185|156:157,1,132.00000402832,10|0,1:2|0:0,0:0:0:0:
14,198,134189,5,2,1:2:0:0:
91,104,134347,1,0,3:2:0:0:
55,303,134505,1,8,1:2:0:0:
129,224,134663,1,0,0:0:0:0:
302,212,134821,2,0,P|284:276|272:387,1,176.000005371094,2|8,1:2|1:2,0:0:0:0:
398,258,135294,5,0,3:2:0:0:
398,258,135373,1,8,3:2:0:0:
398,258,135452,2,0,P|447:272|501:302,1,88.000002685547,2|2,1:2|3:2,0:0:0:0:
368,149,135768,2,0,P|412:122|440:91,1,88.000002685547,10|2,1:2|0:0,0:0:0:0:
320,292,136084,2,0,P|350:330|369:380,1,88.000002685547,2|2,1:2|3:2,0:0:0:0:
255,141,136400,1,10,1:2:0:0:
302,34,136558,1,2,0:0:0:0:
398,258,136715,5,12,1:2:0:0:
228,244,136873,1,2,3:2:0:0:
228,244,136952,1,0,3:2:0:0:
228,244,137031,2,0,P|196:251|157:264,1,50,14|0,3:2|3:2,0:0:0:0:
117,331,137189,2,0,P|90:325|60:322,1,50,2|0,3:2|3:2,0:0:0:0:
38,200,137347,5,14,1:2:0:0:
25,158,137425,1,0,3:2:0:0:
41,118,137504,1,2,3:2:0:0:
78,98,137583,1,0,3:2:0:0:
127,111,137663,1,14,3:2:0:0:
163,148,137741,1,0,3:2:0:0:
214,154,137820,1,2,3:2:0:0:
258,127,137899,1,0,3:2:0:0:
261,114,137979,6,0,P|265:171|283:277,1,143.999995605469,6|0,3:2|3:2,0:0:0:0:
434,384,138452,2,0,P|481:344|456:265,1,143.999995605469,2|0,0:0|0:0,0:0:0:0:
452,197,138926,1,2,3:2:0:0:
301,274,139084,6,0,P|342:288|393:317,1,71.9999978027344,0|0,0:0|3:2,0:0:0:0:
285,157,139400,1,2,0:0:0:0:
343,101,139558,2,0,P|379:91|421:75,1,71.9999978027344,0|0,3:2|0:0,0:0:0:0:
209,209,139873,2,0,P|194:277|176:350,1,143.999995605469,2|2,3:2|3:2,0:0:0:0:
345,211,140347,1,8,1:2:0:0:
193,130,140505,6,0,B|113:125|128:158|47:149,1,143.999995605469,2|0,3:2|3:2,0:0:0:0:
248,61,140979,1,2,0:0:0:0:
345,211,141136,2,0,P|335:174|323:116,1,71.9999978027344,0|0,3:2|0:0,0:0:0:0:
141,274,141452,2,0,B|195:264|195:264|243:298,1,107.999996704102,2|0,3:2|0:0,0:0:0:0:
238,294,141768,6,0,P|231:333|225:375,1,71.9999978027344,0|2,3:2|0:0,0:0:0:0:
66,215,142084,2,0,P|72:175|78:133,1,71.9999978027344,0|0,3:2|0:0,0:0:0:0:
171,243,142400,1,2,3:2:0:0:
30,294,142558,5,8,1:2:0:0:
170,136,142715,2,0,L|296:173,1,107.999996704102,2|0,3:2|0:0,0:0:0:0:
315,229,143031,6,0,B|334:211|357:194|357:194|346:155|336:107,1,143.999995605469,2|0,3:2|3:2,0:0:0:0:
391,53,143505,2,0,P|454:39|513:96,1,143.999995605469,2|0,0:0|0:0,0:0:0:0:
389,196,143979,1,0,3:2:0:0:
482,261,144136,2,0,P|488:224|498:182,1,71.9999978027344,0|0,0:0|3:2,0:0:0:0:
166,315,144610,5,0,3:2:0:0:
261,384,144768,2,0,P|250:314|231:214,1,143.999995605469,2|0,0:0|0:0,0:0:0:0:
273,170,145242,1,2,3:2:0:0:
364,293,145400,5,8,1:2:0:0:
208,126,145558,2,0,B|293:123|267:158|367:153,1,143.999995605469,2|0,3:2|3:2,0:0:0:0:
236,242,146031,1,0,0:0:0:0:
437,368,146189,6,0,B|404:324|404:324|430:222,1,143.999995605469,2|0,3:2|3:2,0:0:0:0:
487,188,146663,1,0,0:0:0:0:
329,64,146821,1,2,3:2:0:0:
320,235,146979,5,8,1:2:0:0:
442,82,147136,2,0,L|425:-5,1,71.9999978027344,0|0,3:2|0:0,0:0:0:0:
512,114,147452,1,2,1:2:0:0:
253,101,147610,5,8,3:2:0:0:
219,70,147689,1,8,3:2:0:0:
220,31,147768,2,0,L|274:15,1,35.9999989013672,8|0,3:2|3:2,0:0:0:0:
447,251,147926,1,8,3:2:0:0:
442,268,148005,1,8,3:2:0:0:
439,281,148084,6,0,B|352:272|379:348|268:324,1,160,6|0,3:2|3:2,0:0:0:0:
147,245,148558,1,2,0:0:0:0:
68,260,148715,2,0,L|149:244,1,80,0|0,3:2|0:0,0:0:0:0:
232,97,149031,6,0,B|268:146|268:146|253:189|238:248,1,160,2|0,3:2|3:2,0:0:0:0:
378,342,149505,2,0,L|459:376,1,80,2|0,0:0|3:2,0:0:0:0:
162,74,149979,6,0,B|206:62|206:62|226:43|226:43|289:27,1,120,2|0,3:2|0:0,0:0:0:0:
286,45,150294,1,2,3:2:0:0:
155,222,150452,5,8,1:2:0:0:
285,321,150610,2,0,B|196:315|218:354|125:346,1,160,2|0,3:2|3:2,0:0:0:0:
304,190,151084,1,2,0:0:0:0:
234,159,151242,2,0,P|225:198|247:243,1,80,0|0,3:2|0:0,0:0:0:0:
486,375,151558,6,0,P|505:320|457:230,1,160,2|0,3:2|3:2,0:0:0:0:
285,321,152031,1,0,0:0:0:0:
285,321,152189,2,0,P|326:332|372:348,1,80,2|0,3:2|0:0,0:0:0:0:
497,160,152505,1,2,3:2:0:0:
354,256,152663,1,8,1:2:0:0:
486,375,152821,1,2,3:2:0:0:
434,278,152979,1,2,0:0:0:0:
434,278,153136,6,0,B|352:267|368:336|257:318,1,160,2|2,3:2|3:2,0:0:0:0:
173,205,153610,1,0,3:2:0:0:
173,205,153689,1,0,3:2:0:0:
173,205,153768,2,0,P|182:164|190:118,1,80,0|0,3:2|0:0,0:0:0:0:
275,223,154084,1,0,3:2:0:0:
157,315,154242,6,0,B|78:317|3:363|3:363,1,160
144,135,154715,2,0,B|184:160|172:207|172:207,1,80,0|0,1:2|0:0,0:0:0:0:
0,117,155031,2,0,P|9:77|22:18,1,80,2|0,1:2|0:0,0:0:0:0:
58,223,155347,1,2,1:2:0:0:
361,124,155663,6,0,B|275:107|275:107|227:128|270:186,1,160,6|0,1:2|3:2,0:0:0:0:
418,62,156136,1,0,0:0:0:0:
506,252,156294,2,0,B|472:269|472:269|426:204|496:155,1,160,6|0,1:2|3:2,0:0:0:0:
351,289,156768,1,0,0:0:0:0:
512,384,156926,6,0,P|474:368|434:355,1,80,6|0,1:2|0:0,0:0:0:0:
135,201,157242,2,0,P|189:155|264:172,1,143.999995605469,12|0,1:2|0:0,0:0:0:0:
269,178,157558,2,0,P|261:203|253:247,1,47.9999985351563,2|0,3:2|3:2,0:0:0:0:
117,376,157715,1,8,3:2:0:0:
109,364,157794,1,8,3:2:0:0:
111,348,157873,2,0,P|130:335|166:321,1,47.9999985351563,0|0,3:2|3:2,0:0:0:0:
363,343,158031,1,8,3:2:0:0:
363,366,158110,1,8,3:2:0:0:
349,384,158189,5,6,3:2:0:0:
244,252,158347,1,0,0:0:0:0:
412,237,158505,2,0,B|376:247|376:247|370:253|370:253|316:266,1,88.000002685547,8|0,1:2|3:2,0:0:0:0:
330,263,158742,1,8,3:2:0:0:
330,263,158821,2,0,B|360:186|295:214|327:124,1,132.00000402832,0|0,1:2|0:0,0:0:0:0:
330,107,159136,1,10,1:2:0:0:
152,175,159294,2,0,B|126:230|126:230|264:207,1,176.000005371094,2|0,3:2|3:2,0:0:0:0:
330,107,159768,1,10,1:2:0:0:
434,209,159926,5,2,3:2:0:0:
434,209,160005,1,8,3:2:0:0:
434,209,160084,2,0,B|352:216|401:263|278:252,1,132.00000402832,0|0,1:2|0:0,0:0:0:0:
245,287,160400,2,0,P|225:259|253:202,1,88.000002685547,10|0,1:2|0:0,0:0:0:0:
363,84,160715,1,2,1:2:0:0:
481,121,160873,1,0,3:2:0:0:
512,23,161031,2,0,P|454:32|403:35,1,88.000002685547,8|0,1:2|3:2,0:0:0:0:
363,84,161268,5,8,3:2:0:0:
363,84,161347,2,0,P|316:75|264:63,1,88.000002685547,0|0,1:0|1:0,0:0:0:0:
155,161,161663,1,10,1:2:0:0:
180,1,161821,2,0,L|199:100,1,88.000002685547,2|8,3:2|0:0,0:0:0:0:
223,234,162136,1,0,3:2:0:0:
69,150,162294,2,0,B|102:150|102:150|126:162|126:162|168:160,1,88.000002685547,8|0,1:2|3:2,0:0:0:0:
223,234,162531,1,8,3:2:0:0:
223,234,162610,1,0,1:2:0:0:
301,161,162768,1,8,3:2:0:0:
412,255,162926,6,0,P|388:250|365:245,1,47.9999985351563,8|0,3:2|0:0,0:0:0:0:
292,276,163084,2,0,P|316:271|339:266,1,47.9999985351563,8|8,3:2|3:2,0:0:0:0:
358,384,163242,2,0,B|392:312|322:320|373:232,1,143.999995605469,4|0,1:2|0:0,0:0:0:0:
384,173,163558,1,10,1:2:0:0:
251,73,163715,5,0,3:2:0:0:
251,73,163794,1,8,3:2:0:0:
251,73,163873,2,0,B|169:65|202:113|102:85,1,132.00000402832,2|0,1:2|0:0,0:0:0:0:
0,61,164189,2,0,B|48:46|48:46|131:86|84:165,1,191.999994140625,10|2,1:2|0:0,0:0:0:0:
1,180,164663,1,0,3:2:0:0:
144,290,164821,6,0,P|209:283|250:280,1,88.000002685547,10|0,1:2|3:2,0:0:0:0:
264,289,165058,1,8,3:2:0:0:
264,289,165136,1,2,1:2:0:0:
348,340,165294,1,0,3:2:0:0:
424,291,165452,2,0,P|430:241|436:201,1,88.000002685547,10|0,1:2|0:0,0:0:0:0:
271,116,165768,6,0,P|255:146|288:210,1,88.000002685547,2|0,1:2|3:2,0:0:0:0:
452,127,166084,2,0,P|461:88|414:44,1,88.000002685547,8|0,1:2|3:2,0:0:0:0:
422,34,166321,1,8,3:2:0:0:
422,34,166400,1,0,1:2:0:0:
343,0,166558,1,0,3:2:0:0:
266,39,166715,1,10,1:2:0:0:
45,150,166873,5,2,3:2:0:0:
93,31,167031,2,0,B|162:82|162:82|113:137|117:199,1,200,10|8,0:0|1:2,0:0:0:0:
211,349,167505,5,0,0:0:0:0:
280,287,167663,1,8,3:2:0:0:
247,266,167741,1,0,3:2:0:0:
209,262,167820,1,0,3:2:0:0:
173,273,167899,1,0,3:2:0:0:
151,294,167979,1,10,3:2:0:0:
109,325,168057,1,8,3:3:0:0:
58,324,168136,1,8,3:3:0:0:
18,290,168215,1,4,3:3:0:0:
31,282,168294,6,0,P|26:205|13:126,1,143.999995605469,6|2,3:2|1:2,0:0:0:0:
197,29,168768,2,0,P|222:66|203:111,1,71.9999978027344,2|0,0:0|1:2,0:0:0:0:
119,176,169084,2,0,P|94:139|113:94,1,71.9999978027344,2|0,0:0|1:2,0:0:0:0:
271,154,169400,1,2,0:0:0:0:
210,222,169558,1,2,1:2:0:0:
210,222,169873,2,0,P|274:231|362:264,1,143.999995605469,2|0,1:2|1:2,0:0:0:0:
258,344,170347,1,8,3:2:0:0:
341,333,170505,2,0,P|381:356|414:389,1,71.9999978027344,2|0,1:2|0:0,0:0:0:0:
129,384,170821,6,0,B|163:301|87:332|143:224,1,143.999995605469,6|2,1:2|1:2,0:0:0:0:
83,183,171294,2,0,P|42:201|-8:206,1,71.9999978027344,2|0,0:0|1:2,0:0:0:0:
112,99,171610,2,0,P|67:101|18:89,1,71.9999978027344,2|0,0:0|1:2,0:0:0:0:
238,140,171926,2,0,P|292:149|388:177,1,143.999995605469,2|8,0:0|3:2,0:0:0:0:
468,125,172400,1,0,1:2:0:0:
511,216,172558,1,10,3:2:0:0:
511,216,172636,1,8,3:2:0:0:
511,216,172715,1,0,1:2:0:0:
454,280,172873,6,0,B|363:261|404:319|290:288,1,143.999995605469,10|2,3:2|3:2,0:0:0:0:
281,316,173268,1,0,3:2:0:0:
281,316,173347,2,0,P|277:248|266:158,2,143.999995605469,4|0|0,3:2|1:2|1:2,0:0:0:0:
50,179,174294,5,2,1:2:0:0:
148,101,174452,1,2,0:0:0:0:
148,101,174531,1,2,0:0:0:0:
148,101,174610,2,0,B|183:113|183:113|234:164|234:164|274:173,2,143.999995605469,0|0|2,1:2|1:2|1:2,0:0:0:0:
290,68,175400,1,8,3:2:0:0:
414,118,175558,2,0,P|379:125|344:132,1,71.9999978027344,2|0,1:2|0:0,0:0:0:0:
208,246,175873,6,0,P|216:278|218:299,3,35.9999989013672,6|0|0|0,1:2|0:0|0:0|0:0,0:0:0:0:
292,256,176189,2,0,P|294:288|292:309,3,35.9999989013672,0|0|0|0,1:2|0:0|0:0|0:0,0:0:0:0:
373,286,176505,2,0,P|366:318|359:338,3,35.9999989013672,0|0|0|0,1:2|0:0|0:0|0:0,0:0:0:0:
149,332,176821,2,0,P|104:341|65:357,1,71.9999978027344,2|0,1:2|0:0,0:0:0:0:
101,196,177136,6,0,P|125:203|157:204,3,44.0000013427735,2|0|0|0,1:2|0:0|0:0|0:0,0:0:0:0:
46,138,177452,1,12,1:2:0:0:
186,34,177610,1,0,3:2:0:0:
186,34,177689,1,0,3:2:0:0:
186,34,177768,2,0,P|188:62|191:106,1,44.0000013427735,8|0,3:2|3:2,0:0:0:0:
225,191,177926,1,0,3:2:0:0:
225,191,178005,1,0,3:2:0:0:
225,191,178084,2,0,P|227:163|233:117,1,44.0000013427735,10|8,3:2|3:3,0:0:0:0:
296,68,178242,1,8,3:3:0:0:
426,199,178400,6,0,B|313:195|382:260|259:257,1,176.000005371094,6|8,3:2|3:2,0:0:0:0:
149,223,178873,1,8,3:2:0:0:
64,348,179031,5,8,3:2:0:0:
174,307,179189,1,8,3:2:0:0:
228,147,179347,5,8,3:2:0:0:
353,243,179505,1,8,3:2:0:0:
466,369,179663,5,14,3:2:0:0:
389,158,179821,1,8,3:2:0:0:
289,308,179979,1,8,3:2:0:0:
499,291,180136,1,8,3:2:0:0:
378,49,180294,1,8,3:2:0:0:
353,243,180452,1,8,3:2:0:0:
506,161,180610,1,8,3:2:0:0:
274,92,180768,1,8,3:2:0:0:
169,277,180926,2,0,P|105:297|29:212,1,176.000005371094,4|10,3:2|3:2,0:0:0:0:
78,12,181400,5,0,3:2:0:0:
78,12,181479,1,8,3:2:0:0:
78,12,181558,2,0,B|164:11|120:60|212:54,1,132.00000402832,2|0,3:2|0:0,0:0:0:0:
297,122,181873,2,0,P|315:74|299:21,1,88.000002685547,10|0,3:2|0:0,0:0:0:0:
436,315,182189,2,0,P|417:278|420:174,1,132.00000402832,2|0,1:2|0:0,0:0:0:0:
398,106,182505,2,0,P|449:116|503:117,1,88.000002685547,8|0,1:2|0:0,0:0:0:0:
327,263,182821,5,10,1:2:0:0:
284,252,182899,1,0,3:2:0:0:
242,263,182978,1,0,3:2:0:0:
210,293,183057,1,0,3:2:0:0:
197,307,183136,1,10,3:2:0:0:
159,336,183214,1,8,3:3:0:0:
111,340,183293,1,8,3:3:0:0:
69,318,183372,1,4,3:3:0:0:
61,297,183452,6,0,P|74:255|85:174,1,88.000002685547,6|0,1:2|3:2,0:0:0:0:
247,13,183768,2,0,P|300:40|283:165,1,176.000005371094,10|2,1:2|1:2,0:0:0:0:
427,346,184242,1,0,3:2:0:0:
504,261,184400,2,0,P|459:248|413:227,1,88.000002685547,10|0,1:2|0:0,0:0:0:0:
228,378,184715,5,2,1:2:0:0:
361,290,184873,1,0,3:2:0:0:
196,172,185031,1,8,1:2:0:0:
272,303,185189,6,0,P|280:257|297:207,1,88.000002685547,0|0,0:0|1:2,0:0:0:0:
159,81,185505,1,0,3:2:0:0:
45,258,185663,2,0,B|117:246|106:202|200:190,1,150,10|0,1:2|0:0,0:0:0:0:
196,172,185979,5,0,1:2:0:0:
361,290,186136,1,0,3:2:0:0:
228,378,186294,2,0,B|213:337|213:337|226:286,1,88.000002685547,10|0,1:2|0:0,0:0:0:0:
395,132,186610,2,0,P|435:119|480:100,1,88.000002685547,2|0,1:2|3:2,0:0:0:0:
431,218,186926,2,0,P|385:170|298:176,1,150,10|0,1:2|0:0,0:0:0:0:
265,141,187242,6,0,P|280:182|291:224,1,88.000002685547,2|0,1:2|3:2,0:0:0:0:
411,44,187558,2,0,P|367:33|319:12,1,88.000002685547,8|0,1:2|0:0,0:0:0:0:
177,196,187873,1,0,1:2:0:0:
331,95,188031,1,0,3:2:0:0:
165,9,188189,1,10,1:2:0:0:
243,148,188347,1,0,3:2:0:0:
248,131,188426,1,10,3:2:0:0:
254,117,188505,6,0,B|184:130|184:130|151:166|151:166|82:184,2,176.000005371094,4|8|0,1:2|1:2|1:2,0:0:0:0:
385,279,189294,1,0,3:2:0:0:
436,169,189452,1,8,1:2:0:0:
266,248,189610,1,0,0:0:0:0:
462,355,189768,5,0,1:2:0:0:
326,178,189926,1,0,3:2:0:0:
229,366,190084,2,0,P|271:349|327:335,1,88.000002685547,8|2,1:2|0:0,0:0:0:0:
139,207,190400,1,2,1:2:0:0:
281,268,190558,1,2,3:2:0:0:
78,384,190715,2,0,P|86:342|94:291,1,88.000002685547,10|2,1:2|0:0,0:0:0:0:
241,148,191031,5,2,1:2:0:0:
119,75,191189,1,0,3:2:0:0:
37,207,191347,2,0,B|88:191|88:191|103:170|103:170|160:151,1,132.00000402832,8|0,1:2|0:0,0:0:0:0:
164,140,191663,5,0,1:2:0:0:
326,260,191821,1,0,3:2:0:0:
163,358,191979,1,10,1:2:0:0:
223,228,192136,1,2,3:2:0:0:
231,250,192215,1,8,3:2:0:0:
235,268,192294,5,0,1:2:0:0:
366,372,192452,1,0,3:2:0:0:
420,248,192610,5,12,1:2:0:0:
247,350,192768,1,0,0:0:0:0:
79,143,192926,5,12,1:2:0:0:
104,104,193005,1,0,3:2:0:0:
148,83,193084,1,0,3:2:0:0:
198,95,193163,1,0,3:2:0:0:
198,113,193242,5,12,1:2:0:0:
242,141,193321,1,0,3:2:0:0:
292,143,193400,1,0,3:2:0:0:
334,110,193479,1,0,3:2:0:0:
330,99,193558,6,0,B|237:74|248:173|138:150,1,200,6|10,1:2|1:2,0:0:0:0:
410,339,194031,2,0,B|435:295|435:295|416:236,1,100,2|0,0:0|1:2,0:0:0:0:
380,180,194347,1,0,3:2:0:0:
207,3,194505,2,0,B|182:47|182:47|201:106,1,100,10|2,1:2|0:0,0:0:0:0:
115,264,194821,6,0,P|66:273|19:291,1,100,0|0,1:2|3:2,0:0:0:0:
146,151,195136,1,10,1:2:0:0:
0,234,195294,2,0,B|76:259|76:259|99:295|99:295|177:317,1,200,2|0,3:2|3:2,0:0:0:0:
380,180,195768,1,10,1:2:0:0:
439,226,195926,1,2,3:2:0:0:
444,238,196005,1,8,3:2:0:0:
452,253,196084,5,0,1:2:0:0:
281,157,196242,1,0,3:2:0:0:
437,26,196400,1,10,1:2:0:0:
360,3,196558,2,0,P|367:53|382:104,1,100,2|0,0:2|1:2,0:0:0:0:
237,242,196873,1,0,3:2:0:0:
382,340,197031,2,0,B|312:325|318:272|236:260,1,150,10|0,1:2|0:0,0:0:0:0:
237,242,197347,5,0,1:2:0:0:
50,382,197505,1,0,3:2:0:0:
117,270,197663,1,10,1:2:0:0:
266,377,197821,1,2,3:2:0:0:
266,377,197900,1,8,3:2:0:0:
266,377,197979,2,0,P|222:348|162:345,1,100,0|0,1:2|3:2,0:0:0:0:
20,168,198294,2,0,P|91:179|148:130,1,150,12|0,1:2|0:0,0:0:0:0:
152,116,198610,5,6,1:2:0:0:
26,46,198768,1,0,3:2:0:0:
106,215,198926,1,10,1:2:0:0:
242,92,199084,2,0,B|320:111|320:111|346:153|346:153|417:168,1,200,2|0,0:0|3:2,0:0:0:0:
512,65,199558,2,0,B|464:51|464:51|421:76,1,100,10|2,1:2|0:2,0:0:0:0:
347,360,199873,5,0,1:2:0:0:
505,258,200031,1,0,3:2:0:0:
414,167,200189,2,0,P|388:210|399:267,1,100,10|0,1:2|0:0,0:0:0:0:
512,117,200505,2,0,P|499:70|489:15,1,100,2|2,1:2|3:2,0:0:0:0:
316,189,200821,5,10,1:2:0:0:
487,272,200979,1,0,3:2:0:0:
350,107,201136,5,12,3:2:0:0:
206,283,201294,1,0,3:2:0:0:
209,302,201452,1,0,3:2:0:0:
47,97,201610,5,12,3:2:0:0:
213,257,201768,1,2,1:2:0:0:
206,283,201926,1,0,3:2:0:0:
194,49,202084,5,12,1:2:0:0:
74,243,202242,1,0,3:2:0:0:
248,133,202400,5,14,1:2:0:0:
333,316,202558,1,0,3:2:0:0:
191,384,202715,6,0,B|219:302|146:317|182:216,1,167.999994873047,12|0,1:2|3:2,0:0:0:0:
165,190,203031,6,0,P|192:198|230:217,1,55.9999982910157,14|8,1:2|3:3,0:0:0:0:
408,379,203189,1,8,3:3:0:0:
438,341,203268,1,8,3:3:0:0:
445,289,203347,1,12,1:2:0:0:
411,246,203426,1,4,3:3:0:0:
369,215,203505,1,4,3:3:0:0:
342,167,203584,1,4,3:3:0:0:
354,122,203663,6,0,P|394:97|452:103,1,100,6|0,1:2|3:2,0:0:0:0:
259,341,203979,2,0,B|187:324|200:277|123:264,1,150,10|0,1:2|0:0,0:0:0:0:
65,221,204294,2,0,B|50:270|50:270|77:330,1,100,2|0,1:2|3:2,0:0:0:0:
264,165,204610,2,0,P|254:90|238:-1,1,150,10|0,1:2|0:0,0:0:0:0:
257,2,204926,5,2,1:2:0:0:
146,151,205084,1,0,3:2:0:0:
333,283,205242,1,8,1:2:0:0:
218,384,205400,2,0,L|235:277,1,100,0|0,0:0|1:2,0:0:0:0:
357,177,205715,1,0,3:2:0:0:
177,65,205873,1,10,1:2:0:0:
63,221,206031,1,2,3:2:0:0:
71,236,206110,1,8,3:2:0:0:
76,248,206189,6,0,B|137:226|137:226|164:186|164:186|250:158,2,176.000005371094,0|10|2,1:2|1:2|1:2,0:0:0:0:
287,69,206979,1,0,3:2:0:0:
456,233,207136,2,0,P|414:231|369:195,1,88.000002685547,10|0,1:2|0:0,0:0:0:0:
230,1,207452,5,2,1:2:0:0:
380,75,207610,1,0,3:2:0:0:
237,187,207768,1,8,1:2:0:0:
278,97,207926,1,0,3:2:0:0:
395,277,208084,5,0,1:2:0:0:
240,350,208242,1,0,3:2:0:0:
408,384,208400,5,14,1:2:0:0:
306,291,208558,1,2,3:2:0:0:
306,291,208636,1,8,3:2:0:0:
306,291,208715,6,0,B|222:284|220:355|120:338,1,176.000005371094,6|8,1:2|1:2,0:0:0:0:
14,253,209189,2,0,B|-1:210|-1:210|28:164,1,88.000002685547,0|0,0:0|1:2,0:0:0:0:
162,61,209505,1,0,3:2:0:0:
262,172,209663,2,0,P|215:156|167:144,1,88.000002685547,8|0,1:2|0:0,0:0:0:0:
63,51,209979,5,0,1:2:0:0:
236,0,210136,1,0,3:2:0:0:
178,147,210294,2,0,P|172:100|159:53,1,88.000002685547,8|2,1:2|0:0,0:0:0:0:
382,170,210610,2,0,P|370:216|362:265,1,88.000002685547,2|2,1:2|3:2,0:0:0:0:
289,83,210926,1,10,1:2:0:0:
118,247,211084,1,2,3:2:0:0:
118,247,211163,1,8,3:2:0:0:
118,247,211242,6,0,P|162:197|287:216,1,200,0|8,1:2|3:2,0:0:0:0:
403,362,211715,1,0,0:0:0:0:
464,309,211873,2,0,P|451:258|445:210,1,100,0|0,1:2|3:2,0:0:0:0:
277,300,212189,1,10,1:2:0:0:
111,122,212426,5,10,3:2:0:0:
121,109,212505,2,0,B|162:122|162:122|169:134|169:134|232:153,1,100,0|0,1:2|3:2,0:0:0:0:
359,350,212821,2,0,P|278:329|209:378,1,167.999994873047,12|0,1:2|0:0,0:0:0:0:
212,373,213136,6,0,P|225:346|227:305,1,55.9999982910157,12|0,3:2|3:2,0:0:0:0:
93,41,213294,1,0,3:2:0:0:
42,67,213373,1,0,3:2:0:0:
28,120,213452,1,12,3:2:0:0:
56,162,213531,1,0,3:2:0:0:
94,195,213610,1,2,3:2:0:0:
112,242,213689,1,0,3:2:0:0:
90,287,213768,6,0,P|40:301|-5:327,1,100,6|0,1:2|3:2,0:0:0:0:
187,79,214084,1,10,1:2:0:0:
307,190,214242,2,0,P|381:203|471:122,1,200,2|0,0:0|3:2,0:0:0:0:
379,299,214715,1,10,1:2:0:0:
462,121,214873,6,0,P|464:171|495:222,1,100,2|0,0:2|1:2,0:0:0:0:
373,57,215189,1,0,3:2:0:0:
512,0,215347,1,10,1:2:0:0:
462,121,215505,6,0,B|384:107|384:107|358:72|358:72|280:55,1,200,2|0,0:0|3:2,0:0:0:0:
121,229,215979,1,10,1:2:0:0:
246,299,216136,1,2,3:2:0:0:
261,277,216215,1,8,3:2:0:0:
261,246,216294,5,0,1:2:0:0:
217,179,216452,1,0,3:2:0:0:
133,338,216610,1,10,1:2:0:0:
334,203,216768,2,0,B|410:225|410:225|436:268|436:268|506:289,1,200,2|0,3:2|3:2,0:0:0:0:
331,37,217242,2,0,B|299:77|299:77|311:136,1,100,10|2,1:2|3:2,0:0:0:0:
266,347,217558,5,12,3:2:0:0:
423,220,217715,1,0,3:2:0:0:
442,226,217873,1,2,3:2:0:0:
209,114,218031,5,14,3:2:0:0:
401,227,218189,1,0,3:2:0:0:
423,220,218347,1,0,3:2:0:0:
345,302,218505,5,14,3:2:0:0:
306,273,218584,1,0,3:2:0:0:
295,228,218663,1,0,3:2:0:0:
305,183,218742,1,0,3:2:0:0:
341,148,218821,6,0,P|392:133|448:107,1,100,6|0,3:2|3:2,0:0:0:0:
345,302,219136,2,0,P|296:250|175:263,1,200,8|2,1:2|1:2,0:0:0:0:
41,132,219610,1,2,3:2:0:0:
175,66,219768,2,0,P|181:116|145:170,1,100,10|2,1:2|3:2,0:0:0:0:
110,213,220005,1,8,3:2:0:0:
98,227,220084,6,0,P|46:237|-8:261,1,100,2|2,1:2|3:2,0:0:0:0:
123,0,220400,2,0,P|193:51|263:38,1,150,10|0,1:2|0:0,0:0:0:0:
269,26,220715,1,0,1:2:0:0:
158,158,220873,1,0,3:2:0:0:
340,239,221031,1,8,1:2:0:0:
271,130,221189,1,0,0:0:0:0:
248,290,221347,5,6,1:2:0:0:
357,145,221505,1,2,3:2:0:0:
485,328,221663,2,0,B|432:310|432:310|410:279|410:279|341:257,1,150,10|0,1:2|0:0,0:0:0:0:
340,239,221979,1,2,1:2:0:0:
202,53,222136,2,0,B|149:71|149:71|127:102|127:102|58:124,1,150,8|0,3:2|0:0,0:0:0:0:
57,140,222452,1,0,1:2:0:0:
170,384,222610,6,0,B|146:275|246:310|206:185,1,200,14|0,3:2|1:2,0:0:0:0:
343,333,223084,1,8,3:2:0:0:
202,195,223242,2,0,P|207:246|236:284,1,100,8|8,1:2|3:3,0:0:0:0:
348,152,223558,1,8,3:3:0:0:
274,126,223715,1,4,3:3:0:0:
102,252,223873,2,0,B|65:145|166:181|125:54,1,192,6|8,3:2|3:2,0:0:0:0:
130,71,224505,1,0,3:2:0:0:
256,192,232715,12,10,233821,3:3:0:0:
190,176,233979,6,0,B|156:194|86:174|72:83|201:-13|297:71|280:181|280:186|278:189|277:192|264:337|447:299|437:226|409:204,1,512,6|0,3:2|3:2,0:0:0:0:
361,78,235558,2,0,P|363:111|359:158,1,64,2|0,3:2|0:0,0:0:0:0:
448,155,235873,2,0,P|433:184|406:223,1,64,2|0,3:2|0:0,0:0:0:0:
497,313,236189,2,0,P|449:303|379:301,1,96,2|0,3:2|0:0,0:0:0:0:
330,345,236505,2,0,B|168:371|270:228|79:278,2,256,2|0|2,3:2|3:2|3:2,0:0:0:0:
383,277,238084,5,0,3:2:0:0:
327,197,238400,1,0,3:2:0:0:
464,131,238715,1,2,3:2:0:0:
397,86,238873,2,0,P|369:80|356:75,1,32,2|2,0:0|0:0,0:0:0:0:
343,47,239031,2,0,B|264:50|307:92|211:79,1,128,6|0,3:2|3:2,0:0:0:0:
140,49,239505,1,0,0:0:0:0:
13,154,239663,2,0,P|83:160|150:189,1,128,2|0,3:2|3:2,0:0:0:0:
336,224,240136,5,2,0:0:0:0:
336,224,240215,1,2,0:0:0:0:
336,224,240294,2,0,B|290:264|358:369|477:281|468:207,1,256,2|2,3:2|3:2,0:0:0:0:
449,71,241242,2,0,P|406:63|370:56,1,64,0|2,3:2|0:0,0:0:0:0:
345,63,241479,1,2,0:0:0:0:
345,63,241558,2,0,B|225:36|289:113|144:71,1,192,2|0,3:2|0:0,0:0:0:0:
37,195,242189,2,0,P|49:144|56:117,1,64,2|0,3:2|0:0,0:0:0:0:
193,171,242505,1,0,1:2:0:0:
132,247,242663,1,0,0:0:0:0:
193,171,242821,2,0,B|233:187|233:187|251:211|251:211|311:235,1,128,0|4,1:2|1:2,0:0:0:0:
418,289,243294,5,8,3:2:0:0:
418,289,243373,1,8,3:2:0:0:
418,289,243452,1,8,3:2:0:0:
512,204,243610,1,2,3:2:0:0:
415,146,243768,1,8,3:3:0:0:
477,95,243926,1,4,3:3:0:0:
448,62,244084,1,6,3:2:0:0:
279,114,244558,6,0,P|284:136|288:160,1,32,2|2,0:0|0:0,0:0:0:0:
314,215,244715,1,2,0:0:0:0:
172,183,244979,1,2,0:0:0:0:
66,268,245189,1,2,0:0:0:0:
240,262,245347,2,0,P|308:252|323:384,1,223.999993164063,6|0,3:2|0:0,0:0:0:0:
408,235,246136,6,0,B|443:226|443:226|448:222|448:222|492:210,1,83.9999974365235,2|0,0:2|0:0,0:0:0:0:
511,203,246452,1,2,0:0:0:0:
511,203,246531,1,2,0:0:0:0:
511,203,246610,2,0,B|541:122|541:122|466:65,1,167.999994873047,6|0,3:2|0:0,0:0:0:0:
373,175,247242,5,2,0:0:0:0:
244,193,247479,1,2,0:0:0:0:
160,111,247715,1,2,0:0:0:0:
343,95,247873,2,0,B|383:198|283:175|321:289,1,195.999994018555,4|0,3:2|0:0,0:0:0:0:
331,291,248505,2,0,P|289:280|263:274,1,55.9999982910157,2|0,0:0|0:0,0:0:0:0:
201,332,248821,1,2,0:0:0:0:
133,269,248979,2,0,P|120:272|106:280,1,27.9999991455078,2|2,0:0|0:0,0:0:0:0:
88,348,249136,2,0,B|59:237|149:284|113:160,1,195.999994018555,4|0,1:0|0:0,0:0:0:0:
172,85,249768,6,0,P|137:70|106:36,1,71.9999978027344,2|0,0:0|0:0,0:0:0:0:
234,188,250084,2,0,P|214:221|206:267,1,71.9999978027344,2|0,0:0|0:0,0:0:0:0:
295,79,250400,2,0,P|267:50|252:9,1,71.9999978027344,6|8,3:2|3:2,0:0:0:0:
259,3,250636,1,8,3:2:0:0:
259,3,250715,1,8,3:2:0:0:
379,49,250873,1,0,3:3:0:0:
508,7,251031,2,0,P|476:43|463:87,1,71.9999978027344,2|8,0:0|3:3,0:0:0:0:
411,198,251347,6,0,B|395:166|395:166|433:189,1,71.9999978027344,8|0,3:3|0:0,0:0:0:0:
492,225,251663,2,0,P|446:235|361:290,1,120,6|0,3:2|0:0,0:0:0:0:
292,83,251979,2,0,P|278:122|281:231,1,120,0|0,1:2|0:0,0:0:0:0:
502,240,252294,2,0,P|456:250|361:308,1,138.000002632141,0|0,1:2|0:0,0:0:0:0:
282,78,252610,2,0,P|268:117|276:236,1,138.000002632141,0|0,1:2|0:0,0:0:0:0:
72,204,252926,5,10,3:2:0:0:
58,222,253004,1,0,3:2:0:0:
48,243,253084,2,0,P|88:239|142:238,1,51.999997619629,0|0,3:2|3:2,0:0:0:0:
314,286,253242,5,8,3:2:0:0:
327,304,253320,1,0,3:2:0:0:
338,325,253400,2,0,P|298:321|244:320,1,51.999997619629,0|0,3:2|3:2,0:0:0:0:
201,383,253558,5,8,3:2:0:0:
168,343,253636,1,0,3:2:0:0:
164,292,253715,1,0,3:2:0:0:
190,248,253794,1,0,3:2:0:0:
219,241,253873,5,8,3:2:0:0:
259,195,253951,1,0,3:2:0:0:
261,134,254030,1,0,3:2:0:0:
224,85,254109,1,0,3:2:0:0:
183,112,254189,5,6,1:2:0:0:
155,125,255294,1,12,3:2:0:0:
346,73,255610,5,12,3:2:0:0:
346,73,256242,2,0,B|260:66|310:121|197:105,1,139.999995727539,2|0,0:0|0:0,0:0:0:0:
160,41,256715,1,12,3:2:0:0:
107,261,256873,1,12,3:2:0:0:
107,261,257821,2,0,B|159:250|159:250|230:282|230:282|290:270,1,176.000005371094,12|8,1:2|3:2,0:0:0:0:
206,106,258294,5,0,3:2:0:0:
86,189,258452,1,8,3:2:0:0:
86,189,258531,1,8,3:2:0:0:
86,189,258610,1,10,3:2:0:0:
0,85,258768,1,8,3:3:0:0:
87,0,258926,1,8,3:3:0:0:
182,34,259084,6,0,P|189:69|188:94,1,40,6|0,3:3|0:0,0:0:0:0:
206,106,259242,2,0,B|290:100|338:55|338:55|303:101|321:151,1,240,6|0,3:2|3:2,0:0:0:0:
403,275,259873,1,8,1:2:0:0:
406,203,260031,2,0,B|369:213|369:213|303:263|303:263|236:276,1,160,0|0,3:2|3:2,0:0:0:0:
22,133,260505,6,0,P|89:120|139:213,1,160,2|8,1:2|0:0,0:0:0:0:
176,372,260979,1,2,3:2:0:0:
176,372,261058,1,2,0:0:0:0:
176,372,261136,2,0,P|185:314|187:236,1,120,8|0,1:2|0:0,0:0:0:0:
141,185,261452,1,8,0:0:0:0:
339,47,261610,1,8,3:2:0:0:
446,123,261768,6,0,P|397:130|321:168,1,120,6|0,3:2|0:0,0:0:0:0:
104,39,262084,2,0,P|157:65|216:75,1,120,10|0,3:2|0:0,0:0:0:0:
452,131,262400,6,0,P|403:138|321:179,1,132.00000402832,10|0,3:2|0:0,0:0:0:0:
96,44,262715,2,0,P|154:74|219:85,1,132.00000402832,10|0,3:2|0:0,0:0:0:0:
477,1,263031,6,0,P|462:68|449:152,1,132.00000402832,10|0,3:2|0:0,0:0:0:0:
397,384,263347,2,0,P|386:318|371:254,1,132.00000402832,10|0,3:2|0:0,0:0:0:0:
488,0,263663,6,0,P|473:67|460:151,1,143.999995605469,10|0,3:2|0:0,0:0:0:0:
410,384,263979,2,0,P|399:318|383:240,1,143.999995605469,10|0,3:2|0:0,0:0:0:0:
333,157,264294,5,2,0:0:0:0:
256,192,266821,12,0,267926,0:0:0:0:
285,164,268084,6,0,P|301:209|315:255,1,88.000002685547,6|0,3:2|0:0,0:0:0:0:
402,47,268400,2,0,P|356:63|310:77,1,88.000002685547,2|0,3:2|0:0,0:0:0:0:
502,199,268716,2,0,P|485:153|471:107,1,88.000002685547,2|0,3:2|0:0,0:0:0:0:
385,298,269031,2,0,P|430:281|476:267,1,88.000002685547,2|0,3:2|0:0,0:0:0:0:
385,177,269347,6,0,B|308:163|311:236|215:215,1,176.000005371094,2|0,3:2|1:2,0:0:0:0:
124,344,269821,2,0,P|168:328|226:314,1,88.000002685547,0|0,0:0|3:2,0:0:0:0:
77,173,270136,1,8,3:2:0:0:
139,122,270294,2,0,P|186:136|240:147,1,88.000002685547,2|2,3:2|0:0,0:0:0:0:
62,257,270610,6,0,P|49:178|24:45,1,176.000005371094,4|2,3:2|3:2,0:0:0:0:
145,143,271084,1,0,0:0:0:0:
265,34,271242,2,0,P|252:79|246:133,1,88.000002685547,2|0,3:2|0:0,0:0:0:0:
385,290,271558,2,0,P|398:245|404:191,1,88.000002685547,2|0,3:2|0:0,0:0:0:0:
142,282,271873,6,0,B|190:293|223:257|214:257|241:209|298:222,1,176.000005371094,2|0,3:2|1:2,0:0:0:0:
162,92,272347,2,0,P|209:109|270:124,1,88.000002685547,0|0,0:0|3:2,0:0:0:0:
89,215,272663,1,8,1:2:0:0:
141,277,272821,2,0,P|126:325|118:377,1,88.000002685547,2|2,3:2|0:0,0:0:0:0:
126,376,273058,1,2,0:0:0:0:
126,376,273136,6,0,P|147:308|65:228,1,176.000005371094,6|6,3:2|3:2,0:0:0:0:
177,72,273610,1,0,0:0:0:0:
118,19,273768,2,0,P|91:59|94:113,1,88.000002685547,6|0,3:2|0:0,0:0:0:0:
0,276,274084,2,0,P|46:254|111:241,1,88.000002685547,6|0,3:2|0:0,0:0:0:0:
271,139,274400,6,0,B|364:146|342:220|432:233,1,176.000005371094,0|0,3:2|1:2,0:0:0:0:
271,139,274873,1,2,0:0:0:0:
218,264,275031,5,2,3:2:0:0:
379,161,275189,1,10,3:2:0:0:
227,50,275347,1,2,3:2:0:0:
271,139,275505,5,0,3:2:0:0:
271,139,275584,1,0,3:2:0:0:
271,139,275663,5,14,3:2:0:0:
235,165,275742,1,0,3:2:0:0:
187,175,275821,1,0,3:2:0:0:
144,154,275900,1,0,3:2:0:0:
145,133,275979,5,8,3:2:0:0:
99,112,276058,1,0,3:2:0:0:
51,127,276136,1,0,3:2:0:0:
18,165,276215,1,0,3:2:0:0:
19,183,276294,6,0,P|28:210|35:241,1,44.0000013427735,8|0,1:2|3:2,0:0:0:0:
199,343,276452,2,0,P|204:319|212:297,1,44.0000013427735,0|0,3:2|3:2,0:0:0:0:
27,352,276610,6,0,P|51:343|80:337,1,44.0000013427735,10|0,3:2|3:2,0:0:0:0:
232,188,276768,2,0,P|208:182|186:174,1,44.0000013427735,0|0,3:2|3:2,0:0:0:0:
425,359,276926,5,14,3:2:0:0:
468,311,277005,1,0,3:2:0:0:
468,250,277084,1,0,3:2:0:0:
419,204,277163,1,0,3:2:0:0:
398,213,277242,5,8,3:2:0:0:
349,172,277321,1,0,3:2:0:0:
341,109,277400,1,0,3:2:0:0:
380,55,277479,1,0,3:2:0:0:
395,68,277558,5,8,3:2:0:0:
338,86,277636,1,0,3:2:0:0:
289,80,277715,1,0,3:2:0:0:
245,43,277794,1,0,3:2:0:0:
238,27,277873,5,4,3:3:0:0:
202,19,277952,1,4,3:3:0:0:
166,33,278031,1,6,3:3:0:0:
148,60,278110,1,4,3:3:0:0:
148,74,278189,6,0,P|161:117|175:182,1,92.0000017547608,6|0,1:2|3:2,0:0:0:0:
12,317,278505,1,10,1:2:0:0:
52,255,278663,2,0,B|139:254|115:344|235:324,1,184.000003509522,2|0,0:0|3:2,0:0:0:0:
349,195,279136,1,10,1:2:0:0:
420,247,279294,1,2,3:2:0:0:
420,247,279373,1,8,3:2:0:0:
420,247,279452,5,0,1:2:0:0:
267,187,279610,1,0,3:2:0:0:
343,330,279768,5,10,1:2:0:0:
468,177,279926,2,0,P|453:126|441:57,2,92.0000017547608,2|0|0,0:2|1:2|3:2,0:0:0:0:
286,35,280400,1,10,1:2:0:0:
234,93,280558,1,2,3:2:0:0:
234,93,280636,1,8,3:2:0:0:
234,93,280715,6,0,B|155:92|168:154|73:136,1,138.000002632141,0|0,1:2|0:0,0:0:0:0:
78,126,281031,1,10,1:2:0:0:
222,259,281189,2,0,B|239:211|239:211|216:157,1,92.0000017547608,2|0,0:2|1:2,0:0:0:0:
127,285,281505,1,0,3:2:0:0:
196,370,281663,2,0,P|246:359|314:351,1,92.0000017547608,10|2,1:2|3:2,0:0:0:0:
347,310,281900,1,8,3:2:0:0:
368,298,281979,6,0,L|471:339,1,92.0000017547608,0|0,1:2|3:2,0:0:0:0:
326,179,282294,1,10,1:2:0:0:
503,98,282452,2,0,B|431:110|431:110|401:151|401:151|326:164,1,184.000003509522,2|0,0:2|3:2,0:0:0:0:
512,229,282926,1,12,1:2:0:0:
411,78,283084,1,2,0:2:0:0:
246,239,283242,6,0,B|178:222|191:175|98:159,1,138.000002632141,6|0,1:2|0:0,0:0:0:0:
106,173,283558,1,10,1:2:0:0:
17,302,283715,1,2,0:0:0:0:
124,340,283873,5,0,1:2:0:0:
28,214,284031,1,0,3:2:0:0:
176,87,284189,1,10,1:2:0:0:
121,29,284347,1,2,3:2:0:0:
106,23,284426,1,8,3:2:0:0:
86,15,284505,6,0,P|62:60|76:116,1,92.0000017547608,0|0,1:2|3:2,0:0:0:0:
246,239,284821,2,0,P|294:223|372:207,1,92.0000017547608,10|0,1:2|0:0,0:0:0:0:
272,111,285136,5,2,1:2:0:0:
156,224,285294,1,2,3:2:0:0:
283,350,285452,2,0,L|257:246,1,92.0000017547608,10|0,1:2|3:2,0:0:0:0:
218,27,285768,6,0,P|283:88|390:71,1,184.000003509522,12|0,3:2|3:2,0:0:0:0:
503,257,286242,1,12,3:2:0:0:
489,143,286400,5,2,1:2:0:0:
359,233,286558,1,0,3:2:0:0:
273,100,286715,2,0,L|307:-13,1,92.0000017547608,12|0,1:2|3:2,0:0:0:0:
395,165,287031,5,14,1:2:0:0:
350,156,287110,1,0,3:2:0:0:
305,177,287189,1,0,3:2:0:0:
280,223,287268,1,0,3:2:0:0:
286,242,287347,5,12,1:2:0:0:
248,282,287426,1,0,3:2:0:0:
194,292,287505,1,0,3:2:0:0:
147,265,287584,1,0,3:2:0:0:
133,248,287663,6,0,P|142:223|148:194,1,46.0000008773804,14|8,1:2|3:3,0:0:0:0:
326,307,287821,2,0,P|332:331|341:355,1,46.0000008773804,8|8,3:3|3:3,0:0:0:0:
130,361,287979,6,0,P|153:351|193:340,1,46.0000008773804,12|4,1:2|3:3,0:0:0:0:
305,177,288136,2,0,P|281:167|242:156,1,46.0000008773804,4|4,3:3|3:3,0:0:0:0:
90,3,288294,6,0,P|83:53|113:114,1,100,6|0,1:2|3:2,0:0:0:0:
0,253,288610,2,0,B|71:245|64:199|153:181,1,150,10|0,1:2|0:0,0:0:0:0:
147,200,288926,1,2,1:2:0:0:
4,93,289084,1,0,3:2:0:0:
167,45,289242,5,10,1:2:0:0:
48,189,289400,1,0,0:0:0:0:
220,303,289558,6,0,B|312:283|310:372|431:357,1,200,2|8,1:2|1:2,0:0:0:0:
317,211,290031,1,0,0:0:0:0:
440,246,290189,5,0,1:2:0:0:
293,350,290347,1,0,3:2:0:0:
197,179,290505,5,10,1:2:0:0:
362,290,290663,1,2,1:2:0:0:
362,290,290742,1,0,1:0:0:0:
362,290,290821,6,0,P|347:194|338:109,1,150,0|0,1:2|0:0,0:0:0:0:
356,117,291136,2,0,P|359:169|369:222,1,100,10|0,1:2|0:0,0:0:0:0:
237,70,291452,1,2,1:2:0:0:
383,0,291610,1,0,3:2:0:0:
196,178,291768,6,0,P|149:162|84:150,1,100,10|0,1:2|0:0,0:0:0:0:
314,52,292084,1,2,1:2:0:0:
170,10,292242,1,0,3:2:0:0:
314,172,292400,1,8,1:2:0:0:
161,333,292558,2,0,B|134:287|134:287|156:230,1,100,0|0,3:2|1:2,0:0:0:0:
196,178,292873,1,0,3:2:0:0:
457,327,293031,6,0,B|369:323|400:365|287:353,1,150,14|0,1:2|0:0,0:0:0:0:
292,338,293347,1,6,1:2:0:0:
468,194,293505,1,0,3:2:0:0:
285,101,293663,1,8,1:2:0:0:
314,172,293821,1,0,0:0:0:0:
462,58,293979,6,0,P|415:43|360:20,1,100,0|0,1:2|3:2,0:0:0:0:
110,262,294294,2,0,P|172:243|280:232,1,150,8|0,1:2|0:0,0:0:0:0:
275,246,294610,5,0,1:2:0:0:
106,115,294768,1,0,3:2:0:0:
227,34,294926,1,8,1:2:0:0:
156,0,295084,5,2,0:0:0:0:
254,112,295242,1,2,1:2:0:0:
116,238,295400,1,2,3:2:0:0:
271,377,295558,2,0,L|250:264,1,100,10|2,1:2|0:2,0:0:0:0:
30,292,295873,5,2,1:2:0:0:
167,332,296031,1,0,3:2:0:0:
271,256,296189,5,8,3:2:0:0:
420,197,296347,2,0,P|468:206|518:225,2,100,2|0|0,0:0|1:2|3:2,0:0:0:0:
294,114,296821,5,10,1:2:0:0:
389,288,296979,1,2,3:2:0:0:
215,195,297136,5,10,1:2:0:0:
401,66,297294,1,0,3:2:0:0:
343,174,297452,6,0,B|271:157|290:120|184:96,1,150,12|0,1:2|0:0,0:0:0:0:
198,80,297768,6,0,P|172:86|148:90,1,50,12|0,3:2|3:2,0:0:0:0:
42,213,297926,2,0,P|68:222|94:234,1,50,0|0,3:2|3:2,0:0:0:0:
58,54,298084,6,0,P|64:77|68:115,1,50,12|0,3:2|3:2,0:0:0:0:
216,263,298242,2,0,P|220:238|230:205,1,50,2|0,3:2|3:2,0:0:0:0:
141,165,298400,5,6,1:2:0:0:
51,315,298558,1,0,3:2:0:0:
197,384,298715,5,10,1:2:0:0:
110,246,298873,1,2,3:2:0:0:
110,246,298952,1,8,3:2:0:0:
110,246,299031,2,0,P|157:260|219:291,1,100,0|0,1:2|3:2,0:0:0:0:
371,136,299347,1,10,1:2:0:0:
297,167,299505,1,2,0:2:0:0:
396,335,299663,5,0,1:2:0:0:
511,195,299821,1,0,3:2:0:0:
315,75,299979,2,0,B|288:118|288:118|300:183,1,100,10|2,1:2|0:0,0:0:0:0:
460,269,300294,5,0,1:2:0:0:
319,321,300452,1,0,3:2:0:0:
452,139,300610,5,10,1:2:0:0:
253,10,300768,1,2,3:2:0:0:
253,10,300847,1,8,3:2:0:0:
253,10,300926,6,0,B|319:20|313:57|400:66,1,150,0|0,1:2|0:0,0:0:0:0:
408,50,301242,1,10,1:2:0:0:
206,180,301400,1,2,3:2:0:0:
206,180,301479,1,8,3:2:0:0:
206,180,301558,2,0,P|181:135|190:82,1,100,0|0,1:2|3:2,0:0:0:0:
365,228,301873,1,10,1:2:0:0:
222,339,302031,1,2,3:2:0:0:
404,366,302189,5,12,3:2:0:0:
227,182,302347,1,0,3:2:0:0:
206,180,302505,1,2,3:2:0:0:
408,49,302663,5,14,3:2:0:0:
192,184,302821,1,0,3:2:0:0:
174,189,302979,1,0,3:2:0:0:
280,81,303136,5,14,3:2:0:0:
335,116,303215,1,0,3:2:0:0:
356,170,303294,1,0,3:2:0:0:
344,228,303373,1,0,3:2:0:0:
296,266,303452,5,6,3:2:0:0:
195,331,303610,2,0,P|266:351|359:391,1,150,0|0,3:2|0:0,0:0:0:0:
356,366,303926,1,0,3:2:0:0:
188,137,304084,2,0,P|155:180|160:256,1,100,10|0,1:2|0:0,0:0:0:0:
344,40,304400,1,2,1:2:0:0:
500,133,304558,6,0,P|422:146|346:173,1,150,2|0,3:2|0:0,0:0:0:0:
341,151,304873,1,8,3:2:0:0:
487,274,305031,1,0,1:2:0:0:
348,343,305189,1,0,3:2:0:0:
434,185,305347,1,10,1:2:0:0:
512,374,305505,1,2,3:2:0:0:
306,232,305663,5,8,3:2:0:0:
252,218,305742,1,8,3:2:0:0:
196,231,305821,1,8,3:2:0:0:
153,273,305900,1,8,3:2:0:0:
133,323,305979,6,0,P|50:334|10:278,1,150,6|0,3:2|0:0,0:0:0:0:
12,288,306294,2,0,P|22:237|29:179,1,100,2|0,3:2|0:0,0:0:0:0:
153,41,306610,1,8,3:2:0:0:
197,137,306768,1,8,3:2:0:0:
66,71,306926,5,8,3:2:0:0:
236,11,307084,1,8,3:2:0:0:
395,225,307242,5,14,3:2:0:0:
362,239,307321,1,0,3:2:0:0:
326,231,307400,1,0,3:2:0:0:
306,203,307479,1,0,3:2:0:0:
310,182,307558,5,12,3:2:0:0:
283,151,307636,1,0,3:2:0:0:
239,137,307715,1,0,3:2:0:0:
192,157,307794,1,0,3:2:0:0:
188,177,307873,5,12,3:2:0:0:
235,195,307952,1,0,3:2:0:0:
283,172,308031,1,0,3:2:0:0:
316,132,308110,1,0,3:2:0:0:
309,117,308189,5,14,3:2:0:0:
361,74,308268,1,0,3:2:0:0:
425,75,308347,1,0,3:2:0:0:
475,118,308426,1,0,3:2:0:0:
503,193,308505,2,0,P|497:267|493:366,1,143.999995605469,6|0,1:2|0:0,0:0:0:0:
506,384,308821,1,8,1:2:0:0:
396,165,308979,1,0,1:0:0:0:
296,343,309136,5,0,1:2:0:0:
425,272,309294,1,0,1:0:0:0:
246,149,309452,6,0,B|133:133|175:209|47:183,1,191.999994140625,8|0,0:0|1:0,0:0:0:0:
246,149,309926,1,0,3:2:0:0:
388,329,310084,6,0,P|422:337|455:343,1,47.9999985351563,10|0,1:2|0:0,0:0:0:0:
512,308,310242,2,0,P|488:312|465:318,1,47.9999985351563,2|0,0:0|0:0,0:0:0:0:
415,158,310400,2,0,B|406:207|406:207|443:277|443:277|433:348,1,191.999994140625,0|10,1:2|1:2,0:0:0:0:
496,156,310873,1,2,0:0:0:0:
339,225,311031,2,0,P|285:228|220:243,1,95.9999970703126,0|0,1:2|3:2,0:0:0:0:
277,59,311347,2,0,P|306:104|352:153,1,95.9999970703126,8|0,1:2|0:0,0:0:0:0:
165,196,311663,2,0,P|189:147|208:83,1,95.9999970703126,0|0,1:2|3:2,0:0:0:0:
192,21,311979,1,10,1:2:0:0:
49,0,312136,1,2,0:0:0:0:
0,251,312294,6,0,B|125:231|48:310|204:271,1,191.999994140625,2|8,1:2|1:2,0:0:0:0:
423,277,312768,1,0,3:2:0:0:
423,277,312847,1,0,3:2:0:0:
423,277,312926,2,0,P|394:246|386:205,1,47.9999985351563,10|0,1:2|3:2,0:0:0:0:
298,213,313084,2,0,P|309:177|327:147,1,51.999997619629,0|0,3:2|3:2,0:0:0:0:
215,124,313242,2,0,P|242:98|280:83,1,55.9999982910157,8|0,1:2|3:2,0:0:0:0:
390,26,313400,5,0,3:2:0:0:
409,37,313479,1,0,3:2:0:0:
424,54,313558,2,0,B|358:41|358:41|318:10|318:10|231:-2,2,191.999994140625,6|8|0,1:2|1:2|1:2,0:0:0:0:
507,135,314347,1,0,3:2:0:0:
360,290,314505,6,0,B|321:301|321:301|261:288|274:203,1,143.999995605469,10|0,1:2|0:0,0:0:0:0:
306,150,314821,2,0,B|408:145|349:205|480:190,1,162.000000617981,2|0,1:2|0:0,0:0:0:0:
507,135,315136,1,10,1:2:0:0:
414,57,315294,1,2,0:0:0:0:
181,114,315452,1,2,1:2:0:0:
349,0,315610,1,0,3:2:0:0:
403,260,315768,6,0,P|397:300|395:345,1,54.0000002059937,10|2,1:2|0:0,0:0:0:0:
267,384,315926,1,0,3:2:0:0:
267,384,316005,1,8,3:2:0:0:
267,384,316084,2,0,B|300:347|259:306|259:306|231:296|231:296|164:248|231:182,2,216.000000823975,2|10|0,1:2|1:2|1:2,0:0:0:0:
81,239,316873,1,0,3:2:0:0:
272,163,317031,1,8,1:2:0:0:
374,312,317189,1,2,0:0:0:0:
448,114,317347,5,12,1:2:0:0:
460,127,317426,1,0,3:2:0:0:
470,142,317505,2,0,P|428:136|399:132,1,54.0000002059937,0|0,3:2|3:2,0:0:0:0:
240,142,317663,5,8,3:2:0:0:
228,155,317742,1,0,3:2:0:0:
218,170,317821,2,0,P|260:164|289:160,1,54.0000002059937,0|0,3:2|3:2,0:0:0:0:
430,226,317979,5,12,1:2:0:0:
456,251,318057,1,0,3:2:0:0:
460,288,318136,1,0,3:2:0:0:
440,319,318215,1,0,3:2:0:0:
424,331,318294,5,8,3:2:0:0:
374,312,318373,1,0,3:2:0:0:
347,326,318452,1,0,3:2:0:0:
292,306,318531,1,0,3:2:0:0:
227,344,318610,6,0,P|239:301|239:221,1,95.9999970703126,4|0,1:2|3:2,0:0:0:0:
212,123,318926,1,8,1:2:0:0:
68,156,319084,2,0,B|36:146|36:146|95:132,1,60.0000022888184,2|8,3:2|3:2,0:0:0:0:
271,234,319242,2,0,B|144:248|211:142|73:150,1,216.000000823975,2|8,1:2|1:2,0:0:0:0:
252,0,319715,5,0,3:2:0:0:
252,0,319794,1,8,3:2:0:0:
252,0,319873,1,0,1:2:0:0:
457,71,320031,2,0,B|488:64|488:64|430:47,1,60.0000022888184,2|2,3:2|0:0,0:0:0:0:
255,151,320189,2,0,B|382:165|315:59|453:67,1,216.000000823975,10|2,1:2|1:2,0:0:0:0:
460,279,320663,1,2,3:2:0:0:
437,176,320821,2,0,B|453:215|453:215|449:249|449:249|460:279,1,108.000000411987,8|0,1:2|0:0,0:0:0:0:
276,282,321136,5,0,3:2:0:0:
352,241,321294,1,0,1:2:0:0:
233,379,321452,5,8,1:2:0:0:
91,326,321610,2,0,P|100:286|99:256,1,54.0000002059937,2|8,3:2|3:2,0:0:0:0:
23,239,321768,2,0,B|119:256|70:177|189:191,1,162.000000617981,2|0,1:2|0:0,0:0:0:0:
168,189,322084,2,0,P|159:135|160:90,1,95.9999970703126,8|0,1:2|0:0,0:0:0:0:
227,0,322400,5,2,1:2:0:0:
311,126,322558,1,0,3:2:0:0:
456,44,322715,1,10,1:2:0:0:
512,251,322873,5,2,0:0:0:0:
383,153,323031,1,2,1:2:0:0:
250,251,323189,1,0,3:2:0:0:
43,377,323347,5,10,1:2:0:0:
179,195,323505,1,2,0:0:0:0:
365,354,323663,6,0,B|432:357|480:378|480:378|533:354|491:291,1,191.999994140625,0|8,1:2|1:2,0:0:0:0:
438,264,324058,1,2,0:0:0:0:
438,264,324136,2,0,P|404:275|373:276,1,47.9999985351563,0|8,3:2|3:2,0:0:0:0:
277,384,324294,2,0,B|242:281|339:313|276:180,1,191.999994140625,2|8,1:2|1:2,0:0:0:0:
162,94,324768,5,2,0:0:0:0:
21,288,324926,1,2,1:2:0:0:
144,179,325084,1,2,3:2:0:0:
247,279,325242,2,0,B|287:294|287:294|301:308|301:308|351:323,1,95.9999970703126,8|0,1:2|0:0,0:0:0:0:
460,297,325558,2,0,P|492:255|437:177,1,143.999995605469,2|0,1:2|0:0,0:0:0:0:
455,182,325873,1,10,1:2:0:0:
333,317,326031,1,2,0:0:0:0:
287,84,326189,5,14,1:2:0:0:
287,84,326268,1,0,3:2:0:0:
287,84,326347,2,0,P|299:44|304:15,1,47.9999985351563,0|0,3:2|3:2,0:0:0:0:
123,137,326505,5,10,3:2:0:0:
123,137,326584,1,0,3:2:0:0:
123,137,326663,2,0,P|111:97|106:68,1,51.999997619629,0|0,3:2|3:2,0:0:0:0:
322,168,326821,5,14,1:2:0:0:
322,168,326900,1,0,3:2:0:0:
322,168,326979,2,0,P|352:139|371:116,1,55.9999982910157,0|0,3:2|3:2,0:0:0:0:
100,236,327137,5,10,3:2:0:0:
100,236,327216,1,0,3:2:0:0:
100,236,327295,2,0,P|69:207|50:184,1,60.0000022888184,0|0,3:2|3:2,0:0:0:0:
357,294,327452,5,14,1:2:0:0:
312,277,327530,1,0,3:2:0:0:
265,285,327609,1,0,3:2:0:0:
229,315,327688,1,0,3:2:0:0:
202,349,327768,1,14,3:2:0:0:
169,363,327846,1,0,3:2:0:0:
139,350,327925,1,0,3:2:0:0:
133,335,328004,1,0,3:2:0:0:
138,327,328084,5,14,3:2:0:0:
184,290,328162,1,0,3:2:0:0:
242,296,328241,1,2,3:2:0:0:
281,339,328320,1,0,3:2:0:0:
332,369,328400,1,14,3:2:0:0:
388,382,328478,1,2,3:2:0:0:
436,349,328557,1,2,3:2:0:0:
445,291,328636,1,2,3:2:0:0:
385,244,328715,6,0,P|352:215|449:115,1,180.000006866455,6|0,1:2|0:0,0:0:0:0:
512,67,329031,2,0,B|485:53|485:53|463:35|463:35|412:19,1,95.9999970703126,8|2,1:2|3:2,0:0:0:0:
258,74,329268,1,8,3:2:0:0:
258,74,329347,2,0,B|140:93|217:163|72:154,2,191.999994140625,2|10|0,1:2|1:2|1:2,0:0:0:0:
487,179,330136,2,0,B|515:194|515:194|469:195,1,60.0000022888184,0|0,3:2|0:0,0:0:0:0:
318,226,330294,2,0,B|336:191|324:131|324:131|357:172|422:173,1,191.999994140625,10|0,1:2|1:2,0:0:0:0:
395,256,330768,1,0,3:2:0:0:
273,368,330926,2,0,P|228:356|144:347,1,95.9999970703126,8|0,1:2|0:0,0:0:0:0:
21,337,331242,5,0,1:2:0:0:
169,246,331400,1,0,3:2:0:0:
8,118,331558,1,8,1:2:0:0:
85,248,331715,1,0,0:0:0:0:
280,77,331873,2,0,B|246:55|246:55|142:79|188:178,1,191.999994140625,2|8,1:2|1:2,0:0:0:0:
368,239,332347,5,0,3:2:0:0:
368,239,332426,1,8,3:2:0:0:
368,239,332505,2,0,P|376:201|384:174,1,47.9999985351563,2|2,1:2|0:0,0:0:0:0:
459,211,332663,2,0,P|453:172|451:144,1,47.9999985351563,2|2,3:2|0:0,0:0:0:0:
495,50,332821,2,0,B|531:118|531:118|374:97,1,216.000000823975,10|0,1:2|1:2,0:0:0:0:
297,38,333294,1,0,3:2:0:0:
167,114,333452,1,8,1:2:0:0:
85,0,333610,1,0,0:0:0:0:
282,119,333768,6,0,P|322:173|306:270,1,143.999995605469,4|0,1:2|0:0,0:0:0:0:
134,306,334084,1,10,1:2:0:0:
100,280,334162,1,2,0:0:0:0:
95,238,334241,1,2,3:2:0:0:
120,204,334320,1,10,3:2:0:0:
132,209,334400,2,0,B|185:218|185:218|190:224|190:224|342:251,1,191.999994140625,2|8,1:2|1:2,0:0:0:0:
414,190,334873,1,0,0:0:0:0:
496,245,335031,1,0,1:2:0:0:
505,145,335189,1,2,3:2:0:0:
292,371,335347,6,0,P|302:335|305:313,1,47.9999985351563,10|0,1:2|0:0,0:0:0:0:
388,286,335505,2,0,B|271:267|320:338|198:296,1,191.999994140625,0|2,0:0|3:2,0:0:0:0:
81,169,335979,2,0,P|60:214|96:284,1,95.9999970703126,10|2,1:2|0:0,0:0:0:0:
367,167,336294,6,0,P|383:122|264:30,1,216.000000823975,2|10,1:2|1:2,0:0:0:0:
198,106,336768,1,0,3:2:0:0:
198,106,336847,1,8,3:2:0:0:
198,106,336926,2,0,P|158:100|132:95,1,54.0000002059937,2|2,1:2|0:0,0:0:0:0:
81,169,337084,2,0,P|41:175|15:180,1,54.0000002059937,2|2,3:2|0:0,0:0:0:0:
5,79,337242,1,10,1:2:0:0:
171,0,337400,5,0,3:2:0:0:
186,5,337479,1,8,3:2:0:0:
195,10,337558,2,0,P|205:86|214:223,1,191.999994140625,2|10,1:2|1:2,0:0:0:0:
182,347,338031,1,2,0:0:0:0:
321,291,338189,1,10,3:2:0:0:
368,293,338267,1,0,3:2:0:0:
415,303,338346,1,2,3:2:0:0:
461,319,338425,1,0,3:2:0:0:
474,339,338505,2,0,P|480:293|492:264,1,47.9999985351563,10|0,3:2|3:2,0:0:0:0:
355,206,338663,2,0,P|368:176|391:148,1,47.9999985351563,2|0,3:2|3:2,0:0:0:0:
497,162,338821,6,0,B|371:159|464:85|288:89,2,191.999994140625,6|8|2,1:2|1:2|1:2,0:0:0:0:
439,41,339610,1,0,3:2:0:0:
306,166,339768,2,0,P|262:177|195:189,1,95.9999970703126,10|2,1:2|0:0,0:0:0:0:
3,106,340084,1,2,1:2:0:0:
152,16,340242,1,0,3:2:0:0:
213,98,340400,1,10,1:2:0:0:
306,166,340558,1,2,0:0:0:0:
72,191,340715,2,0,P|51:238|88:332,1,143.999995605469,0|0,1:2|0:0,0:0:0:0:
220,375,341031,6,0,P|254:368|279:363,1,47.9999985351563,10|0,1:2|0:0,0:0:0:0:
347,351,341189,2,0,P|323:346|299:341,1,47.9999985351563,2|0,0:0|0:0,0:0:0:0:
394,182,341347,1,2,1:2:0:0:
352,159,341425,1,2,0:0:0:0:
306,166,341504,1,2,3:2:0:0:
273,200,341583,1,2,0:0:0:0:
284,227,341663,2,0,B|314:312|235:280|277:407,1,143.999995605469,8|0,1:2|0:0,0:0:0:0:
375,271,341979,1,2,1:2:0:0:
484,210,342136,1,2,3:2:0:0:
271,120,342294,6,0,P|212:116|161:196,1,143.999995605469,10|0,1:2|0:0,0:0:0:0:
164,199,342610,1,0,1:2:0:0:
33,263,342768,1,0,3:2:0:0:
0,123,342926,1,10,1:2:0:0:
77,331,343084,6,0,P|160:344|281:367,1,191.999994140625,2|2,0:0|3:2,0:0:0:0:
464,361,343558,2,0,P|405:350|354:339,1,95.9999970703126,8|0,1:2|3:2,0:0:0:0:
298,268,343794,1,8,3:2:0:0:
298,268,343873,2,0,B|253:148|382:195|338:61,2,216.000000823975,6|8|0,1:2|1:2|1:2,0:0:0:0:
214,126,344663,5,0,3:2:0:0:
214,126,344742,1,8,3:2:0:0:
214,126,344821,2,0,P|174:136|136:142,1,54.0000002059937,10|0,1:2|0:0,0:0:0:0:
272,35,344979,2,0,P|232:25|194:19,1,54.0000002059937,2|0,0:0|0:0,0:0:0:0:
214,209,345136,2,0,B|157:219|104:243|104:243|55:235|72:186,1,191.999994140625,0|10,1:2|1:2,0:0:0:0:
214,126,345610,1,2,0:0:0:0:
343,378,345768,5,2,1:2:0:0:
512,301,345926,1,2,3:2:0:0:
334,216,346084,1,10,1:2:0:0:
334,216,346400,2,0,B|288:239|288:239|265:276|265:276|212:298,1,143.999995605469,0|0,1:2|0:0,0:0:0:0:
144,264,346715,2,0,P|126:227|160:163,1,95.9999970703126,12|0,1:2|3:2,0:0:0:0:
383,61,347031,1,0,3:2:0:0:
512,169,347189,2,0,B|495:166|495:166|453:139|453:139|418:130,1,95.9999970703126,12|0,1:2|3:2,0:0:0:0:
286,0,347505,1,0,3:2:0:0:
93,76,347663,6,0,P|47:85|1:99,1,95.9999970703126,12|0,3:2|3:2,0:0:0:0:
322,142,347979,2,0,P|258:133|210:134,1,108.000000411987,12|0,3:2|3:2,0:0:0:0:
470,359,348294,5,14,3:2:0:0:
498,308,348372,1,0,3:2:0:0:
485,252,348451,1,2,3:2:0:0:
437,220,348530,1,0,3:2:0:0:
417,236,348610,2,0,P|371:248|330:257,1,60.0000022888184,14|0,3:2|3:2,0:0:0:0:
286,360,348768,2,0,P|247:349|203:334,1,68.0000012969971,2|0,3:2|3:2,0:0:0:0:
36,355,348926,2,0,P|12:320|51:189,1,180.000006866455,6|0,1:2|0:0,0:0:0:0:
28,114,349242,6,0,B|112:117|91:168|213:164,1,162.000000617981,8|0,1:2|0:0,0:0:0:0:
197,150,349558,1,0,1:2:0:0:
36,280,349715,1,2,3:2:0:0:
118,103,349873,5,8,1:2:0:0:
259,249,350031,1,2,0:0:0:0:
164,350,350189,6,0,P|153:294|135:238,1,108.000000411987,2|2,1:2|3:2,0:0:0:0:
258,52,350505,1,8,1:2:0:0:
433,158,350663,1,2,3:2:0:0:
431,167,350742,1,8,3:2:0:0:
430,178,350821,2,0,P|376:175|340:120,1,108.000000411987,2|0,1:2|3:2,0:0:0:0:
85,303,351136,1,10,1:2:0:0:
110,263,351215,1,2,0:0:0:0:
162,247,351294,1,2,0:0:0:0:
209,265,351373,1,2,0:0:0:0:
222,281,351452,6,0,B|281:353|395:355|440:260|358:186|286:225|301:301,1,324.000001235962,6|0,1:2|0:0,0:0:0:0:
501,384,352084,2,0,P|485:330|474:263,1,108.000000411987,2|0,1:2|3:2,0:0:0:0:
284,81,352400,2,0,B|344:95|344:95|365:127|365:127|428:141,1,162.000000617981,8|0,1:2|0:0,0:0:0:0:
512,100,352715,6,0,B|497:75|497:75|418:56,1,108.000000411987,2|2,1:2|3:2,0:0:0:0:
220,269,353031,2,0,B|205:294|205:294|126:313,1,108.000000411987,8|0,1:2|0:0,0:0:0:0:
28,144,353347,2,0,B|4:103|4:103|135:132,1,162.000000617981,2|0,1:2|0:0,0:0:0:0:
188,149,353663,1,8,1:2:0:0:
64,377,353821,1,0,3:2:0:0:
34,342,353900,1,8,3:2:0:0:
55,300,353979,6,0,B|120:277|157:316|154:320|154:320|186:366|248:359,1,216.000000823975,6|8,1:2|1:2,0:0:0:0:
359,211,354452,1,2,0:0:0:0:
214,132,354610,6,0,P|225:166|233:208,1,72.0000002746582,2|2,1:2|0:0,0:0:0:0:
353,293,354821,1,2,0:0:0:0:
322,376,354926,6,0,P|325:339|337:302,1,72.0000002746582,10|2,1:2|0:0,0:0:0:0:
450,153,355136,1,2,0:0:0:0:
509,196,355242,6,0,P|450:202|402:220,1,108.000000411987,2|2,1:2|3:2,0:0:0:0:
250,44,355558,1,8,1:2:0:0:
139,143,355715,1,0,3:2:0:0:
139,143,355794,1,8,3:2:0:0:
139,143,355873,6,0,P|174:156|250:165,1,72.0000002746582,2|2,1:2|0:0,0:0:0:0:
335,305,356084,1,2,0:0:0:0:
416,250,356189,6,0,P|379:260|333:281,1,72.0000002746582,10|2,1:2|0:0,0:0:0:0:
202,369,356400,1,2,0:0:0:0:
143,311,356505,6,0,B|265:239|328:364|328:364,2,216.000000823975,6|8|0,1:2|1:2|1:2,0:0:0:0:
332,146,357294,1,0,3:2:0:0:
168,55,357452,5,8,1:2:0:0:
251,226,357610,1,0,3:3:0:0:
251,226,357689,1,0,3:3:0:0:
294,248,357768,1,12,3:2:0:0:
339,230,357847,1,0,3:3:0:0:
349,182,357926,1,0,3:3:0:0:
322,141,358005,1,0,3:3:0:0:
273,140,358084,1,12,3:2:0:0:
233,168,358163,1,0,3:3:0:0:
202,205,358242,1,0,3:3:0:0:
156,221,358321,1,0,3:3:0:0:
109,208,358400,5,12,3:2:0:0:
75,172,358479,1,0,3:3:0:0:
81,123,358558,1,0,3:3:0:0:
117,92,358636,1,0,3:3:0:0:
165,94,358715,1,12,3:2:0:0:
204,121,358794,1,0,3:3:0:0:
226,169,358873,1,0,3:3:0:0:
220,217,358952,1,0,3:3:0:0:
203,262,359031,6,0,P|192:314|182:388,1,108.000000411987,6|0,1:2|3:2,0:0:0:0:
62,16,359347,2,0,P|73:68|83:142,1,108.000000411987,8|0,1:2|0:0,0:0:0:0:
368,19,359663,5,0,1:2:0:0:
258,126,359821,1,0,3:2:0:0:
383,244,359979,1,8,1:2:0:0:
256,370,360136,1,0,0:0:0:0:
298,251,360294,5,0,1:2:0:0:
466,356,360452,1,0,3:2:0:0:
487,271,360610,2,0,B|381:258|394:357|284:331,1,216.000000823975,10|0,1:2|1:2,0:0:0:0:
161,188,361084,1,0,3:2:0:0:
58,370,361242,1,8,1:2:0:0:
200,277,361400,1,0,0:0:0:0:
70,76,361558,6,0,P|42:121|43:188,1,108.000000411987,2|0,1:2|3:2,0:0:0:0:
245,33,361873,1,8,1:2:0:0:
389,223,362031,6,0,B|349:205|349:205|281:226|281:226|259:274|192:277,1,216.000000823975,2|0,1:2|3:2,0:0:0:0:
39,174,362505,2,0,B|119:150|119:150|177:187|226:217,1,162.000000617981,10|0,0:0|0:0,0:0:0:0:
193,200,362821,1,2,1:2:0:0:
389,223,362979,1,0,3:2:0:0:
289,44,363136,1,8,1:2:0:0:
319,150,363294,6,0,B|219:134|247:56|123:38,1,216.000000823975,0|0,1:0|3:2,0:0:0:0:
26,240,363768,1,8,1:2:0:0:
200,123,363926,1,0,3:0:0:0:
200,123,364005,1,0,3:0:0:0:
200,123,364084,5,6,1:2:0:0:
50,50,364242,1,0,3:2:0:0:
218,211,364400,1,8,1:2:0:0:
67,361,364558,2,0,B|53:287|53:287|70:242|70:242|45:148,1,216.000000823975,2|0,1:2|3:2,0:0:0:0:
197,301,365031,2,0,P|260:360|357:333,1,162.000000617981,8|0,1:2|0:0,0:0:0:0:
349,335,365347,5,0,1:2:0:0:
430,173,365505,1,0,3:2:0:0:
473,269,365663,5,8,1:2:0:0:
342,121,365821,1,0,0:0:0:0:
512,79,365979,6,0,P|482:94|442:107,1,54.0000002059937,0|0,1:2|3:3,0:0:0:0:
321,210,366136,2,0,P|293:201|268:184,1,54.0000002059937,0|0,1:2|3:0,0:0:0:0:
270,168,366294,6,0,P|292:186|335:191,1,54.0000002059937,8|0,1:2|3:0,0:0:0:0:
471,300,366452,2,0,P|493:282|513:256,1,54.0000002059937,0|0,1:0|3:0,0:0:0:0:
304,44,366610,5,0,3:3:0:0:
256,24,366689,1,0,3:3:0:0:
203,43,366768,1,0,3:3:0:0:
175,90,366847,1,0,3:3:0:0:
160,138,366926,1,0,3:3:0:0:
122,171,367005,1,0,3:3:0:0:
73,155,367084,2,0,P|148:146|246:134,1,162.000000617981,4|0,1:2|0:0,0:0:0:0:
361,277,367400,1,0,3:0:0:0:
389,235,367479,1,0,3:0:0:0:
368,192,367558,2,0,P|339:203|290:213,1,54.0000002059937,14|0,1:2|0:0,0:0:0:0:
95,382,367715,5,0,3:0:0:0:
57,338,367794,1,0,3:0:0:0:
72,286,367873,1,0,1:0:0:0:
123,261,367952,1,0,3:0:0:0:
144,265,368031,2,0,P|167:278|207:292,1,54.0000002059937,14|0,3:2|0:0,0:0:0:0:
472,230,368189,5,0,1:0:0:0:
498,180,368268,1,0,3:0:0:0:
490,127,368347,1,0,3:0:0:0:
445,87,368426,1,0,3:0:0:0:
424,83,368505,2,0,P|398:96|365:107,1,54.0000002059937,12|0,3:2|3:0,0:0:0:0:
213,205,368663,2,0,P|187:196|163:183,1,54.0000002059937,8|0,0:0|3:0,0:0:0:0:
141,34,368821,6,0,P|172:44|210:64,1,54.0000002059937,8|0,0:0|3:0,3:0:0:0:
373,250,368979,2,0,P|404:240|442:220,1,54.0000002059937,8|0,1:2|3:0,0:0:0:0:
285,79,369136,6,0,P|265:215|250:347,1,246.000003753662,6|0,1:2|0:0,0:0:0:0:
156,376,369452,6,0,P|144:321|200:282,1,108.000000411987,8|0,0:0|0:0,0:0:0:0:
375,46,369768,1,2,1:2:0:0:
349,88,369847,1,0,3:2:0:0:
305,102,369926,1,0,3:2:0:0:
266,84,370005,1,0,3:2:0:0:
232,53,370084,1,0,3:2:0:0:
188,28,370163,1,0,3:2:0:0:
141,34,370242,1,0,3:2:0:0:
108,70,370321,1,0,3:2:0:0:
101,97,370400,6,0,P|110:118|117:149,3,54.0000002059937,2|0|0|0,3:2|3:2|3:2|3:2,3:2:0:0:
266,84,370715,2,0,P|272:55|287:20,1,54.0000002059937,0|0,3:2|3:2,3:2:0:0:
420,144,370873,2,0,P|426:168|435:197,1,54.0000002059937,0|0,3:2|3:2,3:2:0:0:
264,384,371031,5,0,3:2:0:0:
229,356,371110,1,0,3:2:0:0:
226,309,371189,1,0,3:2:0:0:
256,275,371268,1,0,3:2:0:0:
290,263,371347,5,0,3:2:0:0:
314,223,371426,1,0,3:2:0:0:
302,179,371505,1,0,3:2:0:0:
269,144,371584,1,0,3:2:0:0:
244,146,371663,6,0,P|218:160|172:178,1,54.0000002059937,2|0,3:2|3:2,3:2:0:0:
24,213,371821,1,0,3:2:0:0:
0,177,371900,1,0,3:2:0:0:
11,130,371979,1,2,3:2:0:0:
56,106,372058,1,0,3:2:0:0:
78,109,372136,6,0,P|99:120|132:134,1,54.0000002059937,0|0,3:2|3:2,3:2:0:0:
265,246,372294,2,0,P|289:233|325:218,1,54.0000002059937,2|0,3:2|3:2,3:2:0:0:
430,64,372452,5,0,3:2:0:0:
405,47,372531,1,0,3:2:0:0:
374,60,372610,2,0,P|363:88|355:127,1,54.0000002059937,2|0,3:2|3:2,3:2:0:0:
201,305,372768,2,0,P|211:333|220:372,1,54.0000002059937,0|0,3:2|3:2,3:2:0:0:
354,220,372926,5,2,3:2:0:0:
325,180,373005,1,0,3:2:0:0:
282,161,373084,1,0,3:2:0:0:
235,177,373163,1,0,3:2:0:0:
211,211,373242,5,0,3:2:0:0:
191,228,373321,1,0,3:2:0:0:
168,233,373400,1,0,3:2:0:0:
145,220,373479,1,0,3:2:0:0:
132,200,373558,6,0,P|143:174|151:143,3,54.0000002059937,2|0|0|0,3:2|3:2|3:2|3:2,3:2:0:0:
224,51,373873,6,0,P|214:22|209:-9,3,54.0000002059937,0|0|0|0,3:2|3:2|3:2|3:2,3:2:0:0:
99,53,374189,6,0,P|125:64|167:78,1,54.0000002059937,2|0,1:3|3:3,3:3:0:0:
310,240,374347,1,0,3:3:0:0:
338,198,374426,1,0,3:3:0:0:
328,149,374505,1,8,3:2:0:0:
90,282,374663,5,0,3:0:0:0:
86,314,374742,1,0,3:0:0:0:
105,340,374821,2,0,P|133:329|173:320,1,54.0000002059937,2|0,1:3|0:0,0:0:0:0:
310,240,374979,5,0,3:0:0:0:
310,240,375058,1,0,3:0:0:0:
310,240,375136,2,0,P|368:274|507:304,1,162.000000617981,8|0,3:2|0:0,0:0:0:0:
496,223,375452,5,2,1:3:0:0:
453,205,375531,1,0,3:3:0:0:
416,231,375610,1,0,3:3:0:0:
387,267,375689,1,0,3:3:0:0:
384,289,375768,5,8,3:2:0:0:
348,336,375847,1,0,3:3:0:0:
292,351,375926,1,0,3:3:0:0:
243,319,376005,1,0,3:3:0:0:
229,304,376084,6,0,P|229:274|223:221,1,54.0000002059937,0|0,1:0|3:0,3:0:0:0:
370,82,376242,2,0,P|359:111|352:142,1,54.0000002059937,8|0,3:2|3:0,3:0:0:0:
185,45,376400,6,0,P|214:60|250:71,1,54.0000002059937,0|0,1:0|3:0,3:0:0:0:
363,266,376558,2,0,P|338:253|302:242,1,54.0000002059937,8|0,3:2|3:0,3:0:0:0:
229,151,376715,6,0,P|279:143|338:121,1,108.000000411987,2|0,1:2|3:0,0:0:0:0:
96,317,377031,2,0,B|206:310|300:382|300:382,1,216.000000823975,8|2,0:0|1:2,0:0:0:0:
114,177,377505,1,0,3:0:0:0:
288,55,377663,2,0,B|323:68|363:80|363:80|379:126|338:180,1,162.000000617981,8|0,0:0|0:0,0:0:0:0:
337,174,377979,5,6,1:2:0:0:
167,64,378136,1,0,3:0:0:0:
47,247,378294,2,0,B|138:228|83:187|205:146,1,162.000000617981,10|0,0:0|0:0,0:0:0:0:
286,52,378610,5,6,1:2:0:0:
323,95,378689,1,0,3:0:0:0:
318,148,378768,1,0,3:0:0:0:
282,190,378847,1,0,3:0:0:0:
254,205,378926,5,10,3:2:0:0:
223,238,379004,1,0,3:0:0:0:
217,284,379083,1,0,3:0:0:0:
239,324,379162,1,0,3:0:0:0:
289,313,379242,6,0,B|386:329|325:382|466:387,1,162.000000617981,6|0,1:2|0:0,0:0:0:0:
463,315,379558,2,0,B|471:264|471:264|476:257|476:257|490:186,1,108.000000411987,8|0,0:0|0:0,0:0:0:0:
465,50,379873,1,2,1:2:0:0:
306,148,380031,1,0,3:0:0:0:
155,230,380189,5,8,0:0:0:0:
104,106,380347,1,0,0:0:0:0:
276,48,380505,2,0,P|307:108|296:175,1,108.000000411987,2|0,1:2|3:0,0:0:0:0:
437,229,380742,1,0,3:0:0:0:
437,229,380821,2,0,B|391:236|391:236|334:281|334:281|252:301,1,162.000000617981,8|0,0:0|0:0,0:0:0:0:
156,278,381136,6,0,P|119:260|38:251,1,108.000000411987,2|0,1:2|0:0,0:0:0:0:
30,259,381373,1,0,3:0:0:0:
30,259,381452,2,0,P|21:221|10:187,1,54.0000002059937,10|0,0:0|0:0,0:0:0:0:
150,10,381610,1,0,3:0:0:0:
186,55,381689,1,0,3:0:0:0:
176,94,381768,2,0,B|211:113|266:66|266:66|279:40|279:40|336:-13|379:1,2,240.000009155274,6|8|0,1:2|0:0|1:0,0:0:0:0:
62,62,382558,1,0,3:0:0:0:
255,171,382715,5,10,0:2:0:0:
163,199,382873,1,2,3:2:0:0:
283,259,383031,1,2,1:2:0:0:
145,207,383189,1,2,3:2:0:0:
365,177,383347,1,10,0:2:0:0:
124,212,383505,1,2,3:2:0:0:
192,318,383663,2,0,B|237:311|237:311|279:280|279:280|368:264,1,162.000000617981,2|0,1:2|0:0,0:0:0:0:
354,276,383979,1,8,0:0:0:0:
457,112,384136,5,0,3:0:0:0:
463,120,384215,1,0,3:0:0:0:
465,127,384294,2,0,P|420:117|390:113,1,54.0000002059937,0|0,1:0|3:0,0:0:0:0:
308,58,384452,2,0,P|276:61|230:74,1,54.0000002059937,0|0,3:0|3:0,0:0:0:0:
22,142,384610,2,0,B|59:154|92:191|92:191|109:55,1,216.000000823975,12|0,0:0|1:0,0:0:0:0:
160,0,385005,5,0,3:0:0:0:
160,0,385084,1,2,3:2:0:0:
187,125,385242,1,10,0:2:0:0:
308,58,385400,5,2,3:2:0:0:
257,218,385558,1,2,1:2:0:0:
371,184,385715,5,2,3:2:0:0:
408,329,385873,1,10,0:2:0:0:
496,273,386031,5,2,3:2:0:0:
316,334,386189,5,2,1:2:0:0:
269,321,386267,1,2,0:2:0:0:
221,327,386346,1,2,0:2:0:0:
180,353,386425,1,2,0:2:0:0:
169,368,386505,1,10,0:2:0:0:
122,380,386583,1,2,0:2:0:0:
74,374,386662,1,2,0:2:0:0:
33,348,386741,1,2,0:2:0:0:
23,337,386821,6,0,P|31:298|37:264,1,54.0000002059937,2|0,1:2|3:0,0:0:0:0:
194,46,386979,2,0,P|201:81|218:129,1,54.0000002059937,2|0,3:2|3:0,0:0:0:0:
115,298,387136,2,0,P|110:254|117:212,1,60.0000022888184,10|0,0:0|3:0,0:0:0:0:
123,11,387294,2,0,P|116:53|117:94,1,60.0000022888184,2|0,3:2|3:0,0:0:0:0:
2,189,387452,2,0,B|61:176|61:176|111:189|111:189|180:174,1,180.000006866455,6|0,1:2|0:0,0:0:0:0:
259,181,387768,2,0,P|250:211|245:248,3,60.0000022888184,8|0|0|0,0:0|1:0|1:0|1:0,0:0:0:0:
400,26,388084,5,10,1:3:0:0:
448,47,388162,1,8,3:3:0:0:
467,96,388241,1,8,3:3:0:0:
447,144,388320,1,8,3:3:0:0:
399,165,388399,1,8,3:2:0:0:
354,192,388478,1,8,3:3:0:0:
348,244,388557,1,8,3:3:0:0:
384,281,388636,1,8,3:3:0:0:
436,275,388715,5,10,1:3:0:0:
394,235,388793,1,8,3:3:0:0:
336,223,388872,1,8,3:3:0:0:
280,241,388951,1,8,3:3:0:0:
238,283,389031,5,8,3:2:0:0:
195,323,389109,1,8,3:3:0:0:
137,335,389188,1,8,3:3:0:0:
82,317,389267,1,8,3:3:0:0:
45,270,389347,2,0,B|104:244|104:244|235:271,1,180.000006866455,6|0,1:2|0:0,0:0:0:0:
364,381,389663,2,0,B|379:369|379:369|290:348,1,108.000000411987,8|0,0:0|0:0,0:0:0:0:
70,160,389979,5,2,1:2:0:0:
202,52,390136,1,0,3:0:0:0:
281,203,390294,1,8,0:0:0:0:
82,78,390452,1,0,3:0:0:0:
70,332,390610,2,0,P|92:301|102:219,1,108.000000411987,2|0,1:2|0:0,0:0:0:0:
373,111,390926,2,0,B|338:83|338:83|259:89|239:172|289:215,1,216.000000823975,10|0,0:0|3:0,0:0:0:0:
289,214,391321,1,0,3:0:0:0:
290,214,391400,1,0,1:0:0:0:
493,314,391558,6,0,B|432:261|432:261|356:305,1,162.000000617981,10|0,0:0|0:0,0:0:0:0:
347,323,391873,2,0,B|379:330|379:330|411:363|411:363|452:372,1,108.000000411987,2|0,1:2|3:0,0:0:0:0:
228,266,392189,2,0,B|130:275|189:337|48:324,1,162.000000617981,10|0,0:0|0:0,0:0:0:0:
42,308,392505,1,2,1:2:0:0:
203,187,392663,1,0,3:0:0:0:
9,70,392821,1,8,0:0:0:0:
108,234,392979,5,2,0:0:0:0:
108,234,393058,1,2,0:0:0:0:
108,234,393136,2,0,P|114:187|117:167,1,54.0000002059937,2|0,1:2|0:0,0:0:0:0:
185,6,393294,2,0,P|190:43|196:71,1,54.0000002059937,2|0,3:2|0:0,0:0:0:0:
294,166,393452,2,0,B|254:154|254:154|203:105|203:105|138:94,1,162.000000617981,8|0,0:0|0:0,0:0:0:0:
103,80,393768,1,2,1:2:0:0:
211,234,393926,1,0,3:0:0:0:
309,83,394084,1,8,0:0:0:0:
496,215,394242,5,2,0:0:0:0:
496,215,394321,1,2,0:0:0:0:
496,215,394400,2,0,P|390:233|266:280,2,216.000000823975,2|8|0,1:2|0:0|1:0,0:0:0:0:
373,375,395189,2,0,P|367:327|359:300,1,54.0000002059937,2|0,3:2|0:0,0:0:0:0:
282,152,395347,1,10,0:0:0:0:
158,226,395505,1,2,0:0:0:0:
158,226,395584,1,2,0:0:0:0:
158,226,395663,2,0,P|138:189|176:115,1,108.000000411987,2|0,1:2|0:0,0:0:0:0:
367,74,395979,2,0,P|388:117|363:192,1,108.000000411987,8|0,0:0|0:0,0:0:0:0:
315,262,396294,5,2,1:2:0:0:
220,364,396452,1,2,3:2:0:0:
21,254,396610,1,10,0:2:0:0:
142,303,396768,1,2,3:2:0:0:
336,248,396926,6,0,B|443:236|383:304|527:284,1,162.000000617981,2|0,1:2|0:0,0:0:0:0:
504,212,397242,2,0,P|497:176|488:88,1,108.000000411987,10|0,0:0|0:0,0:0:0:0:
263,132,397479,1,2,0:0:0:0:
254,153,397558,2,0,B|186:166|138:189|138:189|63:159|126:81,1,216.000000823975,2|8,1:2|0:0,0:0:0:0:
287,54,398031,1,0,3:0:0:0:
365,172,398189,5,2,1:2:0:0:
475,216,398347,1,2,1:2:0:0:
207,224,398505,5,10,0:2:0:0:
104,271,398663,1,2,1:2:0:0:
291,368,398821,5,0,1:0:0:0:
330,332,398899,1,0,3:0:0:0:
333,280,398978,1,0,3:0:0:0:
299,240,399057,1,0,3:0:0:0:
286,227,399136,5,8,3:2:0:0:
248,197,399214,1,0,3:0:0:0:
237,151,399293,1,0,3:0:0:0:
257,108,399372,1,0,3:0:0:0:
303,131,399451,5,6,1:2:0:0:
256,192,399531,12,0,409558,0:0:0:0:
