osu file format v14

[General]
AudioFilename: tsukinami.mp3
AudioLeadIn: 0
PreviewTime: 98584
Countdown: 0
SampleSet: None
StackLeniency: 0.7
Mode: 0
LetterboxInBreaks: 1
WidescreenStoryboard: 0

[Editor]
Bookmarks: 22173,55006,76339,97673,129673,213494
DistanceSpacing: 0.5
BeatDivisor: 4
GridSize: 32
TimelineZoom: 3.399999

[Metadata]
Title:Tsukinami
TitleUnicode:ツキナミ
Artist:Wakeshima Kanon
ArtistUnicode:分島花音
Creator:koromo77
Version:moonrise
Source:
Tags:
BeatmapID:644567
BeatmapSetID:285373

[Difficulty]
HPDrainRate:6
CircleSize:4
OverallDifficulty:8
ApproachRate:9.3
SliderMultiplier:1.85
SliderTickRate:1

[Events]
//Background and Video events
0,0,"BG.jpg",0,0
//Break Periods
//Storyboard Layer 0 (Background)
//Storyboard Layer 1 (Fail)
//Storyboard Layer 2 (Pass)
//Storyboard Layer 3 (Foreground)
//Storyboard Sound Samples

[TimingPoints]
12348,333.333333333333,4,2,1,40,1,0
76340,-100,4,3,0,30,0,0
87007,-100,4,2,1,40,0,0
97673,-83.3333333333333,4,2,1,55,0,1
108257,-83.3333333333333,4,2,1,60,0,0
108340,-133.333333333333,4,2,1,55,0,1
108674,-83.3333333333333,4,2,1,55,0,1
118257,-133.333333333333,4,2,1,50,0,1
118674,-83.3333333333333,4,2,1,35,0,1
118924,-100,4,2,1,50,0,0
129007,-100,4,3,1,25,0,0

[HitObjects]
207,271,12348,6,0,P|179:178|207:95,1,185,4|8,0:2|0:2,0:2:0:0:
333,199,12847,2,0,P|378:194|423:206,1,92.5,0|2,0:2|0:2,0:2:0:0:
261,148,13180,2,0,P|296:119|340:105,1,92.5,0|0,0:2|0:2,0:2:0:0:
373,275,13513,1,8,0:2:0:0:
207,271,13680,6,0,P|161:185|173:98,1,185,2|8,0:2|0:2,0:2:0:0:
267,208,14180,2,0,P|293:254|295:292,1,92.5,0|2,0:2|0:2,0:2:0:0:
155,325,14513,1,0,0:2:0:0:
47,246,14680,1,8,0:2:0:0:
0,364,14847,1,0,0:2:0:0:
206,270,15013,6,0,P|145:203|134:113,1,185,4|8,0:2|0:2,0:2:0:0:
134,113,15680,2,0,L|93:197,1,92.5,2|0,0:2|0:2,0:2:0:0:
270,144,16013,2,8,L|311:60,1,92.5,0|8,0:2|0:2,0:2:0:0:
89,163,16347,2,0,L|28:288,1,138.75,2|0,0:2|0:2,0:2:0:0:
17,312,16680,1,8,0:2:0:0:
192,276,16847,1,0,0:2:0:0:
417,384,17013,1,2,0:2:0:0:
255,365,17180,1,0,0:2:0:0:
511,240,17347,1,8,0:2:0:0:
511,240,17680,6,0,L|428:73,1,185,4|8,0:2|0:2,0:2:0:0:
359,172,18180,2,0,L|325:257,1,92.5,0|2,0:2|0:2,0:2:0:0:
229,182,18513,1,0,0:2:0:0:
278,100,18680,1,0,0:2:0:0:
248,278,18847,1,8,0:2:0:0:
23,285,19013,6,2,P|99:240|194:249,1,185,2|8,0:2|0:2,0:2:0:0:
147,363,19513,1,0,0:2:0:0:
250,359,19680,1,2,0:2:0:0:
144,252,19847,1,0,0:2:0:0:
50,326,20013,1,8,0:2:0:0:
241,266,20180,1,0,0:2:0:0:
424,330,20347,6,0,P|391:244|398:152,1,185,4|8,0:2|0:2,0:2:0:0:
317,257,20847,1,0,0:2:0:0:
417,108,21013,1,2,0:2:0:0:
487,253,21180,1,0,0:2:0:0:
258,150,21347,1,8,0:2:0:0:
424,330,21513,2,0,P|351:314|323:365,1,138.75,4|0,0:2|0:2,0:2:0:0:
315,380,21847,6,0,L|231:335,1,92.5,8|0,0:2|0:2,0:2:0:0:
100,239,22180,1,8,3:2:0:0:
130,235,22263,1,0,3:2:0:0:
153,224,22347,1,10,3:2:0:0:
350,167,22513,2,0,B|314:138|314:138|327:88,1,92.5,8|0,0:2|0:2,0:2:0:0:
144,64,22847,1,8,3:2:0:0:
94,82,22930,1,0,3:2:0:0:
60,46,23013,6,0,P|85:101|6:213,1,185,4|8,0:2|0:2,0:2:0:0:
201,253,23513,2,0,L|204:142,1,92.5,0|2,0:2|0:2,0:2:0:0:
319,246,23847,2,0,L|315:366,1,92.5,0|8,0:2|0:2,0:2:0:0:
108,239,24180,1,0,0:2:0:0:
298,155,24347,6,0,L|482:190,1,185,2|8,0:2|0:2,0:2:0:0:
200,253,24847,2,0,L|108:239,1,92.5,0|2,0:2|0:2,0:2:0:0:
0,216,25180,1,0,0:2:0:0:
24,303,25347,1,8,0:2:0:0:
139,126,25513,1,0,0:2:0:0:
242,270,25680,6,0,L|285:354,1,92.5,4|0,0:2|0:2,0:2:0:0:
297,155,26013,1,8,0:2:0:0:
297,155,26347,1,2,0:2:0:0:
242,270,26513,1,0,0:2:0:0:
469,116,26680,1,8,0:2:0:0:
470,266,26847,2,0,L|512:286,1,46.25,0|0,0:2|0:2,0:2:0:0:
448,340,27013,6,2,L|361:374,1,92.5,4|0,0:2|0:2,0:2:0:0:
334,384,27263,1,0,0:2:0:0:
334,384,27347,1,8,0:2:0:0:
150,253,27513,5,0,3:2:0:0:
161,233,27597,1,0,3:2:0:0:
173,213,27680,1,2,3:2:0:0:
185,194,27763,1,0,3:2:0:0:
196,174,27847,1,0,3:2:0:0:
208,154,27930,1,0,3:2:0:0:
219,134,28013,1,8,3:2:0:0:
266,159,28097,5,0,3:2:0:0:
274,214,28180,1,0,3:2:0:0:
254,266,28263,1,0,3:2:0:0:
210,300,28347,6,0,P|114:318|74:235,1,185,6|0,0:2|0:2,0:2:0:0:
355,228,28847,2,0,P|451:246|491:163,1,185,6|0,0:2|0:2,0:2:0:0:
298,300,29347,1,10,0:2:0:0:
298,300,29513,1,0,0:2:0:0:
215,125,29680,5,0,0:2:0:0:
167,274,29847,1,2,0:2:0:0:
378,150,30013,1,8,0:2:0:0:
378,150,30180,1,0,0:2:0:0:
144,46,30347,1,0,0:2:0:0:
21,334,30513,1,2,0:2:0:0:
224,236,30680,2,8,P|268:222|312:233,1,92.5,8|0,0:2|0:2,0:2:0:0:
464,336,31013,6,0,P|404:262|377:178,1,185,4|8,0:2|0:2,0:2:0:0:
512,203,31513,1,0,0:2:0:0:
332,129,31680,1,2,0:2:0:0:
373,287,31847,1,0,0:2:0:0:
353,84,32013,1,8,0:2:0:0:
150,41,32180,1,0,0:2:0:0:
164,240,32347,5,2,3:2:0:0:
188,255,32430,1,0,3:2:0:0:
215,266,32513,1,0,3:2:0:0:
243,269,32597,1,0,3:2:0:0:
272,268,32680,1,8,3:2:0:0:
299,258,32763,1,0,3:2:0:0:
320,242,32847,1,0,3:2:0:0:
338,217,32930,1,0,3:2:0:0:
247,167,33263,6,0,L|282:184,2,23.125,2|0|0,0:2|0:2|0:2,0:2:0:0:
246,167,33680,6,4,P|224:128|216:76,2,92.5,4|0|8,0:2|0:2|0:2,0:2:0:0:
334,362,34180,2,0,P|386:354|425:332,1,92.5,0|0,0:2|0:2,0:2:0:0:
143,310,34513,2,0,P|91:318|52:340,1,92.5,0|8,0:2|0:2,0:2:0:0:
257,368,34847,1,0,0:2:0:0:
301,212,35013,6,0,B|343:156|284:106|284:106|229:137,1,185,4|8,0:2|0:2,0:2:0:0:
388,252,35513,1,0,0:2:0:0:
451,133,35680,2,0,P|439:81|456:41,1,92.5,2|0,0:2|0:2,0:2:0:0:
225,194,36013,2,0,P|240:246|212:332,1,138.75,10|0,0:2|0:2,0:2:0:0:
185,365,36347,6,0,P|236:363|282:344,1,92.5,2|0,0:2|0:2,0:2:0:0:
420,248,36680,2,0,P|451:287|488:313,1,92.5,8|0,0:2|0:2,0:2:0:0:
512,332,36930,1,0,3:2:0:0:
512,332,37013,1,2,3:2:0:0:
381,159,37180,2,0,P|341:181|322:225,2,92.5,0|8|0,0:2|0:2|0:2,0:2:0:0:
168,236,37680,6,0,B|143:249|123:268|90:288,1,92.5,2|0,0:2|0:2,0:2:0:0:
224,77,38013,2,0,B|248:63|269:45|302:25,1,92.5,10|0,0:2|0:2,0:2:0:0:
39,83,38347,1,0,0:2:0:0:
39,83,38513,1,0,0:2:0:0:
138,139,38680,1,10,0:2:0:0:
150,253,38847,1,0,0:2:0:0:
79,357,39013,6,0,B|128:367|174:352|202:323|275:321,1,185,4|8,0:2|0:2,0:2:0:0:
353,241,39513,1,0,0:2:0:0:
431,150,39680,2,0,L|471:244,1,92.5,2|0,0:2|0:2,0:2:0:0:
394,57,40013,1,8,0:2:0:0:
394,57,40347,6,0,B|336:63|314:119|314:119|269:107|231:149,1,185,2|8,0:2|0:2,0:2:0:0:
180,46,40847,1,0,0:2:0:0:
310,195,41013,2,0,P|357:191|380:152,1,92.5,2|0,0:2|0:2,0:2:0:0:
212,158,41347,2,0,B|170:158|147:176|147:176|110:248,1,138.75,8|0,0:2|0:2,0:2:0:0:
63,297,41680,6,4,B|34:240|34:240|61:185|61:185|30:135,1,185,4|8,0:2|0:2,0:2:0:0:
217,235,42180,1,0,0:2:0:0:
485,228,42347,1,10,0:2:0:0:
334,261,42513,1,0,0:2:0:0:
512,323,42680,1,8,0:2:0:0:
298,194,42847,6,0,P|255:174|164:171,1,138.75,2|0,0:2|0:2,0:2:0:0:
108,313,43180,2,0,P|164:291|218:232,1,138.75,2|0,0:2|0:2,0:2:0:0:
166,171,43513,1,2,0:2:0:0:
346,242,43680,6,0,L|423:218,1,46.25,8|0,0:2|0:2,0:2:0:0:
486,158,43847,2,0,L|451:129,1,46.25,0|0,0:2|0:2,0:2:0:0:
353,56,44013,2,0,L|316:91,1,46.25,8|0,0:2|0:2,0:2:0:0:
223,167,44180,2,0,L|202:125,1,46.25,0|0,0:2|0:2,0:2:0:0:
97,22,44347,6,0,P|70:109|53:204,1,185,4|8,0:2|0:2,0:2:0:0:
193,102,44847,1,0,0:2:0:0:
241,89,44930,1,0,0:2:0:0:
291,74,45013,2,0,L|382:54,1,92.5,2|0,0:2|0:2,0:2:0:0:
310,172,45347,6,0,P|296:81|236:13,1,185,8|2,0:2|0:2,0:2:0:0:
432,84,45847,1,0,0:2:0:0:
361,241,46013,2,0,P|321:265|276:269,1,92.5,8|0,0:2|0:2,0:2:0:0:
241,263,46263,1,0,0:2:0:0:
210,247,46347,1,0,0:2:0:0:
382,313,46513,2,0,P|398:359|442:387,1,92.5,0|8,0:2|0:2,0:2:0:0:
493,161,46847,1,0,0:2:0:0:
471,116,46930,1,0,0:2:0:0:
432,84,47013,6,8,P|343:103|284:173,1,185,4|8,0:2|0:2,0:2:0:0:
170,311,47513,2,0,P|180:266|162:225,1,92.5,0|2,0:2|0:2,0:2:0:0:
342,73,47847,2,0,P|331:117|349:158,1,92.5,0|8,0:2|0:2,0:2:0:0:
159,179,48180,1,0,0:2:0:0:
400,111,48347,1,4,0:2:0:0:
172,95,48513,1,0,0:2:0:0:
390,204,48680,1,8,0:2:0:0:
299,46,48847,5,0,3:2:0:0:
280,84,48930,1,0,3:2:0:0:
269,124,49013,1,2,3:2:0:0:
271,167,49097,1,0,3:2:0:0:
282,208,49180,1,0,3:2:0:0:
303,244,49263,1,0,3:2:0:0:
333,275,49347,2,0,P|375:299|427:305,1,92.5,8|0,0:2|0:2,0:2:0:0:
228,347,49680,6,0,P|143:311|52:306,1,185,4|8,0:2|0:2,0:2:0:0:
120,138,50180,2,0,L|93:175,2,46.25,2|0|0,0:2|0:2|0:2,0:2:0:0:
282,106,50513,2,0,L|337:84,1,46.25,2|0,0:2|0:2,0:2:0:0:
375,77,50680,1,8,0:2:0:0:
157,256,50847,2,0,L|146:300,2,46.25,2|0|0,0:2|0:2|0:2,0:2:0:0:
364,173,51180,1,2,0:2:0:0:
318,371,51347,6,0,P|303:295|248:246,1,138.75,8|0,0:2|0:2,0:2:0:0:
326,258,51680,2,0,P|400:269|451:224,1,138.75,2|0,0:2|0:2,0:2:0:0:
364,173,52013,2,0,B|329:137|329:137|294:112,1,92.5,10|0,0:2|0:2,0:2:0:0:
151,17,52347,6,0,B|153:79|164:113|164:113|215:143,1,138.75,4|0,0:2|0:2,0:2:0:0:
220,147,52680,2,0,P|181:142|129:162,1,92.5,8|0,0:2|0:2,0:2:0:0:
364,173,53013,1,2,0:2:0:0:
218,313,53180,2,0,P|254:317|307:297,1,92.5,0|8,0:2|0:2,0:2:0:0:
76,262,53513,1,0,0:2:0:0:
325,384,53681,6,0,P|325:338|305:296,1,92.5,0|8,0:2|0:2,0:2:0:0:
29,146,54013,1,0,1:2:0:0:
74,170,54097,1,0,3:2:0:0:
125,178,54180,1,0,1:2:0:0:
172,165,54263,1,0,1:2:0:0:
213,139,54347,1,2,1:2:0:0:
417,70,54513,2,0,L|382:105,1,46.25,0|0,0:2|0:2,0:2:0:0:
304,154,54680,2,0,P|301:108|286:62,1,92.5,10|0,0:2|0:2,0:2:0:0:
293,260,55013,6,8,P|384:268|482:247,1,185,4|8,0:2|0:2,0:2:0:0:
261,324,55513,2,0,P|216:312|172:323,1,92.5,0|0,0:2|0:2,0:2:0:0:
0,342,55847,1,0,0:2:0:0:
97,169,56013,1,8,0:2:0:0:
293,260,56180,1,0,0:2:0:0:
293,260,56263,1,0,0:2:0:0:
293,260,56347,6,8,P|324:167|402:108,1,185,2|8,0:2|0:2,0:2:0:0:
189,36,56847,2,0,P|200:81|228:118,1,92.5,2|0,0:2|0:2,0:2:0:0:
376,270,57180,2,0,P|365:225|338:189,1,92.5,0|8,0:2|0:2,0:2:0:0:
227,117,57514,1,0,0:2:0:0:
483,224,57680,1,4,0:2:0:0:
428,32,57847,1,0,0:2:0:0:
512,110,58013,6,0,B|447:169|384:130|384:130|396:181,1,185,8|2,0:2|0:2,0:2:0:0:
393,332,58513,2,0,L|359:243,1,92.5,0|8,0:2|0:2,0:2:0:0:
303,110,58847,2,0,L|260:204,1,92.5,0|2,0:2|0:2,0:2:0:0:
196,314,59180,2,0,L|283:284,1,92.5,0|8,0:2|0:2,0:2:0:0:
477,184,59513,1,0,0:2:0:0:
434,174,59597,1,0,0:2:0:0:
393,185,59680,1,2,0:2:0:0:
316,268,59847,1,0,0:2:0:0:
219,179,60013,1,8,0:2:0:0:
196,314,60180,2,0,L|246:335,1,46.25,0|0,0:2|0:2,0:2:0:0:
115,355,60347,6,0,B|141:292|121:267|121:267|70:239,1,138.75,4|0,0:2|0:2,0:2:0:0:
80,244,60680,2,0,P|121:210|166:215,1,92.5,8|0,0:2|0:2,0:2:0:0:
370,293,61013,2,0,B|335:320|335:320|287:316,1,92.5,2|0,0:2|0:2,0:2:0:0:
466,198,61347,1,8,0:2:0:0:
257,123,61513,1,2,0:2:0:0:
230,85,61597,1,0,0:2:0:0:
206,47,61680,1,2,0:2:0:0:
420,42,61847,5,0,0:2:0:0:
466,198,62013,2,2,P|478:240|510:282,1,92.5,10|2,0:2|0:2,0:2:0:0:
303,181,62347,2,0,L|216:153,2,92.5,0|0|8,0:2|0:1|0:2,0:2:0:0:
180,91,62847,1,0,0:2:0:0:
23,183,63013,6,4,P|51:216|95:238,1,92.5,4|0,0:2|0:2,0:2:0:0:
221,344,63347,1,8,0:2:0:0:
221,344,63680,2,0,P|178:361|132:367,1,92.5,2|0,0:2|0:2,0:2:0:0:
224,229,64013,1,8,0:2:0:0:
329,384,64181,1,0,0:2:0:0:
370,203,64347,6,0,B|392:159|370:114,2,92.5,2|0|8,0:2|0:2|0:2,0:2:0:0:
230,316,64847,2,0,P|213:275|224:231,1,92.5,0|2,0:2|0:2,0:2:0:0:
103,314,65180,1,0,0:2:0:0:
309,277,65347,2,0,P|381:293|428:338,1,138.75,8|0,0:2|0:2,0:2:0:0:
458,356,65680,5,4,0:2:0:0:
257,328,65847,1,0,0:2:0:0:
432,236,66013,1,8,0:2:0:0:
213,196,66180,1,0,0:2:0:0:
489,298,66347,2,0,L|397:290,1,92.5,2|0,0:2|0:2,0:2:0:0:
165,320,66680,2,0,L|258:329,1,92.5,8|0,0:2|0:2,0:2:0:0:
30,129,67013,6,0,B|79:88|138:119|138:119|173:179,1,185,2|10,0:2|0:2,0:2:0:0:
282,63,67513,2,0,P|318:34|363:26,1,92.5,2|0,0:2|0:2,0:2:0:0:
280,180,67847,1,0,0:2:0:0:
468,178,68013,2,0,P|428:181|384:153,1,92.5,8|0,2:2|2:2,2:2:0:0:
188,116,68347,6,0,P|198:193|180:250,1,138.75,4|0,0:2|0:2,0:2:0:0:
171,272,68680,1,8,0:2:0:0:
355,96,68847,1,0,0:2:0:0:
347,123,68930,1,0,0:2:0:0:
341,144,69013,2,0,P|294:118|266:89,1,92.5,2|0,0:2|0:2,0:2:0:0:
437,208,69347,1,8,0:2:0:0:
498,59,69513,1,0,0:2:0:0:
338,264,69680,6,0,L|249:290,1,92.5,2|0,0:2|0:2,0:2:0:0:
388,89,70013,2,0,L|478:68,1,92.5,10|0,0:2|1:2,0:2:0:0:
498,59,70263,1,0,3:2:0:0:
498,59,70347,1,8,3:2:0:0:
450,265,70513,1,0,0:2:0:0:
267,184,70680,2,0,P|335:204|407:179,1,138.75,8|0,0:2|0:2,0:2:0:0:
446,154,71013,6,0,P|381:208|341:310,1,185,4|8,0:2|0:2,0:2:0:0:
170,382,71513,2,2,L|142:263,1,92.5,2|2,0:2|0:2,0:2:0:0:
208,200,71847,1,0,0:2:0:0:
284,65,72013,2,0,L|312:184,1,92.5,8|0,0:2|0:2,0:2:0:0:
39,78,72347,1,4,0:2:0:0:
39,78,72680,6,2,B|129:55|129:55|161:24|225:31,1,185,10|2,0:2|0:2,0:2:0:0:
194,172,73180,1,0,0:2:0:0:
284,311,73347,2,0,L|318:216,1,92.5,8|0,0:2|0:2,0:2:0:0:
388,60,73680,6,0,B|441:76|441:76|447:116|487:141|487:141|474:223,1,185,4|8,0:2|0:2,0:2:0:0:
280,169,74180,1,0,0:2:0:0:
373,330,74347,2,0,B|352:283|352:283|375:249,1,92.5,2|0,0:2|0:2,0:2:0:0:
486,159,74680,2,0,P|507:195|500:245,1,92.5,8|0,0:2|0:2,0:2:0:0:
319,257,75013,5,2,0:2:0:0:
280,169,75180,1,0,0:2:0:0:
329,36,75347,1,8,0:2:0:0:
397,217,75513,1,0,0:2:0:0:
96,312,75680,1,2,0:2:0:0:
280,169,75847,1,0,0:2:0:0:
512,276,76013,2,0,B|501:329|447:337|447:337|397:284,1,138.75,8|0,0:2|0:2,0:2:0:0:
417,305,76347,6,0,P|335:272|238:295,1,185,4|8,3:3|3:3,3:3:0:0:
331,353,76847,1,0,3:3:0:0:
315,199,77013,1,2,3:3:0:0:
315,199,77347,1,8,3:3:0:0:
195,167,77513,1,0,3:3:0:0:
171,172,77597,1,0,3:3:0:0:
174,193,77680,6,0,P|209:220|249:201,1,92.5,2|0,3:3|3:3,3:3:0:0:
135,90,78013,1,8,3:3:0:0:
233,101,78180,1,0,3:3:0:0:
37,210,78347,1,2,3:3:0:0:
37,210,78680,1,8,3:3:0:0:
109,266,78847,1,0,3:3:0:0:
174,193,79013,6,0,P|197:151|165:124,2,92.5,2|0|8,3:3|3:3|3:3,3:3:0:0:
76,132,79513,1,0,3:3:0:0:
261,32,79680,1,2,3:3:0:0:
261,32,80013,1,8,3:3:0:0:
420,102,80180,1,0,3:3:0:0:
391,89,80263,1,0,3:3:0:0:
360,93,80347,6,0,P|323:116|337:157,1,92.5,2|0,3:3|3:3,3:3:0:0:
428,267,80680,2,0,P|466:230|445:200,1,92.5,10|0,3:3|3:3,3:3:0:0:
269,220,81013,2,0,P|231:257|252:287,1,92.5,2|0,3:3|3:3,3:3:0:0:
366,206,81347,2,0,L|375:107,1,92.5,10|0,3:3|3:3,3:3:0:0:
316,92,81597,1,0,3:3:0:0:
278,144,81680,6,0,P|346:152|460:103,1,185,4|8,3:3|3:3,3:3:0:0:
308,14,82180,1,0,3:3:0:0:
315,92,82347,1,2,3:3:0:0:
104,28,82513,1,0,3:3:0:0:
205,67,82680,1,8,3:3:0:0:
116,152,82847,1,0,3:3:0:0:
103,173,82930,1,0,3:3:0:0:
82,181,83013,6,0,P|35:197|-1:178,2,92.5,2|0|8,3:3|3:3|3:3,3:3:0:0:
14,253,83513,1,0,3:3:0:0:
53,66,83680,1,2,3:3:0:0:
53,66,84013,1,8,3:3:0:0:
185,24,84180,1,0,3:3:0:0:
228,119,84347,6,0,B|253:121|264:143|264:143|290:127|319:145,2,92.5,4|0|8,3:3|3:3|3:3,3:3:0:0:
285,51,84847,1,0,3:3:0:0:
160,207,85013,1,2,3:3:0:0:
160,207,85347,1,8,3:3:0:0:
309,290,85513,1,0,3:3:0:0:
335,315,85597,1,0,3:3:0:0:
369,309,85680,6,0,L|470:286,1,92.5,2|0,3:2|3:2,3:2:0:0:
183,359,86013,2,0,B|106:303|106:303|62:298,1,138.75,2|0,3:2|3:2,3:2:0:0:
115,215,86347,2,0,P|152:242|230:204,1,138.75,2|0,3:2|3:2,3:2:0:0:
273,146,86680,2,0,P|336:166|350:231,1,138.75,2|0,3:2|3:2,3:2:0:0:
285,226,87013,5,2,0:2:0:0:
271,80,87180,1,0,0:2:0:0:
325,86,87347,1,8,0:2:0:0:
263,229,87513,5,0,0:2:0:0:
365,104,87680,1,2,0:2:0:0:
405,140,87847,1,0,0:2:0:0:
227,235,88013,5,8,0:2:0:0:
432,191,88180,1,0,0:2:0:0:
421,264,88347,1,2,0:2:0:0:
151,246,88513,5,0,0:2:0:0:
371,348,88680,1,8,0:2:0:0:
9,210,88847,2,0,B|6:161|48:135|48:135|96:157,1,138.75,2|0,0:2|0:2,0:2:0:0:
92,155,89180,2,0,L|125:68,1,92.5,0|8,0:2|0:2,0:2:0:0:
351,77,89513,1,0,0:2:0:0:
347,114,89597,1,0,0:2:0:0:
343,149,89680,6,4,L|439:153,1,92.5,4|0,0:2|0:2,0:2:0:0:
493,66,90013,2,0,L|402:77,1,92.5,8|0,0:2|0:2,0:2:0:0:
266,216,90347,2,0,L|359:221,1,92.5,0|0,0:2|0:2,0:2:0:0:
511,43,90680,2,0,L|401:59,1,92.5,8|0,0:2|0:2,0:2:0:0:
236,246,91013,2,0,L|344:253,1,92.5,2|0,0:2|0:2,0:2:0:0:
333,46,91347,5,8,0:2:0:0:
77,110,91513,2,0,L|45:174,1,46.25,8|0,0:2|0:2,0:2:0:0:
56,151,91847,2,4,B|149:129|149:129|230:174,1,185,8|8,0:2|0:2,0:2:0:0:
22,242,92347,6,0,L|139:215,1,92.5,4|0,0:2|0:2,0:2:0:0:
298,75,92680,1,8,0:2:0:0:
259,154,92847,1,2,0:2:0:0:
320,334,93013,2,0,L|329:233,1,92.5,0|0,0:2|0:2,0:2:0:0:
167,67,93347,1,8,0:2:0:0:
260,154,93513,1,0,0:2:0:0:
510,124,93680,6,0,L|419:146,1,92.5,4|0,0:2|0:2,0:2:0:0:
188,327,94013,1,8,0:2:0:0:
286,219,94180,1,0,0:2:0:0:
154,14,94347,2,0,L|179:134,1,92.5,0|0,0:2|0:2,0:2:0:0:
414,182,94680,1,8,0:2:0:0:
378,145,94763,1,0,0:2:0:0:
334,120,94847,1,0,0:2:0:0:
285,109,94930,1,0,0:2:0:0:
234,113,95013,6,0,P|166:140|146:174,1,92.5,4|0,0:2|0:2,0:2:0:0:
468,244,95347,2,0,P|490:204|489:158,1,92.5,8|0,0:2|0:2,0:2:0:0:
120,258,95680,2,0,P|129:302|160:336,1,92.5,4|0,0:2|0:2,0:2:0:0:
334,120,96013,1,8,0:2:0:0:
257,383,96180,1,0,0:2:0:0:
259,103,96347,5,4,3:2:0:0:
265,77,96430,1,0,3:3:0:0:
263,52,96513,1,0,3:3:0:0:
252,28,96597,1,0,3:3:0:0:
243,9,96680,1,8,3:2:0:0:
284,34,96763,5,0,3:3:0:0:
332,46,96847,1,0,3:3:0:0:
380,42,96930,1,0,3:3:0:0:
420,20,97013,1,2,3:2:0:0:
410,70,97097,1,0,3:3:0:0:
415,120,97180,1,0,3:3:0:0:
433,163,97263,1,0,3:3:0:0:
467,197,97347,2,8,B|485:236|519:246|519:246|506:163,1,138.75,8|0,3:2|3:3,3:3:0:0:
504,129,97680,6,0,P|406:143|300:207,1,221.999993225098,4|8,0:2|0:2,0:2:0:0:
117,365,98180,1,0,0:2:0:0:
117,365,98263,1,0,0:2:0:0:
117,365,98347,1,2,0:2:0:0:
220,175,98513,1,0,0:2:0:0:
0,166,98680,2,0,P|53:195|101:197,1,110.999996612549,8|0,0:2|0:2,0:2:0:0:
175,382,99013,6,0,P|232:379|281:350,1,110.999996612549,2|0,0:2|0:2,0:2:0:0:
207,151,99347,1,8,0:2:0:0:
402,328,99513,1,0,3:2:0:0:
369,301,99597,1,0,0:2:0:0:
327,298,99680,1,2,3:2:0:0:
403,145,99847,2,0,B|459:121|459:121|464:67,1,110.999996612549,0|8,0:2|0:2,0:2:0:0:
492,265,100180,1,0,0:2:0:0:
364,63,100347,6,0,B|319:74|280:101|280:101|231:45|164:71,1,221.999993225098,2|8,0:2|0:2,0:2:0:0:
18,226,100847,1,0,3:2:0:0:
73,228,100930,1,0,3:2:0:0:
119,199,101013,1,2,3:2:0:0:
250,282,101180,1,0,0:2:0:0:
267,50,101347,2,0,P|238:96|243:151,1,110.999996612549,8|0,0:2|0:2,0:2:0:0:
420,251,101680,6,0,P|367:234|313:256,1,110.999996612549,2|0,0:2|0:2,0:2:0:0:
153,330,102013,2,0,P|170:278|151:226,1,110.999996612549,8|0,0:2|0:2,0:2:0:0:
98,233,102263,1,0,0:2:0:0:
98,233,102347,1,2,0:2:0:0:
321,120,102513,1,0,0:2:0:0:
151,11,102680,1,8,0:2:0:0:
7,164,102847,1,0,1:2:0:0:
7,164,102930,1,0,1:2:0:0:
7,164,103013,6,0,B|70:106|145:171|145:171|185:115,1,221.999993225098,4|8,0:2|0:2,0:2:0:0:
376,172,103513,1,0,0:2:0:0:
348,74,103680,1,2,0:2:0:0:
399,228,103847,1,0,0:2:0:0:
332,23,104013,1,8,0:2:0:0:
432,306,104180,6,0,B|382:304|382:304|323:266|323:266|275:258,1,166.499994918823,4|0,0:2|0:2,0:2:0:0:
245,273,104513,1,2,0:2:0:0:
467,196,104680,1,8,0:2:0:0:
194,135,104847,1,0,0:2:0:0:
366,332,105013,1,2,0:2:0:0:
352,63,105180,1,0,0:2:0:0:
187,314,105347,1,8,0:2:0:0:
154,343,105431,1,0,0:2:0:0:
112,354,105514,1,0,0:0:0:0:
263,234,105681,5,4,0:0:0:0:
217,107,105847,1,0,0:2:0:0:
462,304,106013,1,2,0:2:0:0:
287,338,106180,1,8,0:2:0:0:
221,51,106347,5,2,0:2:0:0:
413,73,106513,1,0,0:2:0:0:
166,276,106680,5,10,0:2:0:0:
125,40,106847,1,0,0:2:0:0:
481,181,107013,5,2,0:2:0:0:
0,311,107180,1,8,0:2:0:0:
277,175,107513,5,0,0:2:0:0:
416,348,107680,2,0,L|417:310,2,36.9999988708496,2|0|0,0:2|0:2|0:2,0:2:0:0:
213,249,108013,2,8,L|210:286,2,36.9999988708496,2|0|0,0:2|0:2|0:2,0:2:0:0:
213,249,108347,6,0,P|276:276|347:280,1,138.750005292893,4|8,0:2|0:2,0:2:0:0:
435,84,108847,2,0,P|388:113|335:133,1,110.999996612549,2|0,0:2|0:2,0:2:0:0:
98,141,109180,2,0,P|148:174|198:177,1,110.999996612549,0|8,0:2|0:2,0:2:0:0:
402,225,109513,1,2,0:2:0:0:
79,72,109681,2,0,P|103:125|84:177,1,110.999996612549,2|2,0:2|0:2,0:2:0:0:
364,26,110013,6,4,P|348:76|363:131,1,110.999996612549,0|2,0:2|0:2,0:2:0:0:
456,300,110347,1,8,0:2:0:0:
363,131,110514,1,2,0:2:0:0:
274,344,110680,1,8,0:2:0:0:
278,158,110847,1,8,0:2:0:0:
223,149,110930,1,0,0:2:0:0:
182,177,111013,6,0,P|219:136|228:82,1,110.999996612549,2|0,0:2|0:2,0:2:0:0:
310,268,111347,1,8,0:2:0:0:
480,148,111513,2,0,B|431:172|431:172|386:138,1,110.999996612549,0|2,0:2|0:2,0:2:0:0:
182,177,111847,2,0,B|229:206|229:206|225:261,1,110.999996612549,0|8,0:2|0:2,0:2:0:0:
74,51,112180,6,0,B|136:37|191:76|191:76|271:6,1,221.999993225098,4|0,0:2|0:2,0:2:0:0:
112,140,112680,1,8,0:2:0:0:
412,271,112847,1,4,0:2:0:0:
412,271,113180,2,0,L|415:230,4,27.7499991531372,2|0|0|0|8,0:2|0:2|0:2|0:2|0:2,0:2:0:0:
191,289,113513,1,0,0:2:0:0:
118,96,113680,6,4,B|163:150|151:211|151:211|103:248|101:300,1,221.999993225098,4|8,0:2|0:2,0:2:0:0:
45,113,114180,1,0,0:2:0:0:
45,113,114263,1,0,0:2:0:0:
52,72,114347,2,0,P|93:29|145:31,1,110.999996612549,2|0,0:2|0:2,0:2:0:0:
294,156,114680,2,0,P|253:199|201:197,1,110.999996612549,8|0,0:2|0:2,0:2:0:0:
282,36,115013,6,0,B|339:15|391:48,1,110.999996612549,2|0,0:2|0:2,0:2:0:0:
472,189,115347,2,0,P|473:243|444:291,1,110.999996612549,8|0,0:2|0:2,0:2:0:0:
319,224,115680,2,0,P|296:173|299:120,1,110.999996612549,2|0,0:2|0:2,0:2:0:0:
404,320,116013,1,8,3:2:0:0:
360,349,116097,1,0,3:2:0:0:
307,344,116180,1,8,3:2:0:0:
269,312,116263,1,0,3:2:0:0:
247,252,116347,6,0,P|249:305|232:367,1,110.999996612549,4|0,0:2|0:2,0:2:0:0:
36,332,116680,2,0,L|153:303,1,110.999996612549,8|0,0:2|0:2,0:2:0:0:
460,230,117013,2,0,L|348:210,1,110.999996612549,4|0,0:2|0:2,0:2:0:0:
115,61,117347,1,8,0:2:0:0:
115,61,117513,1,0,0:2:0:0:
171,363,117680,5,4,0:2:0:0:
262,119,117847,1,2,3:2:0:0:
292,65,117930,1,0,3:2:0:0:
346,36,118013,1,8,3:2:0:0:
405,32,118097,1,0,3:2:0:0:
461,60,118180,1,0,3:2:0:0:
494,111,118264,2,0,P|507:200|452:289,1,173.437506616116,0|8,0:2|0:2,0:2:0:0:
421,269,118722,2,0,L|429:303,5,27.7499991531372,2|0|0|0|0|0,0:2|0:2|0:2|0:2|0:2|0:2,0:3:0:0:
436,351,119013,6,4,B|386:317|340:332,1,92.5,4|0,0:2|0:2,0:2:0:0:
103,340,119347,2,0,P|166:276|134:188,1,185,0|2,0:2|0:2,0:2:0:0:
0,280,119847,2,0,L|91:258,1,92.5,0|10,0:2|0:2,0:2:0:0:
242,219,120180,1,0,0:2:0:0:
393,297,120347,6,0,P|299:284|241:217,1,185,2|8,0:2|0:2,0:2:0:0:
377,195,120847,1,0,0:2:0:0:
482,145,121013,2,0,P|504:191|502:233,1,92.5,2|0,0:2|0:2,0:2:0:0:
354,121,121347,2,0,P|332:75|334:33,1,92.5,8|0,0:2|0:2,0:2:0:0:
148,74,121680,5,4,0:2:0:0:
0,152,121847,1,0,0:2:0:0:
197,140,122013,1,8,0:2:0:0:
6,230,122180,1,0,0:2:0:0:
6,230,122263,2,0,L|45:207,1,46.25,8|2,0:2|0:2,0:2:0:0:
354,120,122513,2,0,P|311:135|266:127,1,92.5,2|8,0:2|0:2,0:2:0:0:
267,21,122847,1,0,0:2:0:0:
211,231,123013,6,0,L|197:139,1,92.5,2|0,0:2|0:2,0:2:0:0:
355,215,123347,2,0,L|341:306,1,92.5,8|0,0:2|0:2,0:2:0:0:
172,362,123680,1,2,0:2:0:0:
246,163,123847,1,0,0:2:0:0:
415,280,124013,1,10,0:2:0:0:
144,313,124180,2,0,L|97:329,1,46.25,2|0,0:2|0:2,0:2:0:0:
34,334,124347,6,0,P|37:285|10:229,2,92.5,4|2|8,0:2|0:2|0:2,0:2:0:0:
165,205,124847,2,0,P|182:240|226:273,1,92.5,2|0,0:2|0:2,0:2:0:0:
359,188,125180,2,0,P|314:177|269:187,1,92.5,2|8,0:2|0:2,0:2:0:0:
328,293,125513,2,0,P|417:316|507:295,1,185,2|0,0:2|0:2,0:2:0:0:
199,164,125972,6,0,L|230:169,8,23.125,2|2|0|0|0|0|0|0|0,0:0|0:2|0:2|0:2|0:3|0:2|0:2|0:2|0:2,0:2:0:0:
142,154,126347,2,8,P|178:114|182:71,1,92.5,2|0,0:2|0:2,0:2:0:0:
20,87,126680,2,0,P|66:101|117:82,1,92.5,8|0,0:2|0:2,0:2:0:0:
310,24,127013,6,0,P|295:100|328:153,1,138.75,4|0,0:2|0:2,0:2:0:0:
365,178,127347,2,0,L|275:213,1,92.5,8|0,0:2|0:2,0:2:0:0:
238,227,127597,1,8,0:2:0:0:
238,227,127680,1,2,0:2:0:0:
390,113,127847,1,0,0:2:0:0:
501,249,128013,2,0,P|456:263|410:252,1,92.5,8|0,0:2|0:2,0:2:0:0:
179,99,128347,6,0,P|169:144|183:188,1,92.5,2|0,0:2|0:2,0:2:0:0:
324,281,128680,1,8,0:2:0:0:
458,118,128847,1,4,0:2:0:0:
406,259,129013,6,0,L|388:329,2,61.6666666666667,8|0|0,0:2|3:2|0:2,0:2:0:0:
316,115,129347,2,0,L|289:54,1,61.6666666666667,0|0,0:2|3:2,0:2:0:0:
433,62,129570,2,0,L|460:1,1,61.6666666666667,0|0,0:2|3:2,0:2:0:0:
