osu file format v14

[General]
AudioFilename: tsukinami.mp3
AudioLeadIn: 0
PreviewTime: 98584
Countdown: 0
SampleSet: Soft
StackLeniency: 0.7
Mode: 0
LetterboxInBreaks: 1
WidescreenStoryboard: 1

[Editor]
Bookmarks: 22173,34693,55006,76339,97673,129673,213494
DistanceSpacing: 0.7
BeatDivisor: 4
GridSize: 32
TimelineZoom: 3.499999

[Metadata]
Title:Tsukinami
TitleUnicode:ツキナミ
Artist:Wakeshima Kanon
ArtistUnicode:分島花音
Creator:koromo77
Version:Insane
Source:
Tags:
BeatmapID:659096
BeatmapSetID:285373

[Difficulty]
HPDrainRate:6
CircleSize:4
OverallDifficulty:7
ApproachRate:9
SliderMultiplier:1.68
SliderTickRate:1

[Events]
//Background and Video events
0,0,"BG.jpg",0,0
//Break Periods
//Storyboard Layer 0 (Background)
//Storyboard Layer 1 (Fail)
//Storyboard Layer 2 (Pass)
//Storyboard Layer 3 (Foreground)
//Storyboard Sound Samples

[TimingPoints]
12360,333.333333333333,4,2,1,40,1,0
76358,-100,4,2,1,40,0,0
87025,-100,4,2,1,40,0,0
97691,-83.3333333333333,4,2,1,55,0,1
108275,-83.3333333333333,4,2,1,60,0,0
108358,-83.3333333333333,4,2,1,55,0,1
108692,-83.3333333333333,4,2,1,55,0,1
118275,-133.333333333333,4,2,1,50,0,1
118692,-83.3333333333333,4,2,1,35,0,1
118942,-100,4,2,1,50,0,0
129025,-100,4,3,1,25,0,0

[HitObjects]
289,243,12360,6,0,P|366:282|440:261,1,168,4|8,0:0|0:2,0:0:0:0:
332,154,12860,1,0,0:0:0:0:
332,154,13026,2,0,P|293:139|253:148,1,84,2|0,0:2|0:0,0:0:0:0:
163,282,13360,2,0,L|131:203,1,84,8|0,0:2|0:0,0:0:0:0:
44,33,13693,6,0,P|118:56|112:134,1,168,2|8,0:2|0:2,0:0:0:0:
0,208,14193,1,0,0:0:0:0:
67,91,14360,2,0,P|112:69|159:70,1,84,2|0,0:2|0:0,0:0:0:0:
298,142,14693,2,0,P|261:162|220:166,1,84,8|0,0:2|0:0,0:0:0:0:
335,44,15026,6,0,P|397:95|390:190,1,168,4|8,0:2|0:2,0:0:0:0:
397,177,15693,1,2,0:2:0:0:
512,205,15860,1,0,0:0:0:0:
376,208,16026,1,8,0:2:0:0:
280,90,16193,1,0,0:0:0:0:
355,240,16360,6,0,B|395:281|434:285|434:285|470:271,1,126,2|0,0:2|0:0,0:0:0:0:
464,272,16693,2,0,P|474:325|464:354,1,84,10|0,0:2|0:0,0:0:0:0:
339,317,17026,1,0,0:2:0:0:
255,154,17193,1,0,0:0:0:0:
240,363,17360,1,10,0:2:0:0:
240,363,17693,6,0,B|185:321|185:321|181:253|115:242,1,168,4|8,0:2|0:2,0:0:0:0:
8,207,18193,1,0,0:0:0:0:
104,320,18360,1,2,0:2:0:0:
147,177,18526,2,0,P|200:200|232:235,1,84,0|8,0:0|0:2,0:0:0:0:
76,246,18860,1,0,0:0:0:0:
234,133,19026,6,0,P|314:108|414:107,1,168,2|8,0:2|0:2,0:0:0:0:
401,219,19526,2,0,P|344:217|330:194,1,84
481,224,19860,1,0,0:0:0:0:
421,305,20026,1,0,0:0:0:0:
433,155,20193,1,0,0:0:0:0:
500,41,20360,6,0,B|413:58|413:58|335:19,1,168
257,139,20860,2,0,L|344:99,1,84
232,67,21193,1,0,0:0:0:0:
330,191,21360,1,0,0:0:0:0:
161,132,21526,2,0,P|99:142|39:123,1,126
13,97,21860,2,0,P|24:135|32:187,1,84
72,317,22193,5,0,0:0:0:0:
109,313,22276,1,0,0:0:0:0:
145,301,22360,2,0,P|177:270|195:232,1,84
277,119,22693,1,0,0:0:0:0:
429,268,22860,1,0,0:0:0:0:
389,295,22943,1,0,0:0:0:0:
341,297,23026,6,0,B|255:315|187:225,1,168
28,185,23526,2,0,P|48:221|81:246,1,84
84,122,23859,2,0,P|63:85|30:60,1,84
183,39,24193,1,0,0:0:0:0:
315,113,24359,6,0,P|396:127|473:87,1,168
255,72,24859,1,0,0:0:0:0:
255,72,24943,1,0,0:0:0:0:
255,72,25026,2,0,P|245:110|251:156,1,84
107,38,25359,2,0,P|114:76|140:115,1,84
42,224,25693,6,0,P|101:260|202:232,1,168
193,239,26359,1,0,0:0:0:0:
251,336,26526,1,0,0:0:0:0:
365,154,26693,1,0,0:0:0:0:
276,184,26859,1,0,0:0:0:0:
116,245,27026,6,0,P|128:286|163:313,1,84
159,311,27276,1,0,0:0:0:0:
159,311,27359,1,0,0:0:0:0:
202,131,27526,1,0,0:0:0:0:
183,109,27609,1,0,0:0:0:0:
163,87,27692,1,0,0:0:0:0:
144,65,27775,1,0,0:0:0:0:
124,43,27859,1,0,0:0:0:0:
102,23,27943,5,0,0:0:0:0:
75,34,28026,1,0,0:0:0:0:
53,53,28109,1,0,0:0:0:0:
38,78,28192,1,0,0:0:0:0:
26,105,28276,1,0,0:0:0:0:
23,134,28359,6,0,P|40:210|129:243,1,168
432,187,28859,2,0,P|363:230|287:202,1,168
430,101,29359,1,0,0:0:0:0:
512,132,29526,1,0,0:0:0:0:
355,151,29693,6,0,P|343:111|354:71,1,84
498,233,30026,2,0,P|467:261|426:268,1,84
293,212,30359,1,0,0:0:0:0:
512,39,30526,1,0,0:0:0:0:
354,71,30693,2,0,B|313:82|283:69|283:69|272:14,1,126
272,16,31026,6,0,P|265:76|206:171,1,168
81,235,31526,2,0,P|109:266|158:279,1,84
158,126,31859,2,0,P|130:95|81:82,1,84
9,269,32193,1,0,0:0:0:0:
237,213,32359,5,0,0:0:0:0:
259,203,32442,1,0,0:0:0:0:
280,190,32525,1,0,0:0:0:0:
295,172,32608,1,0,0:0:0:0:
307,150,32692,1,0,0:0:0:0:
311,125,32775,1,0,0:0:0:0:
311,101,32859,1,0,0:0:0:0:
303,78,32942,1,0,0:0:0:0:
292,57,33025,1,0,0:0:0:0:
292,57,33359,5,0,0:0:0:0:
68,95,33693,6,0,P|133:130|229:123,1,168
139,25,34193,1,0,0:0:0:0:
5,54,34359,2,0,P|-9:98|22:150,1,84
157,221,34693,2,0,P|115:201|59:226,1,84
150,333,35026,6,0,P|232:325|252:224,1,168
174,154,35526,1,0,0:0:0:0:
71,150,35693,1,0,0:0:0:0:
121,264,35859,1,0,0:0:0:0:
212,79,36026,2,0,B|260:58|296:71|296:71|286:118,1,126
287,109,36359,6,0,P|329:115|373:93,1,84
418,8,36693,1,0,0:0:0:0:
490,121,36859,1,0,0:0:0:0:
507,155,36942,1,0,0:0:0:0:
497,190,37026,2,0,P|461:218|398:223,1,84
286,260,37359,2,0,P|322:288|385:293,1,84
327,173,37693,6,0,L|280:97,1,84
160,205,38026,2,0,L|241:170,1,84
116,101,38359,1,0,0:0:0:0:
73,137,38526,1,0,0:0:0:0:
324,172,38693,1,0,0:0:0:0:
253,148,38859,1,0,0:0:0:0:
315,373,39026,6,0,B|356:333|417:395|470:332,1,168
506,162,39526,1,0,0:0:0:0:
405,291,39693,2,0,B|346:254|371:188|371:188|325:173,1,168
441,221,40193,1,0,0:0:0:0:
286,261,40359,6,0,P|210:288|145:240,1,168
196,136,40859,1,0,0:0:0:0:
66,269,41026,2,0,P|52:228|77:197,1,84
213,225,41359,2,0,P|226:265|201:296,1,84
55,345,41693,6,0,B|84:358|125:328|125:328|152:381|215:387,1,168
292,299,42193,1,0,0:0:0:0:
213,227,42359,1,0,0:0:0:0:
392,227,42526,1,0,0:0:0:0:
430,131,42693,1,0,0:0:0:0:
291,219,42859,6,0,P|257:156|185:148,1,126
311,124,43193,2,0,P|369:145|430:131,1,126
508,63,43526,1,0,0:0:0:0:
390,18,43693,5,0,0:0:0:0:
390,18,43776,1,0,0:0:0:0:
390,18,43859,2,0,L|355:40,1,42
242,85,44026,1,0,0:0:0:0:
242,85,44109,1,0,0:0:0:0:
242,85,44193,2,0,L|197:78,1,42
70,10,44359,6,0,B|110:45|110:45|91:114|143:157,1,168
320,207,44859,1,0,0:0:0:0:
324,166,44942,1,0,0:0:0:0:
301,132,45025,1,0,0:0:0:0:
276,283,45193,2,0,P|308:316|350:317,1,84
188,188,45526,1,0,0:0:0:0:
63,268,45693,6,0,P|30:198|63:114,1,168
322,99,46193,1,0,0:0:0:0:
301,132,46276,1,0,0:0:0:0:
266,153,46359,2,0,P|211:154|174:125,1,84
351,244,46693,2,0,P|392:241|426:218,1,84
445,178,46943,1,0,0:0:0:0:
447,132,47026,6,0,P|446:186|504:300,1,168
266,153,47526,1,0,0:0:0:0:
86,61,47693,2,0,P|154:101|218:55,1,168
3,130,48193,1,0,0:0:0:0:
328,181,48359,6,0,P|334:141|309:93,1,84
92,173,48693,2,0,P|86:213|111:261,1,84
132,274,48943,1,0,0:0:0:0:
184,298,49026,2,0,P|143:294|109:317,1,84
379,342,49359,2,0,B|413:303|413:303|386:264|320:265,1,126
351,267,49693,6,0,B|407:258|407:258|460:231|460:231|514:222,1,168
302,344,50193,2,0,L|264:362,2,42
308,174,50526,2,0,L|372:142,2,42
180,223,50859,1,0,0:0:0:0:
27,234,51026,6,0,P|30:279|54:308,1,84
178,137,51359,2,0,B|187:92|175:55|175:55|125:31,1,126
136,36,51693,2,0,P|179:52|234:38,1,84
427,3,52026,2,0,P|416:54|460:121,1,126
494,147,52359,6,0,P|437:152|369:192,1,126
347,215,52693,1,0,0:0:0:0:
341,73,52859,1,0,0:0:0:0:
498,230,53026,2,0,L|494:147,1,84
347,215,53359,2,0,L|351:298,1,84
192,96,53693,6,0,P|232:104|273:94,2,84
160,224,54193,1,0,0:0:0:0:
119,235,54276,1,0,0:0:0:0:
88,263,54359,1,0,0:0:0:0:
379,288,54526,2,0,P|408:259|423:220,1,84
246,298,54859,1,0,0:0:0:0:
407,146,55026,6,0,B|366:148|346:216|346:216|303:188|306:141,1,168
163,294,55526,2,0,P|208:303|251:295,1,84
307,161,55859,2,0,P|268:144|226:141,1,84
123,205,56193,1,0,0:0:0:0:
47,55,56359,6,0,B|74:123|74:123|23:150|29:222,1,168
83,307,56859,1,0,0:0:0:0:
233,315,57026,1,0,0:0:0:0:
17,270,57193,1,0,0:0:0:0:
316,313,57359,2,0,P|300:271|256:235,1,84
123,205,57693,6,0,B|175:166|175:166|196:108|196:108|242:72,1,168
413,132,58193,1,0,0:0:0:0:
402,156,58276,1,0,0:0:0:0:
386,177,58359,2,0,P|345:185|303:178,1,84
193,109,58693,1,0,0:0:0:0:
57,150,58859,1,0,0:0:0:0:
97,220,59026,6,0,L|274:205,1,168
107,91,59526,1,0,0:0:0:0:
107,91,59609,1,0,0:0:0:0:
161,128,59693,2,0,L|268:126,1,84
294,210,60026,2,0,L|401:208,1,84
301,154,60276,1,0,0:0:0:0:
159,51,60359,2,0,L|358:76,1,168
