osu file format v14

[General]
AudioFilename: tsukinami.mp3
AudioLeadIn: 0
PreviewTime: 98584
Countdown: 0
SampleSet: Soft
StackLeniency: 0.7
Mode: 0
LetterboxInBreaks: 1
WidescreenStoryboard: 1

[Editor]
Bookmarks: 22173,55006,76339,97673,129673,213494
DistanceSpacing: 1.4
BeatDivisor: 4
GridSize: 32
TimelineZoom: 2.5

[Metadata]
Title:Tsukinami
TitleUnicode:ツキナミ
Artist:Wakeshima Kanon
ArtistUnicode:分島花音
Creator:koromo77
Version:Hard
Source:
Tags:
BeatmapID:652173
BeatmapSetID:285373

[Difficulty]
HPDrainRate:6
CircleSize:4
OverallDifficulty:6
ApproachRate:7.7
SliderMultiplier:1.35
SliderTickRate:1

[Events]
//Background and Video events
0,0,"BG.jpg",0,0
//Break Periods
//Storyboard Layer 0 (Background)
//Storyboard Layer 1 (Fail)
//Storyboard Layer 2 (Pass)
//Storyboard Layer 3 (Foreground)
//Storyboard Sound Samples

[TimingPoints]
12360,333.333333333333,4,2,1,40,1,0
76358,-100,4,2,1,40,0,0
87025,-100,4,2,1,40,0,0
97691,-83.3333333333333,4,2,1,55,0,1
108275,-83.3333333333333,4,2,1,60,0,0
108358,-83.3333333333333,4,2,1,55,0,1
108692,-83.3333333333333,4,2,1,55,0,1
118275,-133.333333333333,4,2,1,50,0,1
118692,-83.3333333333333,4,2,1,35,0,1
118942,-100,4,2,1,50,0,0
129025,-100,4,3,1,25,0,0

[HitObjects]
139,233,12360,6,0,P|191:269|255:244,1,135,4|8,0:2|0:2,0:0:0:0:
304,187,12860,1,0,0:0:0:0:
347,115,13026,2,0,P|375:138|387:171,1,67.5,2|0,0:0|0:2,0:0:0:0:
461,185,13360,2,0,P|447:215|421:236,1,67.5,8|0,0:0|0:2,0:0:0:0:
348,276,13693,6,0,P|410:315|477:296,1,135,2|8,0:2|0:2,0:0:0:0:
257,254,14360,2,0,L|314:212,2,67.5,0|0|8,0:0|0:0|0:2,0:0:0:0:
182,296,14860,1,0,0:0:0:0:
114,365,15026,6,0,P|86:284|115:236,1,135,4|8,0:0|0:2,0:0:0:0:
256,162,15693,2,0,P|235:127|211:108,1,67.5,2|0,0:2|0:0,0:0:0:0:
127,103,16026,2,0,P|131:69|146:39,1,67.5,8|0,0:2|0:0,0:0:0:0:
235,38,16360,6,0,P|291:45|365:15,1,135,2|8,0:2|0:2,0:2:0:0:
423,74,16860,1,0,0:0:0:0:
483,140,17026,1,2,0:2:0:0:
450,227,17193,1,0,0:2:0:0:
394,168,17360,1,8,0:2:0:0:
272,304,17693,6,0,P|209:281|176:224,1,135,4|8,0:0|0:2,0:0:0:0:
347,254,18360,2,0,L|415:247,2,67.5,2|0|8,0:2|0:0|0:2,0:0:0:0:
266,220,18860,1,0,0:0:0:0:
185,186,19026,6,0,P|241:139|303:143,1,135,2|8,0:2|0:2,0:0:0:0:
384,165,19526,2,0,P|384:117|354:77,1,67.5,0|2,0:0|0:0,0:0:0:0:
291,75,19860,2,0,P|291:123|321:163,1,67.5,0|8,0:0|0:0,0:0:0:0:
336,223,20193,1,0,0:0:0:0:
394,302,20360,6,0,P|461:256|530:278,1,135,4|8,0:0|0:2,0:0:0:0:
461,342,20860,2,0,P|428:374|392:378,1,67.5,0|2,0:0|0:2,0:0:0:0:
329,339,21193,1,0,0:0:0:0:
241,372,21360,2,0,L|211:307,1,67.5,8|0,0:2|0:0,0:0:0:0:
277,207,21693,6,0,L|281:297,1,67.5,2|0,0:2|0:0,0:0:0:0:
174,223,22026,2,0,L|130:143,1,67.5,10|0,0:2|0:0,0:0:0:0:
141,163,22276,1,0,3:2:0:0:
141,163,22360,1,0,3:0:0:0:
52,235,22526,2,0,P|39:266|39:299,1,67.5,0|8,0:0|0:2,0:0:0:0:
151,347,22860,1,0,3:0:0:0:
151,347,22943,1,0,3:0:0:0:
151,347,23026,6,0,P|235:330|264:292,1,135,4|8,0:2|0:2,0:0:0:0:
358,312,23526,2,0,L|331:238,1,67.5,0|2,0:0|0:0,0:0:0:0:
292,171,23859,2,0,L|244:218,1,67.5,0|8,0:0|0:2,0:0:0:0:
180,279,24193,1,0,0:0:0:0:
112,223,24359,6,0,P|89:190|82:159,1,67.5,2|0,0:2|0:0,0:0:0:0:
170,164,24693,1,8,0:2:0:0:
258,167,24859,2,0,L|292:171,2,33.75,0|0|2,3:0|3:0|0:2,3:0:0:0:
283,82,25193,1,0,0:0:0:0:
365,135,25359,2,0,L|448:120,1,67.5,8|0,0:2|0:0,0:0:0:0:
351,62,25693,6,0,P|302:14|241:24,1,135,4|8,0:2|0:2,0:0:0:0:
100,121,26359,2,0,P|128:147|173:150,1,67.5,2|0,0:2|0:0,0:0:0:0:
168,240,26693,2,0,P|204:227|227:189,1,67.5,8|0,0:2|0:0,0:0:0:0:
223,205,26943,1,0,0:0:0:0:
223,205,27026,5,4,0:0:0:0:
252,82,27193,2,0,L|223:66,2,33.75
350,64,27526,2,0,L|400:51,4,33.75,0|0|0|0|0,3:0|3:0|3:0|3:0|3:0,3:0:0:0:
350,134,27943,2,0,L|313:128,4,33.75,0|0|0|0|0,3:0|3:0|3:0|3:0|3:0,3:0:0:0:
381,145,28359,6,0,P|411:207|477:215,1,135,4|8,0:0|0:2,0:0:0:0:
336,225,28859,2,0,P|270:225|233:278,1,135,4|0,0:0|1:0,0:0:0:0:
195,367,29359,2,0,L|159:306,1,67.5
102,235,29693,5,2,0:2:0:0:
78,330,29859,2,0,P|44:336|11:336,1,67.5,0|8,0:0|0:2,0:0:0:0:
32,250,30193,1,0,0:0:0:0:
14,165,30359,1,0,0:0:0:0:
79,107,30526,1,0,0:0:0:0:
158,101,30693,2,0,P|195:107|232:97,1,67.5,8|0,0:2|0:0,0:0:0:0:
342,43,31026,6,0,P|375:101|377:173,1,135,4|8,0:0|0:2,0:0:0:0:
326,255,31526,2,0,L|405:247,1,67.5,0|2,0:0|0:0,0:0:0:0:
345,328,31859,2,0,L|277:334,1,67.5,2|8,0:2|0:2,0:0:0:0:
246,230,32193,1,0,0:2:0:0:
194,161,32359,6,0,L|155:210,2,33.75,2|0|0,3:2|3:0|3:0,3:0:0:0:
258,99,32693,1,8,0:2:0:0:
344,164,32859,2,0,L|317:143,2,33.75,0|0|0,3:0|3:0|3:0,0:0:0:0:
140,313,33359,1,2,0:0:0:0:
140,313,33693,6,4,P|100:249|102:162,1,135,4|8,0:2|0:2,0:2:0:0:
210,56,34359,2,0,P|174:66|144:90,1,67.5,2|0,0:2|0:0,0:0:0:0:
234,142,34693,2,0,P|270:132|300:108,1,67.5,8|0,0:2|0:0,0:0:0:0:
349,30,35026,6,0,P|390:91|370:164,1,135,2|8,0:2|0:2,0:0:0:0:
413,244,35526,2,0,P|386:282|354:293,1,67.5,0|2,0:0|0:2,0:0:0:0:
277,250,35859,1,0,0:0:0:0:
320,158,36026,2,0,P|338:193|336:234,1,67.5,8|0,0:2|0:0,0:0:0:0:
324,320,36359,6,0,P|389:326|435:279,1,135,4|8,0:0|0:2,0:0:0:0:
456,170,36859,1,0,3:0:0:0:
456,170,36943,1,0,3:0:0:0:
456,170,37026,2,0,L|489:233,1,67.5,2|0,0:2|0:0,0:0:0:0:
386,221,37359,2,0,L|350:151,1,67.5,8|0,0:2|0:0,0:0:0:0:
270,111,37693,6,0,P|254:145|256:182,1,67.5,2|0,0:2|0:0,0:0:0:0:
273,264,38026,2,0,P|239:263|209:248,1,67.5,8|0,0:2|0:0,0:0:0:0:
140,194,38359,1,2,0:2:0:0:
56,165,38526,1,0,0:0:0:0:
6,237,38693,2,0,P|35:252|69:252,1,67.5,8|0,0:2|0:0,0:0:0:0:
209,248,39026,6,0,P|271:213|335:212,1,135,4|8,0:0|0:2,0:0:0:0:
414,266,39526,1,0,0:0:0:0:
368,347,39693,2,0,P|331:310|328:270,1,67.5
333,211,40026,1,8,0:2:0:0:
132,144,40359,6,0,P|65:137|15:94,1,135,2|8,0:2|0:2,0:0:0:0:
107,51,40859,1,0,0:0:0:0:
207,67,41026,2,0,P|245:62|270:46,1,67.5,2|0,0:2|0:0,0:0:0:0:
328,159,41359,1,8,0:2:0:0:
266,205,41693,6,0,P|327:235|390:199,1,135,4|8,0:0|0:2,0:0:0:0:
326,138,42193,1,0,0:0:0:0:
401,93,42359,2,0,L|401:24,2,67.5,2|0|8,0:2|0:0|0:2,0:0:0:0:
407,180,42859,6,0,P|438:220|491:236,1,101.25,2|0,0:2|0:0,0:0:0:0:
484,236,43193,2,0,P|446:276|428:320,1,101.25,2|0,0:2|0:0,0:0:0:0:
421,351,43526,1,2,0:2:0:0:
349,266,43693,2,0,L|331:296,3,33.75,10|0|0|0,3:2|3:0|3:0|3:0,3:0:0:0:
291,218,44026,2,0,L|277:182,3,33.75,0|0|0|0,3:0|3:0|3:0|3:0,3:0:0:0:
285,237,44359,6,0,P|217:242|153:222,1,135,4|8,0:0|0:2,0:0:0:0:
65,221,44859,2,0,L|94:153,1,67.5,0|2,0:0|0:2,0:0:0:0:
129,78,45193,1,0,0:0:0:0:
227,159,45359,1,8,0:2:0:0:
227,159,45693,6,0,P|289:111|353:115,1,135,2|8,0:2|0:2,0:0:0:0:
421,162,46193,1,0,0:0:0:0:
346,270,46359,2,0,L|316:209,2,67.5,2|0|8,0:2|0:0|0:2,0:0:0:0:
399,356,46859,1,0,3:0:0:0:
399,356,46943,1,0,3:0:0:0:
399,356,47026,6,0,P|446:290|440:236,1,135,4|8,0:0|0:2,0:0:0:0:
423,138,47526,1,0,0:0:0:0:
275,118,47693,2,0,L|341:128,2,67.5,2|0|8,0:2|0:0|0:2,0:0:0:0:
203,47,48193,2,0,L|136:57,2,67.5,0|2|0,0:0|0:2|0:0,0:0:0:0:
302,31,48693,5,8,0:2:0:0:
275,118,48859,2,0,L|242:127,2,33.75,0|0|8,3:0|3:0|0:2,0:0:0:0:
368,98,49193,1,0,0:0:0:0:
430,169,49359,2,0,P|398:204|358:182,1,101.25,2|0,1:2|0:0,0:0:0:0:
357,181,49693,6,0,P|347:253|357:316,1,135,4|8,0:2|0:2,0:0:0:0:
445,269,50193,2,0,L|500:268,2,33.75,2|0|2,0:2|0:0|0:2,0:0:0:0:
424,345,50526,2,0,P|390:381|360:384,1,67.5,0|10,0:0|0:2,0:0:0:0:
286,349,50859,1,0,0:2:0:0:
241,266,51026,6,0,P|263:184|243:141,1,135,2|8,0:2|0:2,0:0:0:0:
151,100,51526,1,0,0:0:0:0:
87,203,51693,2,0,P|127:198|170:207,1,67.5,2|0,0:2|0:0,0:0:0:0:
114,287,52026,2,0,P|74:292|31:283,1,67.5,8|0,0:2|0:0,0:0:0:0:
9,194,52359,6,0,P|42:132|106:129,1,135,2|8,0:2|0:2,0:0:0:0:
195,163,52859,2,0,P|173:100|197:32,1,135,2|2,0:0|0:0,0:2:0:0:
99,77,53359,1,8,0:2:0:0:
110,177,53526,1,0,0:0:0:0:
182,248,53693,6,0,P|228:240|250:220,1,67.5,4|0,0:0|0:0,0:0:0:0:
323,165,54026,1,8,0:2:0:0:
380,248,54193,2,0,L|438:255,4,33.75,0|0|0|0|0,3:0|3:0|3:0|3:0|1:0,3:0:0:0:
412,151,54693,2,0,P|400:114|376:92,1,67.5,8|0,0:2|0:0,0:0:0:0:
279,78,55026,6,0,P|255:140|187:172,1,135,4|8,0:0|0:2,0:0:0:0:
179,71,55526,1,0,0:0:0:0:
79,92,55693,2,0,P|46:55|16:50,1,67.5,2|0,0:2|0:0,0:0:0:0:
37,154,56026,2,0,P|70:191|100:196,1,67.5,8|0,0:2|0:0,0:0:0:0:
174,251,56359,6,0,P|223:205|232:131,1,135,2|8,0:2|0:2,0:0:0:0:
307,70,56859,1,0,0:0:0:0:
385,134,57026,2,0,P|396:166|418:191,1,67.5,2|0,0:2|0:0,0:0:0:0:
497,262,57359,2,0,L|427:277,1,67.5,8|0,0:2|0:0,0:0:0:0:
330,286,57693,6,0,P|304:225|242:203,1,135,4|8,0:0|0:2,0:0:0:0:
246,284,58193,1,0,0:0:0:0:
191,352,58359,1,2,0:2:0:0:
103,353,58526,1,0,0:0:0:0:
20,296,58693,2,0,P|42:253|64:244,1,67.5,8|0,0:2|0:0,0:0:0:0:
142,186,59026,6,0,L|149:254,1,67.5,2|0,0:0|0:0,0:0:0:0:
246,284,59359,1,8,0:2:0:0:
316,211,59526,2,0,L|335:239,2,33.75,0|0|2,3:0|3:0|3:2,3:0:0:0:
251,160,59859,2,0,P|235:120|235:94,1,67.5,2|8,0:2|0:2,0:0:0:0:
321,116,60193,1,0,3:0:0:0:
321,116,60276,1,0,3:0:0:0:
321,116,60359,6,0,P|392:114|429:65,1,135,4|8,0:0|0:2,0:0:0:0:
322,43,60859,2,0,P|277:49|256:79,1,67.5,0|2,0:0|0:2,0:0:0:0:
189,128,61193,2,0,P|168:101|168:68,1,67.5,0|8,0:0|0:2,0:0:0:0:
76,48,61526,1,0,0:0:0:0:
33,131,61693,6,0,P|33:187|89:240,1,135,2|8,0:2|0:2,0:0:0:0:
187,224,62193,1,0,0:0:0:0:
285,279,62359,2,0,P|246:307|199:306,1,67.5,2|0,0:2|0:0,0:0:0:0:
258,211,62693,2,0,P|282:189|314:180,1,67.5,8|0,0:2|0:0,0:0:0:0:
396,241,63026,6,0,P|420:174|387:113,1,135,2|8,0:2|0:2,0:0:0:0:
315,179,63526,2,0,P|288:157|278:99,1,67.5,2|0,0:2|0:0,0:0:0:0:
236,38,63859,2,0,L|162:62,1,67.5,0|8,0:0|0:2,0:0:0:0:
85,96,64193,1,0,3:0:0:0:
85,96,64276,1,0,3:0:0:0:
85,96,64359,6,0,P|93:131|116:155,1,67.5,2|0,0:2|0:0,0:0:0:0:
174,226,64693,2,0,L|236:180,1,67.5,8|0,0:2|0:0,0:0:0:0:
302,134,65026,1,2,0:2:0:0:
394,113,65193,1,0,0:0:0:0:
478,166,65359,2,0,P|445:201|394:207,1,101.25,10|0,0:2|0:0,0:0:0:0:
395,207,65693,6,0,B|384:240|393:273|393:273|332:323,1,135,4|8,0:0|0:2,0:0:0:0:
302,246,66193,2,0,L|257:187,1,67.5,0|2,0:0|0:2,0:0:0:0:
202,118,66526,2,0,P|180:144|167:179,1,67.5,0|8,0:0|0:2,0:0:0:0:
200,271,66859,1,0,0:0:0:0:
122,358,67026,6,0,P|87:291|92:219,1,135,2|8,0:2|0:2,0:0:0:0:
91,139,67526,1,0,0:0:0:0:
172,184,67693,1,2,0:2:0:0:
168,93,67859,1,0,0:0:0:0:
251,129,68026,2,0,P|285:117|319:78,1,67.5,10|0,0:2|0:0,0:0:0:0:
369,0,68359,6,0,P|414:63|417:123,1,135,2|8,0:2|0:2,0:0:0:0:
338,173,68859,1,0,0:0:0:0:
280,252,69026,2,0,P|356:297|420:284,1,135,0|8,0:0|0:2,0:0:0:0:
500,305,69526,1,0,0:0:0:0:
441,221,69693,6,0,L|464:157,1,67.5
380,101,70026,2,0,L|360:36,1,67.5,12|0,0:2|0:0,0:0:0:0:
317,35,70276,2,0,L|275:47,3,33.75,0|0|0|0,3:0|3:0|3:0|3:0,3:0:0:0:
185,65,70693,1,8,0:0:0:0:
276,130,70859,1,0,0:0:0:0:
168,161,71026,6,0,P|106:121|91:57,1,135,2|8,0:2|0:2,0:0:0:0:
48,157,71526,1,2,0:0:0:0:
115,233,71693,2,0,P|213:236|240:207,1,135,0|2,0:0|0:2,0:0:0:0:
276,130,72193,1,0,0:2:0:0:
322,219,72359,6,0,P|342:244|351:296,1,67.5,4|0,0:2|0:0,0:0:0:0:
363,379,72693,2,0,P|428:343|454:269,1,135,8|0,0:2|0:0,0:0:0:0:
484,192,73193,1,0,0:0:0:0:
440,95,73359,2,0,L|505:110,1,67.5,8|0,0:2|0:0,0:0:0:0:
407,158,73693,6,0,L|276:130,1,135,0|8,0:0|0:2,0:0:0:0:
273,28,74193,1,0,0:0:0:0:
172,38,74359,2,0,P|136:50|109:91,1,67.5,2|0,0:2|0:0,0:0:0:0:
110,173,74693,2,0,P|142:163|165:139,1,67.5,10|0,0:2|0:0,0:2:0:0:
266,146,75026,5,2,0:2:0:0:
266,146,75193,1,0,0:0:0:0:
220,229,75359,2,0,L|291:299,1,67.5,8|0,0:2|0:0,0:0:0:0:
152,297,75693,1,0,0:0:0:0:
152,297,75859,1,0,0:0:0:0:
268,276,76026,2,0,P|329:280|375:253,1,101.25,10|0,0:2|0:0,0:0:0:0:
363,262,76359,6,0,B|381:343|381:343|440:343,1,135,0|8,0:0|0:2,0:0:0:0:
436,236,76859,1,0,3:0:0:0:
346,187,77026,1,2,3:2:0:0:
346,187,77359,1,8,3:2:0:0:
444,149,77526,2,0,L|493:131,2,33.75,0|0|2,3:0|3:0|3:2,3:0:0:0:
354,99,77859,5,0,3:0:0:0:
354,99,78026,1,8,3:2:0:0:
274,133,78193,1,0,3:0:0:0:
275,212,78359,1,0,3:0:0:0:
275,212,78693,1,8,3:2:0:0:
219,302,78859,1,0,3:0:0:0:
119,336,79026,6,0,P|122:258|172:211,1,135,2|8,0:2|3:2,0:0:0:0:
225,162,79526,1,0,3:0:0:0:
107,168,79693,1,2,3:2:0:0:
107,168,80026,1,8,3:2:0:0:
46,103,80193,1,0,3:0:0:0:
46,103,80276,1,0,3:0:0:0:
46,103,80359,6,0,P|75:84|121:79,1,67.5,2|0,0:2|0:0,0:0:0:0:
186,14,80693,2,0,L|195:99,1,67.5,8|0,0:2|0:0,0:0:0:0:
224,165,81026,2,0,P|258:169|305:154,1,67.5,2|0,0:2|0:0,0:0:0:0:
429,210,81359,2,0,P|382:233|326:196,1,101.25,10|0,0:2|0:0,0:0:0:0:
339,215,81693,6,0,P|348:288|343:351,1,135,4|8,0:0|3:2,0:0:0:0:
230,359,82193,1,0,3:0:0:0:
267,288,82359,1,0,3:0:0:0:
253,210,82526,1,0,2:0:0:0:
203,150,82693,1,8,2:2:0:0:
123,138,82859,2,0,P|159:86|241:80,1,135,0|0,2:0|0:0,0:0:0:0:
303,116,83359,5,8,0:2:0:0:
408,116,83526,2,0,P|400:81|382:54,2,67.5,2|0|2,0:2|2:2|0:2,0:2:0:0:
399,198,84026,1,8,3:2:0:0:
350,263,84193,1,0,3:0:0:0:
277,189,84359,1,2,3:2:0:0:
277,189,84693,5,8,3:2:0:0:
334,128,84859,1,0,2:0:0:0:
215,81,85026,1,0,3:0:0:0:
215,81,85359,1,8,3:2:0:0:
112,129,85526,1,0,3:0:0:0:
112,129,85609,1,0,3:0:0:0:
112,129,85693,2,0,P|137:164|168:178,1,67.5,2|0,0:2|3:0,0:0:0:0:
249,172,86026,6,0,P|262:216|250:276,1,101.25,2|0,0:2|0:0,0:0:0:0:
251,286,86359,2,0,P|303:300|359:286,1,101.25,2|0,0:2|0:0,0:0:0:0:
354,260,86693,2,0,P|387:219|450:190,1,101.25,2|0,0:2|0:0,0:0:0:0:
483,222,87026,5,4,0:2:0:0:
483,222,87193,1,0,0:0:0:0:
436,102,87359,2,8,L|499:127,1,67.5,8|0,0:2|0:0,0:2:0:0:
478,32,87693,1,0,0:0:0:0:
478,32,87859,1,0,0:0:0:0:
369,44,88026,2,8,P|351:91|362:130,1,67.5,8|0,0:2|0:0,0:2:0:0:
371,196,88359,1,0,0:0:0:0:
371,196,88526,1,0,0:0:0:0:
266,223,88693,1,8,0:2:0:0:
266,223,88859,6,0,P|203:200|170:142,1,135,2|0,0:2|0:0,0:0:0:0:
255,137,89359,1,8,0:2:0:0:
204,58,89526,1,0,0:0:0:0:
118,70,89693,6,0,P|94:91|81:126,1,67.5,2|0,0:2|0:0,0:2:0:0:
0,149,90026,2,0,P|10:180|36:202,1,67.5,8|0,0:2|0:0,0:0:0:0:
31,289,90359,2,0,P|60:303|94:299,1,67.5,2|0,0:2|0:0,0:0:0:0:
168,350,90693,2,0,P|197:334|216:306,1,67.5,8|0,0:2|0:0,0:0:0:0:
215,220,91026,6,0,P|183:229|159:256,1,67.5
95,331,91359,1,8,0:2:0:0:
98,210,91526,1,2,0:2:0:0:
98,210,91859,2,0,P|125:159|198:121,1,135,2|2,0:2|0:2,0:0:0:0:
258,46,92359,6,0,B|191:30|191:30|126:47,1,135,4|8,0:0|0:2,0:0:0:0:
65,109,92859,1,0,0:0:0:0:
195,113,93026,2,0,P|178:164|201:248,1,135,2|8,0:2|0:2,0:0:0:0:
272,289,93526,1,0,0:0:0:0:
287,196,93693,6,0,P|352:178|417:193,1,135,6|8,0:2|0:2,0:0:0:0:
511,207,94193,2,0,P|507:162|486:129,1,67.5
456,64,94526,2,0,L|382:80,1,67.5,0|8,0:0|0:2,0:0:0:0:
305,31,94859,1,0,0:0:0:0:
240,114,95026,6,0,P|272:123|305:118,1,67.5,4|0,0:0|0:0,0:0:0:0:
170,80,95359,2,0,P|161:112|166:145,1,67.5,10|0,0:2|0:0,0:0:0:0:
180,10,95693,2,0,P|146:13|118:30,1,67.5,4|0,0:0|0:0,0:0:0:0:
59,106,96026,2,0,P|50:138|55:171,1,67.5,10|0,0:2|0:0,0:0:0:0:
140,256,96359,5,4,0:0:0:0:
253,306,96526,2,0,L|295:308,3,33.75,2|0|8|0,0:2|0:0|0:2|0:0,0:0:0:0:
348,287,96859,2,0,L|377:271,3,33.75,0|2|0|0,0:0|0:2|0:0|0:0,0:0:0:0:
413,218,97193,2,0,L|442:185,2,33.75,0|0|8,0:0|0:0|0:2,0:0:0:0:
413,218,97693,6,0,P|341:172|354:95,1,161.999995056153,4|8,0:2|0:2,0:0:0:0:
443,129,98193,1,0,0:0:0:0:
485,235,98359,2,0,P|476:261|413:285,1,80.9999975280763
318,292,98693,2,0,L|282:219,1,80.9999975280763,8|0,0:2|0:0,0:0:0:0:
243,112,99026,6,0,P|280:86|346:76,2,80.9999975280763,2|0|8,0:2|0:0|0:2,0:0:0:0:
144,167,99526,1,0,3:0:0:0:
144,167,99609,1,0,3:0:0:0:
144,167,99693,2,0,P|110:135|95:85,1,80.9999975280763,0|0,1:2|0:0,0:0:0:0:
244,112,100026,2,0,P|278:144|293:194,1,80.9999975280763,8|0,0:2|0:0,0:0:0:0:
269,286,100359,6,0,P|348:274|399:213,1,161.999995056153,4|8,0:0|0:2,0:0:0:0:
456,116,100859,2,0,L|501:142,2,40.4999987640381
351,55,101193,1,0,0:0:0:0:
315,149,101359,2,0,P|273:134|231:99,1,80.9999975280763,8|0,0:2|0:0,0:0:0:0:
153,55,101693,6,0,L|53:89,1,80.9999975280763,2|0,0:2|0:0,0:0:0:0:
79,202,102026,2,0,P|105:235|145:254,1,80.9999975280763,8|0,0:2|0:0,0:0:0:0:
260,282,102359,1,2,0:2:0:0:
384,201,102526,2,0,L|398:293,1,80.9999975280763,0|8,0:0|0:2,0:0:0:0:
472,186,102859,1,0,3:0:0:0:
472,186,102943,1,0,3:0:0:0:
472,186,103026,6,0,P|407:115|326:138,1,161.999995056153,4|8,0:0|0:2,0:0:0:0:
250,153,103526,2,0,B|218:109|218:109|210:70,1,80.9999975280763,0|2,0:0|0:2,0:0:0:0:
105,105,103859,1,0,0:0:0:0:
42,195,104026,1,8,0:2:0:0:
47,305,104193,6,0,P|122:332|206:316,1,161.999995056153,2|0,0:2|0:0,0:0:0:0:
305,201,104693,2,0,P|291:238|306:275,1,80.9999975280763,8|0,0:2|0:0,0:0:0:0:
383,352,105026,1,0,0:0:0:0:
401,239,105193,2,0,P|415:202|400:165,1,80.9999975280763,0|8,0:0|0:2,0:0:0:0:
292,83,105526,5,0,0:0:0:0:
292,83,105609,1,0,0:0:0:0:
292,83,105693,2,0,P|330:93|380:70,1,80.9999975280763,4|0,0:0|0:0,0:0:0:0:
306,201,106026,1,2,0:2:0:0:
171,166,106193,6,0,P|175:121|143:89,1,80.9999975280763,8|2,2:0|0:2,0:0:0:0:
41,139,106526,1,0,0:0:0:0:
83,255,106693,2,0,P|115:274|162:272,1,80.9999975280763,10|0,2:2|0:0,0:0:0:0:
260,226,107026,1,0,0:0:0:0:
330,344,107193,1,10,0:2:0:0:
330,344,107526,5,0,0:0:0:0:
424,252,107693,2,0,P|426:291|441:334,1,80.9999975280763,2|0,0:2|0:0,0:0:0:0:
350,240,108026,2,0,P|359:207|398:177,1,80.9999975280763,2|0,0:2|0:0,0:0:0:0:
489,88,108359,6,0,P|407:102|327:85,1,161.999995056153,4|8,0:0|0:0,0:2:0:0:
210,36,108859,1,0,0:0:0:0:
210,36,109193,2,0,P|235:69|247:113,1,80.9999975280763,0|8,0:0|0:2,0:0:0:0:
239,225,109526,1,0,0:0:0:0:
137,148,109693,6,0,B|102:111|86:68|86:68|59:99|20:125,1,161.999995056153,2|8,0:2|0:2,0:0:0:0:
101,251,110193,1,0,0:0:0:0:
219,295,110359,2,0,P|245:253|227:208,1,80.9999975280763
214,102,110693,1,10,0:2:0:0:
307,140,110859,1,0,3:0:0:0:
307,140,110943,1,0,3:0:0:0:
307,140,111026,6,0,B|352:98|352:98|396:107|447:111,1,121.499996292114,2|0,0:2|0:0,0:0:0:0:
411,107,111359,1,8,0:2:0:0:
357,224,111526,2,0,P|280:241|219:192,1,161.999995056153,2|0,0:2|0:0,0:0:0:0:
153,93,112026,1,8,0:2:0:0:
58,171,112193,6,0,B|6:233|6:233|69:286,1,161.999995056153,2|0,0:2|0:0,0:0:0:0:
191,311,112693,1,8,0:2:0:0:
243,178,112859,1,4,0:0:0:0:
243,178,113193,2,0,P|220:139|217:97,1,80.9999975280763,0|8,0:0|0:2,0:0:0:0:
309,38,113526,1,0,0:0:0:0:
373,131,113693,6,4,P|394:176|395:287,1,161.999995056153,4|8,0:0|0:2,0:0:0:0:
304,224,114193,2,0,P|280:192|243:178,1,80.9999975280763,0|2,0:0|0:2,0:0:0:0:
135,170,114526,1,0,0:0:0:0:
23,222,114693,2,0,P|69:228|89:256,1,80.9999975280763,8|0,0:2|0:0,0:0:0:0:
142,353,115026,6,0,P|209:333|234:250,1,161.999995056153,2|8,0:2|0:2,0:0:0:0:
238,137,115526,2,0,L|324:123,1,80.9999975280763,0|2,0:0|0:2,0:0:0:0:
416,67,115859,2,0,L|322:51,1,80.9999975280763,0|10,0:0|0:2,0:0:0:0:
222,39,116193,1,0,0:0:0:0:
132,109,116359,6,0,P|126:187|179:246,1,161.999995056153,4|0,0:2|0:2,0:0:0:0:
285,204,116859,1,8,0:2:0:0:
381,264,117026,2,0,P|344:283|284:281,1,80.9999975280763,2|0,0:2|0:0,0:0:0:0:
209,347,117359,2,0,P|167:339|122:301,1,80.9999975280763,8|0,0:2|0:0,0:0:0:0:
68,218,117693,1,0,0:0:0:0:
132,109,117859,6,0,L|108:70,4,40.4999987640381,2|0|2|0|0,0:2|0:0|0:2|0:0|0:0,0:0:0:0:
132,109,118276,6,0,P|190:126|314:80,1,177.187506759167
376,12,119026,6,0,P|405:53|397:143,1,135,4|8,0:0|0:0,0:0:0:0:
354,223,119526,1,0,0:0:0:0:
317,307,119693,2,0,P|285:282|268:253,1,67.5,2|0,0:2|0:0,0:0:0:0:
234,172,120026,2,0,L|166:192,1,67.5,8|0,0:2|0:0,0:0:0:0:
92,253,120359,6,0,P|65:192|88:131,1,135,2|8,0:2|0:2,0:0:0:0:
183,89,120859,1,0,0:0:0:0:
234,171,121026,2,0,P|271:143|280:114,1,67.5,2|0,0:2|0:0,0:2:0:0:
364,50,121359,2,0,L|386:132,1,67.5,8|0,0:2|0:0,0:0:0:0:
464,199,121693,6,0,P|410:239|342:226,1,135,2|8,0:2|0:2,0:0:0:0:
248,202,122193,2,0,L|234:172,2,33.75,0|0|0,3:0|3:0|3:0,3:0:0:0:
264,301,122526,2,0,P|227:301|194:284,1,67.5,0|8,0:0|0:2,0:0:0:0:
138,211,122859,1,0,0:0:0:0:
176,118,123026,6,0,L|248:88,1,67.5,2|0,0:0|0:0,0:0:0:0:
153,49,123359,2,0,L|84:15,1,67.5,8|0,0:2|0:0,0:0:0:0:
103,115,123693,2,0,L|66:188,1,67.5,2|0,0:2|0:0,0:0:0:0:
20,268,124026,2,0,P|52:280|95:271,1,67.5,8|0,0:2|0:0,0:0:0:0:
187,262,124359,6,0,L|218:333,2,67.5,2|0|8,0:2|0:0|0:2,0:0:0:0:
264,207,124859,2,0,L|216:171,2,33.75,0|0|0,0:0|0:0|3:0,0:0:0:0:
273,111,125193,2,0,L|343:82,1,67.5,0|8,0:0|0:2,0:0:0:0:
404,161,125526,2,0,P|414:216|476:289,1,135,2|0,0:2|0:0,0:0:0:0:
499,179,126026,6,0,P|489:124|427:51,1,135,2|0,0:2|3:2,0:0:0:0:
334,83,126526,2,0,L|271:111,1,67.5,0|8,0:0|0:2,0:0:0:0:
176,149,126859,1,0,0:0:0:0:
265,214,127026,6,0,P|295:180|334:210,1,101.25,2|0,0:2|0:0,0:0:0:0:
333,207,127359,2,0,L|392:243,1,67.5,8|0,0:2|0:0,0:0:0:0:
476,287,127693,2,0,P|453:317|424:335,1,67.5
392,243,128026,1,8,0:2:0:0:
463,180,128193,1,0,0:0:0:0:
389,121,128359,6,0,P|350:95|356:50,1,67.5,2|0,0:2|0:0,0:0:0:0:
262,31,128693,2,0,L|221:112,1,67.5,4|0,0:0|0:0,0:0:0:0:
160,159,129026,2,0,L|102:172,2,45
209,198,129359,2,0,L|256:204,3,45
