osu file format v14

[General]
AudioFilename: audio.mp3
AudioLeadIn: 0
PreviewTime: 63303
Countdown: 0
SampleSet: Soft
StackLeniency: 0.7
Mode: 0
LetterboxInBreaks: 0
WidescreenStoryboard: 1

[Editor]
DistanceSpacing: 1.3
BeatDivisor: 4
GridSize: 32
TimelineZoom: 1.9

[Metadata]
Title:Not For Sale Fossil
TitleUnicode:ノットフォーセール・フォッシル
Artist:Wakeshima Kanon
ArtistUnicode:分島花音
Creator:mnyui
Version:Frail
Source:
Tags:Kowari PikAqours japanese luminescence QED j-pop pop Q.E.D. rock jrock j-rock jpop
BeatmapID:2389623
BeatmapSetID:1144490

[Difficulty]
HPDrainRate:6
CircleSize:4
OverallDifficulty:9
ApproachRate:9.3
SliderMultiplier:1.7
SliderTickRate:1

[Events]
//Background and Video events
0,0,"damm.jpg",0,0
//Break Periods
2,184924,193560
//Storyboard Layer 0 (Background)
//Storyboard Layer 1 (Fail)
//Storyboard Layer 2 (Pass)
//Storyboard Layer 3 (Foreground)
//Storyboard Layer 4 (Overlay)
//Storyboard Sound Samples

[TimingPoints]
303,315.789473684211,4,2,1,50,1,0
2671,-100,4,2,1,10,0,0
2829,-90.9090909090909,4,2,1,80,0,0
21855,-90.9090909090909,4,2,1,5,0,0
21934,-90.9090909090909,4,2,1,80,0,0
23039,-111.111111111111,4,2,1,70,0,0
43250,-125,4,2,1,60,0,0
60934,-200,4,2,1,60,0,0
63460,-83.3333333333333,4,2,1,90,0,1
78618,-90.9090909090909,4,2,1,80,0,0
83671,-90.9090909090909,4,2,1,90,0,1
103881,-90.9090909090909,4,2,1,80,0,0
122908,-90.9090909090909,4,2,1,5,0,0
122987,-90.9090909090909,4,2,1,80,0,0
124092,-111.111111111111,4,2,1,70,0,0
134197,-111.111111111111,4,2,1,70,0,0
144303,-125,4,2,1,60,0,0
154408,-111.111111111111,4,2,1,70,0,0
164513,-90.9090909090909,4,2,1,75,0,0
194829,-83.3333333333333,4,2,1,90,0,1
209987,-90.9090909090909,4,2,1,80,0,0
214960,-90.9090909090909,4,2,1,5,0,0
215039,-90.9090909090909,4,2,1,90,0,1
237776,-166.666666666667,4,2,1,60,0,0
240303,-200,4,2,1,60,0,0
242197,-166.666666666667,4,2,1,60,0,0
247250,-166.666666666667,4,2,1,10,0,0
247408,-166.666666666667,4,2,1,60,0,0
247566,-200,4,2,1,60,0,0
247803,-90.9090909090909,4,2,1,5,0,0
247881,-90.9090909090909,4,2,1,80,0,0
268171,-90.9090909090909,4,2,1,5,0,0

[Colours]
Combo1 : 100,248,255
Combo2 : 255,230,140
Combo3 : 205,218,217
Combo4 : 255,244,32
Combo5 : 183,255,255

[HitObjects]
256,192,303,12,0,2671,0:0:0:0:
52,183,2829,6,0,P|103:176|160:168,1,93.5000028533936,14|0,0:0|0:0,0:0:0:0:
283,38,3145,2,0,P|232:31|175:23,1,93.5000028533936,10|0,0:0|3:0,0:0:0:0:
213,247,3460,1,10,0:0:0:0:
349,116,3618,1,0,3:0:0:0:
332,299,3776,2,0,P|320:249|307:193,1,93.5000028533936,10|0,0:0|3:0,0:0:0:0:
499,91,4092,6,0,P|488:137|478:182,1,93.5000028533936,10|0,0:0|3:0,0:0:0:0:
164,156,4408,2,0,P|222:143|265:132,1,93.5000028533936,10|0,0:0|3:0,0:0:0:0:
130,322,4724,2,0,P|84:311|39:300,1,93.5000028533936,10|0,0:0|3:0,0:0:0:0:
177,147,5039,2,0,P|234:134|277:123,1,93.5000028533936,10|0,0:0|3:0,0:0:0:0:
494,303,5355,6,0,P|423:331|347:244,1,187.000005706787,14|8,0:0|0:0,0:0:0:0:
449,123,5829,1,0,3:0:0:0:
449,123,5908,1,0,3:0:0:0:
449,123,5987,1,8,0:0:0:0:
178,93,6145,1,0,3:0:0:0:
178,93,6224,1,0,3:0:0:0:
178,93,6303,6,0,B|253:77|305:66|305:66|343:108,1,187.000005706787,10|8,0:0|0:0,0:0:0:0:
443,4,6776,1,0,3:0:0:0:
491,213,6934,1,8,0:0:0:0:
343,108,7092,1,0,3:0:0:0:
336,325,7250,2,0,P|382:315|428:307,1,93.5000028533936,10|0,0:0|3:0,0:0:0:0:
240,159,7566,2,0,P|235:206|231:253,1,93.5000028533936,10|0,0:0|3:0,0:0:0:0:
73,375,7881,6,0,P|65:329|57:283,1,93.5000028533936,14|0,0:2|3:0,0:0:0:0:
227,150,8197,2,0,P|217:196|209:242,1,93.5000028533936,10|0,0:0|3:0,0:0:0:0:
77,85,8513,1,10,0:0:0:0:
271,32,8671,1,0,3:0:0:0:
122,191,8829,2,0,P|75:186|28:182,1,93.5000028533936,10|0,0:0|3:0,0:0:0:0:
327,122,9145,6,0,P|337:172|346:227,1,93.5000028533936,14|0,0:2|3:0,0:0:0:0:
478,349,9460,2,0,P|486:303|494:257,1,93.5000028533936,10|0,0:0|3:0,0:0:0:0:
282,341,9776,2,0,P|327:332|373:324,1,93.5000028533936,10|0,0:0|3:0,0:0:0:0:
512,166,10092,2,0,P|465:156|419:148,1,93.5000028533936,10|0,0:0|3:0,0:0:0:0:
206,38,10408,6,0,P|213:85|219:131,1,93.5000028533936,14|0,0:2|3:0,0:0:0:0:
418,263,10724,2,0,P|425:216|431:170,1,93.5000028533936,14|0,0:2|3:0,0:0:0:0:
269,208,11039,1,10,0:2:0:0:
374,22,11197,1,2,3:2:0:0:
418,263,11355,1,2,3:2:0:0:
176,222,11513,6,0,P|222:214|268:207,1,93.5000028533936,14|0,0:2|0:0,0:0:0:0:
401,120,11829,1,0,3:0:0:0:
441,305,11987,2,0,P|381:296|317:287,1,93.5000028533936,8|0,0:0|3:0,0:0:0:0:
211,121,12303,1,8,3:0:0:0:
211,121,12381,1,8,3:0:0:0:
211,121,12460,1,8,3:0:0:0:
190,379,12618,2,0,P|250:370|303:362,1,93.5000028533936,8|8,0:0|3:0,0:0:0:0:
464,195,12934,5,14,0:2:0:0:
266,247,13092,1,0,3:0:0:0:
434,384,13250,2,0,P|448:331|464:282,1,93.5000028533936,10|0,2:0|3:0,2:0:0:0:
323,103,13566,2,0,P|336:148|355:207,1,93.5000028533936,10|0,0:0|3:0,0:0:0:0:
146,293,13881,2,0,P|158:248|171:204,1,93.5000028533936,10|0,0:0|3:0,0:0:0:0:
430,100,14197,5,10,0:0:0:0:
206,30,14355,1,0,3:0:0:0:
307,231,14513,2,0,P|350:215|394:199,1,93.5000028533936,10|0,0:0|3:0,0:0:0:0:
145,115,14829,2,0,P|98:101|53:89,1,93.5000028533936,10|0,0:0|3:0,0:0:0:0:
304,0,15145,2,0,P|316:48|327:95,1,93.5000028533936,10|0,0:0|3:0,0:0:0:0:
154,384,15460,6,0,P|88:304|16:334,1,187.000005706787,10|8,0:0|0:0,0:0:0:0:
244,289,15934,1,0,3:0:0:0:
2,206,16092,2,0,B|107:153|81:272|204:208,1,187.000005706787,10|8,0:0|0:0,0:0:0:0:
321,175,16566,1,0,3:0:0:0:
220,0,16724,6,0,P|146:49|158:155,1,187.000005706787,10|8,0:0|0:0,0:0:0:0:
321,175,17197,1,0,3:0:0:0:
228,93,17355,2,0,P|273:83|319:74,1,93.5000028533936,10|0,0:0|3:0,0:0:0:0:
506,202,17671,2,0,P|444:190|400:181,1,93.5000028533936,14|0,0:2|3:0,0:0:0:0:
136,351,17987,6,0,P|126:305|114:259,1,93.5000028533936,14|0,0:2|3:0,0:0:0:0:
247,137,18303,1,8,0:0:0:0:
254,325,18460,1,0,3:0:0:0:
41,156,18618,6,0,P|86:147|132:137,1,93.5000028533936,10|0,0:0|3:0,0:0:0:0:
353,57,18934,1,8,0:0:0:0:
212,230,19092,1,0,3:0:0:0:
433,296,19250,6,0,P|420:251|408:205,1,93.5000028533936,14|0,0:0|3:0,0:0:0:0:
226,39,19566,1,8,0:0:0:0:
215,264,19724,1,0,3:0:0:0:
362,100,19881,6,0,P|316:114|272:126,1,93.5000028533936,10|0,0:0|3:0,0:0:0:0:
62,258,20197,1,8,0:0:0:0:
136,81,20355,1,0,3:0:0:0:
383,350,20513,6,0,P|338:336|292:324,1,93.5000028533936,14|0,0:0|3:0,0:0:0:0:
60,225,20829,2,0,P|104:212|148:199,1,93.5000028533936,8|0,0:0|3:0,0:0:0:0:
350,219,21145,1,8,3:0:0:0:
194,101,21303,1,4,3:0:0:0:
370,100,21460,1,0,3:0:0:0:
235,357,21618,6,0,P|240:309|251:200,1,140.25000428009,12|0,0:2|0:0,0:0:0:0:
256,180,21934,1,0,3:0:0:0:
410,292,22092,1,8,0:0:0:0:
139,245,22250,1,0,3:0:0:0:
389,76,22408,1,8,0:0:0:0:
339,364,22566,1,0,3:0:0:0:
47,229,22881,1,2,0:0:0:0:
47,229,23039,6,0,B|103:218|154:207|154:207|188:245,1,152.999995330811,6|8,3:2|0:0,0:0:0:0:
281,147,23513,1,2,0:0:0:0:
322,322,23671,2,0,P|284:315|247:307,1,76.4999976654053,2|2,0:0|3:2,0:0:0:0:
365,210,23987,1,2,0:0:0:0:
177,79,24145,6,0,P|185:151|190:241,1,152.999995330811,10|2,0:2|3:2,0:0:0:0:
14,146,24618,2,0,P|52:149|90:153,1,76.4999976654053,8|0,0:0|0:0,0:0:0:0:
279,169,24934,1,0,0:0:0:0:
93,246,25092,1,0,3:0:0:0:
182,307,25250,2,0,P|186:269|189:230,1,76.4999976654053,8|2,0:0|0:0,0:0:0:0:
360,73,25566,6,0,P|369:110|380:146,1,76.4999976654053,2|0,3:2|0:0,0:0:0:0:
274,282,25881,1,10,0:0:0:0:
453,237,26039,1,2,0:0:0:0:
279,169,26197,1,2,0:0:0:0:
360,355,26355,2,0,P|416:341|453:334,1,76.4999976654053,2|0,3:2|0:0,0:0:0:0:
181,278,26671,6,0,P|195:334|202:371,1,76.4999976654053,10|0,0:0|0:0,0:0:0:0:
365,232,26987,2,0,P|372:194|382:157,1,76.4999976654053,2|8,3:2|0:0,0:0:0:0:
150,177,27303,1,2,0:2:0:0:
268,267,27460,1,0,0:0:0:0:
296,95,27618,2,0,P|286:131|278:169,1,76.4999976654053,2|8,3:2|0:0,0:0:0:0:
219,15,27934,1,2,0:0:0:0:
116,124,28092,6,0,P|169:116|214:108,1,76.4999976654053,0|0,3:2|0:0,0:0:0:0:
405,12,28408,2,0,P|352:4|307:-4,1,76.4999976654053,8|0,0:0|0:0,0:0:0:0:
116,124,28724,2,0,P|169:116|214:108,1,76.4999976654053,0|0,0:0|3:0,0:0:0:0:
381,223,29039,1,2,0:0:0:0:
204,255,29197,1,8,0:0:0:0:
306,101,29355,6,0,P|299:138|294:176,1,76.4999976654053,2|0,0:0|3:0,0:0:0:0:
483,254,29671,2,0,P|478:216|471:178,1,76.4999976654053,10|0,0:0|0:0,0:0:0:0:
337,346,29987,2,0,P|374:337|410:327,1,76.4999976654053,2|0,0:2|3:0,0:0:0:0:
306,101,30303,2,0,P|299:138|294:176,1,76.4999976654053,10|0,0:0|0:0,0:0:0:0:
80,315,30618,6,0,B|169:280|137:360|239:326,1,152.999995330811,2|8,3:2|0:0,0:0:0:0:
340,244,31092,1,0,0:0:0:0:
191,161,31250,2,0,P|200:211|209:267,1,76.4999976654053,0|0,3:0|3:0,0:0:0:0:
340,154,31566,1,10,0:0:0:0:
218,77,31724,1,2,3:2:0:0:
273,286,31881,6,0,P|310:279|348:272,1,76.4999976654053,2|2,3:2|3:2,0:0:0:0:
458,175,32197,1,0,0:0:0:0:
508,309,32355,1,0,3:0:0:0:
458,175,32513,2,0,P|448:211|438:249,1,76.4999976654053,0|0,0:0|3:0,0:0:0:0:
236,371,32829,1,12,0:2:0:0:
303,202,32987,1,2,0:0:0:0:
478,380,33145,6,0,P|407:372|323:363,1,152.999995330811,6|8,3:2|0:0,0:0:0:0:
227,262,33618,1,2,0:0:0:0:
376,164,33776,1,2,0:0:0:0:
408,330,33934,1,2,3:2:0:0:
285,177,34092,1,2,0:0:0:0:
468,137,34250,6,0,P|473:174|480:212,1,76.4999976654053,10|0,0:2|0:0,0:0:0:0:
386,83,34566,1,2,3:2:0:0:
329,262,34724,2,0,P|366:252|402:242,1,76.4999976654053,8|0,0:0|0:0,0:0:0:0:
310,96,35039,2,0,P|272:90|234:83,1,76.4999976654053,0|0,0:0|3:0,0:0:0:0:
133,203,35355,1,8,0:0:0:0:
101,61,35513,1,2,0:0:0:0:
224,218,35671,6,0,P|216:255|208:292,1,76.4999976654053,2|0,3:2|0:0,0:0:0:0:
62,354,35987,1,10,0:0:0:0:
133,203,36145,1,2,0:0:0:0:
185,364,36303,1,2,0:0:0:0:
40,255,36460,2,0,P|33:217|27:179,1,76.4999976654053,2|0,3:2|0:0,0:0:0:0:
219,52,36776,6,0,P|212:89|206:127,1,76.4999976654053,10|0,0:0|0:0,0:0:0:0:
129,298,37092,1,2,3:2:0:0:
90,131,37250,1,10,0:0:0:0:
223,217,37408,2,0,P|265:208|302:201,1,76.4999976654053,2|0,0:2|0:0,0:0:0:0:
420,251,37724,1,2,3:2:0:0:
284,114,37881,2,0,P|326:120|363:125,1,76.4999976654053,8|0,0:0|0:0,0:0:0:0:
240,357,38197,6,0,P|212:302|112:311,1,152.999995330811,2|8,3:2|0:0,0:0:0:0:
1,370,38671,1,0,0:0:0:0:
10,197,38829,2,0,P|21:233|33:269,1,76.4999976654053,0|0,0:0|3:0,0:0:0:0:
192,248,39145,1,2,0:0:0:0:
142,90,39303,6,0,P|130:126|118:162,1,76.4999976654053,10|0,0:0|0:0,0:0:0:0:
239,52,39618,1,0,3:0:0:0:
303,170,39776,2,0,P|265:160|228:152,1,76.4999976654053,8|0,0:0|0:0,0:0:0:0:
91,366,40092,2,0,B|151:352|197:339|197:339|231:381,1,152.999995330811,2|8,0:2|0:0,0:0:0:0:
192,248,40566,1,0,0:0:0:0:
341,334,40724,6,0,P|350:279|359:234,1,76.4999976654053,2|0,3:2|0:0,0:0:0:0:
153,83,41039,2,0,P|159:120|165:158,1,76.4999976654053,8|0,0:0|0:0,0:0:0:0:
370,97,41355,2,0,P|332:103|294:109,1,76.4999976654053,0|0,3:0|3:0,0:0:0:0:
192,248,41671,1,10,0:0:0:0:
356,178,41829,1,2,3:2:0:0:
153,83,41987,5,14,0:0:0:0:
182,265,42145,1,0,3:0:0:0:
294,109,42303,1,0,3:0:0:0:
158,347,42460,5,8,0:0:0:0:
339,193,42618,1,2,3:2:0:0:
110,162,42776,1,0,3:0:0:0:
283,352,42934,6,0,P|288:307|293:260,1,76.4999976654053,14|0,0:2|0:0,0:0:0:0:
416,132,43250,6,0,P|358:97|293:108,1,136,6|2,3:2|0:0,0:0:0:0:
196,83,43724,1,2,3:2:0:0:
339,193,43881,1,8,0:0:0:0:
208,248,44039,1,2,0:0:0:0:
211,252,44197,2,0,P|216:212|223:178,1,68,2|8,3:2|0:0,0:0:0:0:
293,293,44513,5,0,3:0:0:0:
126,358,44671,2,0,P|120:318|113:284,1,68,8|0,0:0|0:0,0:0:0:0:
221,184,44987,1,2,3:2:0:0:
44,121,45145,2,0,P|37:154|32:188,1,68,10|0,0:0|3:0,0:0:0:0:
175,80,45460,2,0,P|170:46|164:13,1,68,2|0,0:0|0:0,0:0:0:0:
154,196,45776,6,0,P|204:186|234:181,1,68,2|8,3:2|0:0,0:0:0:0:
288,86,46092,1,2,0:0:0:0:
355,254,46250,1,2,3:2:0:0:
355,254,46408,2,0,P|305:244|275:239,1,68,8|0,0:0|0:0,0:0:0:0:
401,94,46724,2,0,P|406:127|413:160,1,68,2|8,3:2|0:0,0:0:0:0:
337,345,47039,5,0,3:0:0:0:
455,256,47197,1,8,0:0:0:0:
497,357,47355,2,0,P|463:351|430:344,1,68,2|0,0:0|3:0,0:0:0:0:
221,254,47671,2,0,P|254:248|287:241,1,68,10|0,0:0|0:0,0:0:0:0:
477,347,47987,2,0,P|443:341|410:334,1,68,2|0,3:2|0:0,0:0:0:0:
233,161,48303,6,0,P|254:116|342:114,1,136,12|2,0:0|3:2,0:0:0:0:
143,341,48934,2,0,P|127:250|115:191,1,136,8|2,0:0|3:2,0:0:0:0:
332,107,49566,2,0,P|318:173|307:240,1,136,8|2,0:0|3:2,0:0:0:0:
39,105,50197,2,0,B|89:93|132:83|132:83|166:119,1,136,10|2,0:0|3:2,0:0:0:0:
378,278,50829,6,0,P|335:320|255:302,1,136,14|0,0:0|0:0,0:0:0:0:
207,208,51303,1,2,3:2:0:0:
460,226,51460,2,0,P|456:282|447:373,1,136,10|0,0:0|3:2,0:0:0:0:
307,237,51934,1,2,0:0:0:0:
368,124,52092,6,0,P|374:159|382:204,1,68,10|0,0:0|0:0,0:0:0:0:
240,132,52408,1,2,3:2:0:0:
388,30,52566,1,2,3:2:0:0:
194,43,52724,2,0,P|227:37|261:33,1,68,10|0,0:0|0:0,0:0:0:0:
171,196,53039,2,0,P|137:190|103:186,1,68,2|0,3:2|0:0,0:0:0:0:
64,32,53355,6,0,P|73:99|83:166,1,136,6|2,3:2|0:0,0:0:0:0:
189,287,53829,1,2,3:2:0:0:
71,269,53987,1,8,0:0:0:0:
171,196,54145,1,2,0:0:0:0:
219,377,54303,2,0,P|264:372|294:369,1,68,2|8,0:0|0:0,0:0:0:0:
292,192,54618,5,0,3:2:0:0:
396,316,54776,2,0,P|392:282|389:248,1,68,8|0,0:0|0:0,0:0:0:0:
338,82,55091,1,2,3:2:0:0:
494,154,55250,2,0,P|460:150|426:146,1,68,10|0,0:0|0:0,0:0:0:0:
259,108,55566,2,0,P|292:104|326:100,1,68,2|8,0:0|0:0,0:0:0:0:
137,11,55881,6,0,P|133:52|130:85,1,68,2|8,3:2|0:0,0:0:0:0:
218,178,56197,1,2,0:0:0:0:
30,64,56355,2,0,P|40:103|48:135,1,68,2|8,3:2|0:0,0:0:0:0:
259,108,56671,1,2,0:0:0:0:
96,266,56829,2,0,P|104:233|113:200,1,68,2|0,0:0|0:0,0:0:0:0:
270,100,57145,5,0,3:0:0:0:
47,129,57303,1,8,0:0:0:0:
197,262,57460,2,0,P|229:253|262:244,1,68,2|0,0:0|3:0,0:0:0:0:
423,94,57776,2,0,P|414:126|405:159,1,68,10|0,0:0|0:0,0:0:0:0:
365,296,58092,2,0,P|356:263|347:230,1,68,2|0,3:2|0:0,0:0:0:0:
276,54,58408,1,12,0:0:0:0:
160,183,58566,5,2,0:0:0:0:
325,128,58724,1,2,3:2:0:0:
172,42,58881,2,0,P|181:74|192:106,1,68,2|8,0:0|0:0,0:0:0:0:
74,276,59197,5,2,0:0:0:0:
274,232,59355,1,2,3:2:0:0:
174,344,59513,2,0,P|167:311|161:278,1,68,2|8,3:2|0:0,0:0:0:0:
417,112,59829,5,2,0:0:0:0:
162,191,59987,1,2,3:2:0:0:
406,287,60145,2,0,P|413:253|419:220,1,68,2|8,0:0|0:0,0:0:0:0:
159,109,60460,5,2,0:0:0:0:
301,333,60618,1,2,3:2:0:0:
331,74,60776,1,2,0:0:0:0:
75,302,60934,6,0,P|88:136|297:167,1,425,14|0,0:2|0:0,0:0:0:0:
435,66,62671,1,2,3:2:0:0:
435,66,62750,1,0,3:2:0:0:
435,66,62829,5,10,0:0:0:0:
153,190,62987,1,8,0:0:0:0:
459,254,63145,1,8,3:0:0:0:
459,254,63460,6,0,P|402:245|350:237,1,101.999996887207,14|0,0:2|3:0,0:0:0:0:
190,372,63776,1,8,0:0:0:0:
367,324,63934,1,0,3:0:0:0:
164,197,64092,2,0,P|156:247|148:297,1,101.999996887207,10|0,0:0|3:0,0:0:0:0:
350,158,64408,2,0,P|342:107|334:57,1,101.999996887207,8|0,0:0|3:0,0:0:0:0:
90,104,64724,5,10,0:0:0:0:
271,232,64881,1,0,3:0:0:0:
47,285,65039,1,8,0:0:0:0:
187,44,65197,1,0,3:0:0:0:
302,336,65355,2,0,P|253:328|201:321,1,101.999996887207,10|0,0:0|3:0,0:0:0:0:
0,198,65671,2,0,P|49:190|101:183,1,101.999996887207,10|0,0:0|3:0,0:0:0:0:
285,38,65987,6,0,P|275:100|267:154,1,101.999996887207,10|0,0:0|3:0,0:0:0:0:
482,50,66303,1,10,0:0:0:0:
378,255,66460,2,0,P|370:204|361:154,1,101.999996887207,2|8,3:2|0:0,0:0:0:0:
163,284,66776,2,0,P|213:276|263:267,1,101.999996887207,2|8,3:2|0:0,0:0:0:0:
81,161,67092,1,2,3:2:0:0:
198,57,67250,6,0,P|188:119|180:173,1,101.999996887207,8|0,0:0|3:0,0:0:0:0:
28,335,67566,2,0,P|20:284|12:234,1,101.999996887207,8|0,0:0|3:0,0:0:0:0:
182,157,67881,1,10,0:2:0:0:
122,362,68039,1,2,3:2:0:0:
59,157,68197,1,10,0:2:0:0:
250,277,68355,1,2,3:2:0:0:
44,50,68513,6,0,P|34:112|26:166,1,101.999996887207,10|0,0:2|3:0,0:0:0:0:
269,129,68829,1,10,0:0:0:0:
59,252,68987,2,0,P|121:242|175:234,1,101.999996887207,2|8,3:2|0:0,0:0:0:0:
401,367,69303,2,0,P|339:357|285:349,1,101.999996887207,2|8,3:2|0:0,0:0:0:0:
159,236,69618,1,2,3:2:0:0:
364,115,69776,6,0,P|314:46|198:70,1,203.999993774414,8|10,0:0|0:0,0:0:0:0:
257,231,70250,1,0,3:0:0:0:
474,143,70408,2,0,P|467:86|459:27,1,101.999996887207,10|0,0:0|3:0,0:0:0:0:
269,129,70724,2,0,P|262:179|256:230,1,101.999996887207,10|0,0:0|3:0,0:0:0:0:
467,278,71039,6,0,P|416:271|365:265,1,101.999996887207,10|0,0:0|3:0,0:0:0:0:
269,129,71355,1,10,0:0:0:0:
172,357,71513,2,0,P|222:350|273:344,1,101.999996887207,2|8,3:2|0:0,0:0:0:0:
460,192,71829,2,0,P|409:185|358:179,1,101.999996887207,2|8,3:2|0:0,0:0:0:0:
162,244,72145,1,2,3:2:0:0:
269,129,72303,6,0,P|275:179|281:230,1,101.999996887207,10|0,0:2|3:0,0:0:0:0:
46,151,72618,2,0,P|52:100|58:49,1,101.999996887207,8|0,0:0|3:0,0:0:0:0:
162,244,72934,1,10,0:0:0:0:
269,129,73092,1,2,3:2:0:0:
324,300,73250,1,10,0:0:0:0:
170,131,73408,1,2,3:2:0:0:
115,384,73566,6,0,P|170:377|227:370,1,101.999996887207,12|0,0:0|3:0,0:0:0:0:
340,188,73881,1,8,0:0:0:0:
157,265,74039,1,0,3:0:0:0:
420,362,74197,2,0,P|365:355|308:348,1,101.999996887207,10|0,0:0|3:0,0:0:0:0:
373,100,74513,1,8,0:0:0:0:
499,286,74671,1,0,3:0:0:0:
236,315,74829,6,0,P|243:260|250:203,1,101.999996887207,14|0,0:0|3:2,0:0:0:0:
123,383,75145,1,10,0:0:0:0:
0,253,75303,2,0,P|65:246|117:240,1,101.999996887207,2|8,3:2|0:0,0:0:0:0:
222,81,75618,2,0,P|157:74|105:68,1,101.999996887207,2|8,3:2|0:0,0:0:0:0:
233,201,75934,1,2,3:2:0:0:
318,0,76092,6,0,P|325:55|331:106,1,101.999996887207,12|0,0:0|3:0,0:0:0:0:
440,286,76408,2,0,P|445:235|452:184,1,101.999996887207,8|0,0:0|3:0,0:0:0:0:
233,294,76724,5,10,0:0:0:0:
363,256,76881,1,0,3:0:0:0:
163,175,77039,5,8,0:0:0:0:
351,270,77197,1,0,3:0:0:0:
141,359,77355,5,14,0:0:0:0:
300,108,77513,1,0,3:0:0:0:
344,357,77671,5,8,0:0:0:0:
208,87,77829,1,0,3:0:0:0:
261,374,77987,5,10,0:0:0:0:
368,52,78145,1,0,3:0:0:0:
427,359,78303,5,8,0:0:0:0:
300,108,78460,1,2,3:2:0:0:
186,289,78618,6,0,P|83:281|-7:273,1,187.000005706787,4|8,3:2|3:0,0:0:0:0:
111,188,79092,1,0,3:0:0:0:
167,381,79250,2,0,P|223:376|280:371,1,93.5000028533936,8|0,0:0|0:0,0:0:0:0:
327,223,79566,2,0,P|270:218|213:213,1,93.5000028533936,0|0,3:0|0:0,0:0:0:0:
358,344,79881,5,0,3:0:0:0:
411,179,80039,1,8,0:0:0:0:
486,334,80197,1,8,3:0:0:0:
320,239,80355,1,0,3:0:0:0:
505,143,80513,2,0,P|493:199|484:255,1,93.5000028533936,8|0,0:0|0:0,0:0:0:0:
379,81,80829,2,0,P|389:126|397:172,1,93.5000028533936,2|0,3:2|0:0,0:0:0:0:
215,307,81145,6,0,P|223:260|233:215,1,93.5000028533936,10|0,0:0|3:2,0:0:0:0:
289,64,81460,2,0,P|297:110|307:155,1,93.5000028533936,10|0,0:2|3:0,0:0:0:0:
123,214,81776,1,2,0:0:0:0:
202,34,81934,2,0,P|201:80|203:127,1,93.5000028533936,2|8,3:2|0:0,0:0:0:0:
24,209,82250,1,2,0:0:0:0:
253,335,82408,6,0,P|162:312|71:291,1,187.000005706787,8|2,0:0|3:2,0:0:0:0:
234,135,82881,1,10,0:0:0:0:
234,135,83197,2,0,L|244:180,1,46.7500014266968,2|0,3:2|3:0,0:0:0:0:
343,168,83355,6,0,P|333:213|326:259,1,93.5000028533936,8|0,0:0|0:0,0:0:0:0:
17,128,83671,6,0,P|78:52|166:76,1,187.000005706787,6|8,3:2|0:0,0:0:0:0:
214,213,84145,1,0,0:0:0:0:
108,137,84303,2,0,P|102:184|97:230,1,93.5000028533936,2|0,3:2|0:0,0:0:0:0:
327,119,84618,2,0,P|320:68|314:17,1,93.5000028533936,10|0,0:0|0:0,0:0:0:0:
207,226,84934,6,0,B|286:208|331:198|331:198|389:263,1,187.000005706787,2|8,3:2|0:0,0:0:0:0:
491,323,85408,1,0,0:0:0:0:
313,384,85566,2,0,P|304:328|293:276,1,93.5000028533936,2|0,3:2|0:0,0:0:0:0:
507,104,85881,2,0,P|495:159|488:206,1,93.5000028533936,10|0,0:0|0:0,0:0:0:0:
319,33,86197,6,0,P|364:24|420:16,1,93.5000028533936,2|0,3:2|0:0,0:0:0:0:
288,191,86513,1,10,0:0:0:0:
206,0,86671,2,0,P|197:45|189:107,1,93.5000028533936,2|0,0:0|3:0,0:0:0:0:
18,170,86987,2,0,P|10:123|-1:68,1,93.5000028533936,2|8,0:0|0:0,0:0:0:0:
212,218,87303,1,2,0:0:0:0:
74,296,87460,6,0,P|81:249|90:204,1,93.5000028533936,0|0,3:0|0:0,0:0:0:0:
285,115,87776,2,0,P|294:160|301:206,1,93.5000028533936,8|0,0:0|0:0,0:0:0:0:
126,133,88092,1,2,3:2:0:0:
298,287,88250,1,2,0:0:0:0:
199,80,88408,1,10,0:0:0:0:
149,316,88566,1,2,0:0:0:0:
423,55,88724,6,0,P|353:44|298:34,1,93.5000028533936,6|0,3:2|0:0,0:0:0:0:
199,80,89039,1,10,0:2:0:0:
499,214,89197,2,0,B|395:181|428:274|325:246,1,187.000005706787,2|2,0:2|0:0,0:0:0:0:
214,73,89671,1,8,0:0:0:0:
122,276,89829,1,2,0:0:0:0:
342,156,89987,6,0,P|260:169|218:177,1,93.5000028533936,0|0,3:2|0:0,0:0:0:0:
96,301,90303,2,0,P|178:314|216:323,1,93.5000028533936,10|0,0:0|0:0,0:0:0:0:
103,57,90618,2,0,P|90:139|81:177,1,93.5000028533936,2|0,3:2|0:0,0:0:0:0:
322,338,90934,2,0,P|311:286|304:234,1,93.5000028533936,10|0,0:0|0:0,0:0:0:0:
494,127,91250,6,0,P|419:189|320:132,1,187.000005706787,2|10,3:2|0:2,0:0:0:0:
425,0,91724,2,0,P|417:49|409:103,1,93.5000028533936,2|0,0:0|3:0,0:0:0:0:
255,219,92039,2,0,P|247:173|237:114,1,93.5000028533936,2|8,0:0|0:0,0:0:0:0:
329,30,92355,1,10,0:2:0:0:
361,254,92513,5,2,3:2:0:0:
223,104,92671,1,8,0:0:0:0:
223,104,92750,1,8,0:0:0:0:
223,104,92829,1,0,3:0:0:0:
148,298,92987,1,8,0:0:0:0:
148,298,93066,1,8,0:0:0:0:
148,298,93145,5,2,3:2:0:0:
330,169,93303,1,10,0:2:0:0:
330,169,93381,1,8,0:0:0:0:
330,169,93460,2,0,P|295:163|269:157,1,46.7500014266968,10|8,3:2|0:0,0:0:0:0:
79,200,93618,2,0,P|103:205|129:209,1,46.7500014266968,10|8,0:2|0:0,0:0:0:0:
440,353,93776,6,0,B|362:334|319:323|319:323|276:368,1,187.000005706787,6|8,3:2|0:0,0:0:0:0:
209,185,94250,1,0,0:0:0:0:
394,304,94408,2,0,P|410:247|424:191,1,93.5000028533936,2|0,3:2|0:0,0:0:0:0:
181,59,94724,2,0,P|196:108|209:157,1,93.5000028533936,8|0,0:0|0:0,0:0:0:0:
431,82,95039,6,0,P|380:85|329:91,1,93.5000028533936,2|0,3:2|0:0,0:0:0:0:
169,44,95355,1,10,0:2:0:0:
390,196,95513,2,0,P|339:199|288:205,1,93.5000028533936,2|0,0:2|3:0,0:0:0:0:
92,317,95829,2,0,P|142:320|193:326,1,93.5000028533936,2|8,0:0|0:0,0:0:0:0:
332,288,96145,1,2,0:0:0:0:
131,113,96303,6,0,P|142:170|150:227,1,93.5000028533936,0|0,3:0|0:0,0:0:0:0:
316,116,96618,2,0,P|323:65|333:15,1,93.5000028533936,8|0,0:0|0:0,0:0:0:0:
494,235,96934,2,0,P|443:227|393:217,1,93.5000028533936,2|0,3:2|0:0,0:0:0:0:
217,147,97250,1,8,0:0:0:0:
454,67,97408,1,0,0:0:0:0:
298,307,97566,6,0,P|286:218|282:180,1,93.5000028533936,2|0,3:2|0:0,0:0:0:0:
99,11,97881,2,0,P|92:61|85:112,1,93.5000028533936,8|0,0:0|0:0,0:0:0:0:
185,317,98197,1,2,3:2:0:0:
306,115,98355,1,8,0:0:0:0:
183,225,98513,1,8,0:0:0:0:
383,135,98671,1,2,0:2:0:0:
83,264,98829,5,14,0:2:0:0:
296,193,98987,1,0,3:0:0:0:
101,100,99145,1,0,3:0:0:0:
261,350,99303,5,10,0:0:0:0:
274,114,99460,1,0,3:0:0:0:
83,264,99618,1,0,3:0:0:0:
346,346,99776,5,10,0:0:0:0:
197,99,99934,1,0,3:0:0:0:
396,261,100092,5,10,0:0:0:0:
172,196,100250,1,0,3:0:0:0:
397,93,100408,1,0,3:0:0:0:
298,337,100566,5,10,0:0:0:0:
207,112,100724,1,0,3:0:0:0:
446,191,100881,1,0,3:0:0:0:
172,307,101039,5,10,0:0:0:0:
381,242,101197,1,0,3:0:0:0:
129,116,101355,6,0,P|135:155|142:208,1,93.5000028533936,14|0,0:0|0:0,0:0:0:0:
292,67,101671,1,2,3:2:0:0:
353,325,101829,2,0,P|359:278|366:232,1,93.5000028533936,10|2,0:2|3:2,0:0:0:0:
292,67,102145,1,2,0:0:0:0:
174,294,102303,2,0,P|219:283|265:272,1,93.5000028533936,8|2,0:0|0:0,0:0:0:0:
450,171,102618,6,0,P|404:160|358:149,1,93.5000028533936,0|0,3:2|0:0,0:0:0:0:
107,116,102934,1,8,3:2:0:0:
107,116,103013,1,0,3:2:0:0:
107,116,103092,2,0,P|115:152|120:180,1,46.7500014266968,0|0,3:2|3:0,0:0:0:0:
79,366,103250,5,8,3:2:0:0:
82,328,103329,1,8,0:0:0:0:
106,299,103408,1,8,0:0:0:0:
141,287,103487,1,8,0:0:0:0:
178,297,103566,1,8,3:2:0:0:
195,315,103645,1,8,0:0:0:0:
218,326,103724,1,8,0:0:0:0:
244,327,103803,1,8,0:0:0:0:
267,318,103881,6,0,P|274:267|282:210,1,93.5000028533936,6|0,3:2|3:0,0:0:0:0:
435,90,104197,2,0,P|441:136|447:182,1,93.5000028533936,10|0,0:0|3:0,0:0:0:0:
204,151,104513,1,10,0:0:0:0:
343,26,104671,1,0,3:0:0:0:
366,265,104829,2,0,P|359:214|351:157,1,93.5000028533936,10|0,0:0|3:0,0:0:0:0:
167,46,105145,6,0,P|213:53|259:59,1,93.5000028533936,10|0,0:0|3:0,0:0:0:0:
45,178,105460,2,0,P|38:127|30:70,1,93.5000028533936,10|0,0:0|3:0,0:0:0:0:
209,240,105776,2,0,P|202:291|194:348,1,93.5000028533936,10|0,0:0|3:0,0:0:0:0:
35,168,106092,2,0,P|28:117|20:60,1,93.5000028533936,10|0,0:0|3:0,0:0:0:0:
293,185,106408,6,0,B|360:168|425:152|425:152|461:205,1,187.000005706787,10|8,0:0|0:0,0:0:0:0:
259,92,106881,1,0,3:0:0:0:
209,240,107039,1,8,0:0:0:0:
303,20,107197,1,0,3:0:0:0:
303,20,107276,1,0,3:0:0:0:
303,20,107355,6,0,P|346:69|292:169,1,187.000005706787,10|8,0:0|0:0,0:0:0:0:
116,225,107829,1,0,3:0:0:0:
204,71,107987,2,0,P|216:124|228:179,1,93.5000028533936,8|0,0:0|3:0,0:0:0:0:
479,125,108303,2,0,P|433:114|387:104,1,93.5000028533936,10|0,0:0|3:0,0:0:0:0:
264,261,108618,2,0,P|309:250|355:240,1,93.5000028533936,10|0,0:0|3:0,0:0:0:0:
128,132,108934,6,0,P|120:185|113:241,1,93.5000028533936,14|0,0:2|3:0,0:0:0:0:
276,353,109250,2,0,P|269:306|263:260,1,93.5000028533936,10|0,0:0|3:0,0:0:0:0:
115,224,109566,1,10,0:0:0:0:
191,384,109724,1,0,3:0:0:0:
299,182,109881,2,0,P|252:175|206:169,1,93.5000028533936,10|0,0:0|3:0,0:0:0:0:
447,0,110197,6,0,P|451:46|455:93,1,93.5000028533936,14|0,0:2|3:0,0:0:0:0:
299,182,110513,2,0,P|302:135|307:88,1,93.5000028533936,10|0,0:0|3:0,0:0:0:0:
414,258,110829,1,10,0:0:0:0:
455,93,110987,1,0,3:0:0:0:
318,275,111145,2,0,P|271:270|224:266,1,93.5000028533936,10|0,0:0|3:0,0:0:0:0:
74,46,111460,6,0,P|82:92|91:138,1,93.5000028533936,14|0,0:2|3:0,0:0:0:0:
331,262,111776,2,0,P|339:215|348:170,1,93.5000028533936,14|0,0:2|3:0,0:0:0:0:
221,47,112092,1,10,0:2:0:0:
150,259,112250,1,2,3:2:0:0:
241,37,112408,1,2,3:2:0:0:
422,315,112566,6,0,P|357:306|296:301,1,93.5000028533936,14|0,0:2|0:0,0:0:0:0:
231,188,112881,1,0,3:0:0:0:
145,384,113039,2,0,P|210:375|271:370,1,93.5000028533936,8|0,0:0|3:0,0:0:0:0:
39,222,113355,1,8,3:0:0:0:
55,191,113433,1,8,3:0:0:0:
85,174,113512,1,8,3:0:0:0:
119,176,113591,1,8,3:0:0:0:
147,197,113671,2,0,P|156:262|161:323,1,93.5000028533936,0|8,3:0|3:0,0:0:0:0:
414,135,113987,5,14,0:2:0:0:
202,97,114145,1,0,3:0:0:0:
315,279,114303,2,0,P|319:232|326:186,1,93.5000028533936,10|0,0:0|3:0,0:0:0:0:
137,25,114618,2,0,P|183:18|229:13,1,93.5000028533936,10|0,0:0|3:0,0:0:0:0:
326,186,114934,2,0,P|279:179|233:174,1,93.5000028533936,10|0,0:0|3:0,0:0:0:0:
103,287,115250,5,10,0:0:0:0:
287,102,115408,1,0,3:0:0:0:
90,113,115566,2,0,P|100:158|109:204,1,93.5000028533936,10|0,0:0|3:0,0:0:0:0:
320,289,115881,2,0,P|328:243|339:197,1,93.5000028533936,10|0,0:0|3:0,0:0:0:0:
100,123,116197,2,0,P|110:168|119:214,1,93.5000028533936,10|0,0:0|3:0,0:0:0:0:
427,175,116513,6,0,P|367:102|271:140,1,187.000005706787,10|8,0:0|0:0,0:0:0:0:
119,214,116987,1,0,3:0:0:0:
323,383,117145,2,0,P|326:293|341:185,1,187.000005706787,10|8,0:0|0:0,0:0:0:0:
157,110,117618,1,0,3:0:0:0:
32,340,117776,6,0,B|102:323|162:307|162:307|215:361,1,187.000005706787,10|8,0:0|0:0,0:0:0:0:
338,196,118250,1,0,3:0:0:0:
157,110,118408,2,0,P|174:172|187:226,1,93.5000028533936,10|0,0:0|3:0,0:0:0:0:
338,308,118724,2,0,P|349:262|362:217,1,93.5000028533936,10|0,0:2|3:0,0:0:0:0:
83,39,119039,6,0,P|74:91|62:146,1,93.5000028533936,14|0,0:2|3:0,0:0:0:0:
268,157,119355,1,8,0:0:0:0:
88,215,119513,1,0,3:0:0:0:
248,332,119671,6,0,P|235:265|227:227,1,93.5000028533936,10|0,0:0|3:0,0:0:0:0:
466,136,119987,1,8,0:0:0:0:
237,78,120145,1,0,3:0:0:0:
425,6,120303,6,0,P|404:78|393:117,1,93.5000028533936,14|0,0:0|3:0,0:0:0:0:
310,256,120618,1,8,0:0:0:0:
224,58,120776,1,0,3:0:0:0:
407,244,120934,6,0,P|455:234|506:226,1,93.5000028533936,10|0,0:0|3:0,0:0:0:0:
327,86,121250,1,8,0:0:0:0:
253,314,121408,1,0,3:0:0:0:
337,76,121566,6,0,P|330:122|324:169,1,93.5000028533936,14|0,0:0|3:0,0:0:0:0:
114,238,121882,2,0,P|107:191|100:145,1,93.5000028533936,8|0,0:0|3:0,0:0:0:0:
336,255,122197,1,8,3:0:0:0:
215,186,122355,1,8,3:0:0:0:
327,271,122513,1,0,3:0:0:0:
32,329,122671,6,0,P|103:319|203:306,1,140.25000428009,12|0,0:2|0:0,0:0:0:0:
208,320,122987,1,0,3:0:0:0:
395,174,123145,1,8,0:0:0:0:
177,115,123303,1,0,3:0:0:0:
416,302,123460,1,8,0:0:0:0:
210,226,123618,1,0,3:0:0:0:
467,82,123934,1,2,0:0:0:0:
467,82,124092,6,0,L|302:65,1,152.999995330811,6|8,3:2|3:0,0:0:0:0:
210,124,124566,1,2,3:2:0:0:
336,217,124724,2,0,P|346:160|352:133,1,76.4999976654053,8|2,3:0|3:2,0:0:0:0:
269,286,125039,1,8,0:0:0:0:
178,217,125197,6,0,P|215:209|253:203,1,76.4999976654053,2|0,0:2|3:0,0:0:0:0:
188,320,125513,2,0,P|150:312|112:306,1,76.4999976654053,2|8,3:2|3:0,0:0:0:0:
61,239,125829,1,0,3:0:0:0:
0,384,125987,2,0,P|37:376|75:370,1,76.4999976654053,8|0,3:0|0:0,0:0:0:0:
178,217,126303,1,8,0:0:0:0:
14,302,126460,1,2,0:0:0:0:
34,88,126618,6,0,P|40:125|62:247,1,152.999995330811,2|8,3:2|3:0,0:0:0:0:
191,196,127092,1,2,3:2:0:0:
120,330,127250,2,0,P|157:321|194:314,1,76.4999976654053,8|2,3:0|0:2,0:0:0:0:
275,223,127566,2,0,P|237:214|200:207,1,76.4999976654053,10|2,0:0|0:0,0:0:0:0:
364,96,127881,5,14,0:2:0:0:
308,300,128039,1,2,3:2:0:0:
281,59,128197,5,12,0:2:0:0:
383,247,128355,1,2,3:2:0:0:
410,17,128513,5,12,0:0:0:0:
306,215,128671,1,2,3:2:0:0:
512,146,128829,2,0,P|473:142|435:138,1,76.4999976654053,12|2,0:0|0:0,0:0:0:0:
433,378,129145,6,0,P|439:341|446:303,1,76.4999976654053,4|0,3:2|0:0,0:0:0:0:
228,261,129460,2,0,P|265:253|303:246,1,76.4999976654053,8|0,0:0|0:0,0:0:0:0:
504,162,129776,2,0,P|438:149|407:143,1,76.4999976654053,0|0,0:0|3:0,0:0:0:0:
367,78,130092,1,2,0:0:0:0:
228,261,130250,6,0,P|218:185|210:109,1,152.999995330811,8|0,0:0|3:0,0:0:0:0:
64,200,130724,2,0,P|101:195|139:191,1,76.4999976654053,10|0,0:0|0:0,0:0:0:0:
312,169,131039,1,2,0:2:0:0:
132,100,131197,1,0,3:0:0:0:
295,12,131355,2,0,P|290:49|286:87,1,76.4999976654053,10|0,0:0|0:0,0:0:0:0:
329,296,131671,6,0,P|380:229|470:247,1,152.999995330811,2|8,3:2|0:0,0:0:0:0:
511,295,132145,1,0,0:0:0:0:
349,384,132303,2,0,P|303:376|267:368,1,76.4999976654053,0|0,3:0|3:0,0:0:0:0:
140,272,132618,1,10,0:0:0:0:
263,235,132776,1,2,3:2:0:0:
104,380,132934,6,0,P|150:372|186:364,1,76.4999976654053,6|2,3:2|0:0,0:0:0:0:
200,343,133171,1,2,0:0:0:0:
200,343,133250,1,2,0:0:0:0:
338,249,133408,2,0,P|292:241|256:233,1,76.4999976654053,0|8,3:0|3:0,0:0:0:0:
239,231,133645,1,2,0:2:0:0:
239,231,133724,1,2,0:0:0:0:
229,79,133881,1,8,0:2:0:0:
130,209,134039,1,2,0:0:0:0:
12,42,134197,6,0,B|71:30|122:21|122:21|156:52,1,152.999995330811,6|8,3:2|0:0,0:0:0:0:
239,231,134671,1,2,3:2:0:0:
239,231,134750,1,0,3:0:0:0:
239,231,134829,1,2,3:2:0:0:
89,118,134987,1,2,0:0:0:0:
94,279,135145,1,10,0:2:0:0:
220,119,135303,6,0,P|261:126|309:135,1,76.4999976654053,2|0,0:0|3:2,0:0:0:0:
401,35,135618,1,2,0:0:0:0:
447,220,135776,2,0,P|409:213|371:206,1,76.4999976654053,10|0,0:0|0:2,0:0:0:0:
242,212,136092,1,0,3:0:0:0:
396,130,136250,1,8,0:0:0:0:
306,295,136408,1,8,0:0:0:0:
221,128,136566,1,10,0:0:0:0:
221,128,136645,1,0,3:0:0:0:
221,128,136724,6,0,P|181:121|145:117,1,76.4999976654053,2|0,3:2|0:0,0:0:0:0:
76,283,137039,1,8,0:0:0:0:
251,219,137197,1,2,0:0:0:0:
92,185,137355,1,2,3:2:0:0:
211,348,137513,1,2,3:2:0:0:
211,348,137592,1,0,3:0:0:0:
211,348,137671,1,10,0:0:0:0:
339,184,137829,6,0,P|343:146|349:108,1,76.4999976654053,2|0,0:0|3:0,0:0:0:0:
260,50,138145,1,2,0:0:0:0:
251,219,138303,1,8,0:0:0:0:
425,85,138460,2,0,P|430:122|435:160,1,76.4999976654053,2|0,0:0|3:2,0:0:0:0:
248,133,138776,1,10,0:0:0:0:
362,30,138934,1,8,0:0:0:0:
157,0,139092,1,10,0:0:0:0:
157,0,139171,1,0,3:0:0:0:
157,0,139250,6,0,P|171:71|190:174,1,152.999995330811,0|8,3:2|0:0,0:0:0:0:
21,265,139724,1,0,0:0:0:0:
89,85,139881,2,0,P|83:120|75:172,1,76.4999976654053,0|0,3:0|0:0,0:0:0:0:
78,189,140118,1,0,3:0:0:0:
78,189,140197,1,10,0:0:0:0:
256,355,140355,6,0,P|245:317|236:280,1,76.4999976654053,2|0,0:0|3:0,0:0:0:0:
94,296,140671,1,0,0:0:0:0:
210,118,140829,2,0,P|200:155|190:191,1,76.4999976654053,8|0,0:0|0:0,0:0:0:0:
345,341,141145,1,2,3:2:0:0:
275,174,141303,1,8,0:0:0:0:
173,322,141460,1,8,0:0:0:0:
365,192,141618,1,8,0:0:0:0:
457,345,141776,6,0,P|464:290|471:245,1,76.4999976654053,2|0,3:2|0:0,0:0:0:0:
354,116,142092,2,0,P|359:153|364:191,1,76.4999976654053,8|0,0:0|0:0,0:0:0:0:
473,358,142408,2,0,P|480:302|487:257,1,76.4999976654053,0|0,3:2|0:0,0:0:0:0:
477,120,142724,1,10,0:0:0:0:
394,221,142881,1,2,3:2:0:0:
394,221,142960,1,0,3:0:0:0:
394,221,143039,6,0,P|338:213|293:206,1,76.4999976654053,2|0,3:2|0:0,0:0:0:0:
272,57,143355,1,10,0:0:0:0:
244,50,143434,1,8,0:0:0:0:
216,57,143513,1,8,0:0:0:0:
196,77,143592,1,8,0:0:0:0:
186,103,143671,6,0,P|191:137|197:159,1,38.2499988327027,10|8,0:0|0:0,0:0:0:0:
314,248,143829,1,8,0:0:0:0:
314,248,143908,1,8,0:0:0:0:
314,248,143987,2,0,L|319:210,1,38.2499988327027,10|8,0:0|0:0,0:0:0:0:
142,264,144145,2,0,L|147:301,1,38.2499988327027,8|8,0:0|0:0,0:0:0:0:
419,374,144303,6,0,P|352:362|284:351,1,136,4|2,3:2|0:2,0:0:0:0:
252,177,144776,1,2,3:2:0:0:
147,301,144934,2,0,P|179:295|213:289,1,68,0|2,0:0|0:2,0:0:0:0:
404,180,145250,2,0,P|371:174|337:168,1,68,10|0,0:2|0:0,0:0:0:0:
165,45,145566,6,0,P|169:77|175:111,1,68,0|0,3:0|0:0,0:0:0:0:
40,201,145881,1,0,0:0:0:0:
77,64,146039,1,0,3:0:0:0:
196,220,146197,2,0,P|148:210|118:204,1,68,2|0,0:0|0:0,0:0:0:0:
245,21,146513,2,0,P|247:54|250:88,1,68,10|0,0:0|0:0,0:0:0:0:
336,259,146829,6,0,P|341:225|348:192,1,68,2|0,3:2|0:0,0:0:0:0:
329,101,147145,1,2,0:0:0:0:
210,300,147303,2,0,P|207:266|204:232,1,68,2|0,3:2|0:0,0:0:0:0:
252,147,147618,1,2,0:0:0:0:
347,278,147776,6,0,B|428:256|406:319|498:289,1,136,10|0,0:0|3:0,0:0:0:0:
451,214,148250,1,0,0:0:0:0:
365,362,148408,2,0,P|342:359|286:351,1,68,2|0,0:0|3:0,0:0:0:0:
132,321,148724,1,2,0:0:0:0:
260,239,148881,1,8,0:0:0:0:
134,162,149039,2,0,P|144:212|153:254,1,68,10|0,0:0|0:0,0:0:0:0:
359,273,149355,6,0,P|368:217|388:131,1,136,8|2,0:0|3:2,0:0:0:0:
135,41,149987,2,0,P|150:107|161:174,1,136,8|2,0:0|3:2,0:0:0:0:
463,126,150618,2,0,P|412:67|336:79,1,136,8|2,0:0|3:2,0:0:0:0:
134,256,151250,2,0,P|199:250|238:196,1,136,8|2,0:0|3:2,0:0:0:0:
487,303,151881,6,0,B|398:280|445:345|333:312,1,136,10|0,0:2|0:0,0:0:0:0:
309,237,152355,1,2,0:0:0:0:
200,373,152513,2,0,P|152:379|105:297,1,136,2|0,0:0|0:0,0:0:0:0:
194,219,152987,1,2,3:2:0:0:
194,219,153066,1,0,3:0:0:0:
194,219,153145,6,0,P|185:266|181:304,1,68,14|0,0:2|0:0,0:0:0:0:
105,162,153460,1,2,0:0:0:0:
256,93,153618,1,2,0:2:0:0:
256,93,153697,1,2,0:0:0:0:
256,93,153776,2,0,P|264:140|268:178,1,68,2|0,0:0|0:0,0:0:0:0:
361,207,154092,2,0,P|354:240|350:274,1,68,2|0,0:0|0:0,0:0:0:0:
39,289,154408,6,0,B|95:275|140:263|140:263|184:297,1,152.999995330811,6|2,3:2|0:0,0:0:0:0:
302,358,154881,1,2,3:2:0:0:
234,229,155039,1,8,0:0:0:0:
203,371,155197,1,2,0:0:0:0:
349,283,155355,2,0,P|358:232|364:194,1,76.4999976654053,2|8,3:2|0:0,0:0:0:0:
247,131,155671,5,0,3:0:0:0:
380,109,155829,1,8,0:0:0:0:
234,229,155987,2,0,P|196:222|158:216,1,76.4999976654053,0|0,0:0|3:0,0:0:0:0:
7,153,156303,2,0,P|44:146|82:140,1,76.4999976654053,8|0,0:0|0:0,0:0:0:0:
56,303,156618,2,0,P|62:265|68:227,1,76.4999976654053,2|8,3:2|0:0,0:0:0:0:
160,50,156934,6,0,P|166:87|172:125,1,76.4999976654053,2|8,3:2|0:0,0:0:0:0:
319,179,157250,1,2,0:2:0:0:
221,304,157408,2,0,P|227:266|233:228,1,76.4999976654053,2|8,3:2|0:0,0:0:0:0:
288,92,157724,1,2,0:0:0:0:
323,295,157881,2,0,P|365:284|408:273,1,76.4999976654053,2|8,3:2|0:0,0:0:0:0:
227,150,158197,5,0,3:0:0:0:
221,304,158355,1,8,0:0:0:0:
390,195,158513,2,0,P|350:185|311:174,1,76.4999976654053,2|0,0:0|3:0,0:0:0:0:
139,93,158829,2,0,P|178:83|217:72,1,76.4999976654053,10|0,0:2|0:0,0:0:0:0:
400,205,159145,2,0,P|360:195|321:184,1,76.4999976654053,2|0,3:2|0:0,0:0:0:0:
126,261,159460,5,10,0:2:0:0:
237,174,159618,1,2,0:2:0:0:
108,252,159776,1,2,3:2:0:0:
289,343,159934,2,0,P|295:296|302:243,1,76.4999976654053,2|8,0:2|0:0,0:0:0:0:
135,162,160250,5,2,0:2:0:0:
321,107,160408,1,2,3:2:0:0:
174,21,160566,2,0,P|184:65|191:101,1,76.4999976654053,2|8,0:2|0:0,0:0:0:0:
378,193,160881,5,2,0:2:0:0:
269,42,161039,1,2,3:2:0:0:
227,251,161197,2,0,P|186:244|133:236,1,76.4999976654053,2|8,0:2|0:0,0:0:0:0:
291,178,161513,5,2,0:2:0:0:
334,345,161671,1,2,3:2:0:0:
277,184,161829,1,2,0:2:0:0:
451,311,161987,6,0,P|458:226|465:140,1,152.999995330811,10|0,0:2|3:0,0:0:0:0:
166,138,162618,2,0,P|207:183|300:177,1,152.999995330811,10|0,0:2|3:0,0:0:0:0:
39,366,163250,2,0,B|128:339|197:319|197:319|248:389,1,229.499992996216,14|0,0:2|0:0,0:0:0:0:
401,382,163881,2,0,L|402:343,1,38.2499988327027
402,190,164039,5,2,0:0:0:0:
287,293,164197,1,2,0:0:0:0:
245,81,164355,1,2,0:0:0:0:
71,252,164513,6,0,P|117:244|163:238,1,93.5000028533936,14|0,0:0|3:2,0:0:0:0:
247,168,164750,6,0,P|201:160|155:154,1,93.5000028533936,2|0,0:2|0:0,0:0:0:0:
27,91,164987,6,0,P|73:83|119:77,1,93.5000028533936,2|8,3:2|0:0,0:0:0:0:
333,84,165303,1,0,3:0:0:0:
189,6,165460,1,8,0:0:0:0:
248,168,165618,1,2,3:2:0:0:
424,35,165776,6,0,P|416:81|410:127,1,93.5000028533936,10|0,0:0|3:0,0:0:0:0:
345,227,166013,6,0,P|338:177|331:127,1,93.5000028533936,2|0,0:0|0:0,0:0:0:0:
262,75,166250,6,0,P|254:125|247:175,1,93.5000028533936,2|8,3:2|0:0,0:0:0:0:
231,280,166566,1,0,3:0:0:0:
332,134,166724,1,8,0:0:0:0:
369,309,166881,1,0,3:0:0:0:
511,179,167039,6,0,P|465:171|419:164,1,93.5000028533936,10|0,0:2|3:0,0:0:0:0:
313,254,167276,6,0,P|359:246|405:239,1,93.5000028533936,2|0,0:0|0:0,0:0:0:0:
468,338,167513,6,0,P|422:331|376:324,1,93.5000028533936,2|8,3:2|0:0,0:0:0:0:
148,354,167829,1,2,3:2:0:0:
313,254,167987,1,10,0:2:0:0:
144,182,168145,1,2,3:2:0:0:
248,100,168303,6,0,P|235:193|226:286,1,187.000005706787,10|8,0:2|0:0,0:0:0:0:
449,173,168776,1,2,3:2:0:0:
336,101,168934,1,8,0:0:0:0:
418,285,169092,1,0,3:0:0:0:
236,206,169250,2,0,P|282:199|328:192,1,93.5000028533936,8|0,0:0|3:0,0:0:0:0:
452,26,169566,5,14,0:2:0:0:
241,96,169724,1,2,3:2:0:0:
449,173,169881,1,10,0:2:0:0:
343,0,170039,2,0,P|336:46|329:92,1,93.5000028533936,2|8,3:2|0:0,0:0:0:0:
460,184,170355,1,0,3:0:0:0:
231,106,170513,2,0,P|236:152|243:198,1,93.5000028533936,8|0,0:0|3:0,0:0:0:0:
97,356,170829,5,10,0:2:0:0:
300,278,170987,1,2,3:2:0:0:
92,215,171145,1,10,0:2:0:0:
223,374,171303,2,0,P|216:319|209:254,1,93.5000028533936,2|8,3:2|0:0,0:0:0:0:
82,205,171618,1,2,3:2:0:0:
300,278,171776,1,10,0:0:0:0:
97,356,171934,1,2,3:2:0:0:
275,107,172092,6,0,P|269:157|262:208,1,93.5000028533936,10|0,0:0|3:0,0:0:0:0:
152,111,172408,1,10,0:0:0:0:
364,46,172566,2,0,P|368:92|374:138,1,93.5000028533936,2|8,3:2|0:0,0:0:0:0:
210,45,172881,1,2,3:2:0:0:
183,234,173039,1,2,3:2:0:0:
474,181,173197,6,0,P|428:173|382:167,1,93.5000028533936,14|2,0:2|0:0,0:0:0:0:
207,151,173513,1,2,3:2:0:0:
355,270,173671,1,10,0:2:0:0:
286,115,173829,1,2,3:2:0:0:
199,331,173987,1,10,0:2:0:0:
173,327,174066,1,0,3:0:0:0:
148,322,174145,1,8,3:0:0:0:
123,317,174224,1,4,3:0:0:0:
99,316,174303,2,0,P|88:270|76:225,1,93.5000028533936,10|0,0:2|3:0,0:0:0:0:
204,67,174618,5,10,0:2:0:0:
168,252,174776,1,2,3:2:0:0:
32,137,174934,2,0,P|78:129|123:120,1,93.5000028533936,10|2,0:2|3:2,0:0:0:0:
372,38,175250,1,10,0:2:0:0:
218,160,175408,1,2,3:2:0:0:
417,210,175566,1,10,0:2:0:0:
277,20,175724,1,2,3:2:0:0:
277,272,175881,5,10,0:2:0:0:
446,113,176039,2,0,L|383:126,1,46.7500014266968,2|2,3:2|0:2,0:0:0:0:
208,150,176197,1,10,0:2:0:0:
454,279,176355,1,2,3:2:0:0:
222,349,176513,1,10,0:2:0:0:
463,288,176671,2,0,P|370:280|276:272,1,187.000005706787,2|0,3:2|3:0,0:0:0:0:
96,303,177145,5,10,0:2:0:0:
299,189,177303,1,2,3:2:0:0:
111,135,177460,2,0,P|124:180|135:225,1,93.5000028533936,10|2,0:2|3:2,0:0:0:0:
215,33,177776,1,10,0:2:0:0:
299,189,177934,2,0,P|253:180|207:171,1,93.5000028533936,2|10,3:2|0:2,0:0:0:0:
29,121,178250,1,2,3:2:0:0:
215,33,178408,5,10,0:2:0:0:
103,225,178566,1,2,3:2:0:0:
36,25,178724,1,10,0:2:0:0:
207,206,178881,2,0,P|252:197|298:188,1,93.5000028533936,2|8,3:2|0:0,0:0:0:0:
409,67,179197,1,0,3:0:0:0:
441,283,179355,2,0,P|395:274|349:265,1,93.5000028533936,8|0,0:0|3:0,0:0:0:0:
102,159,179671,6,0,P|116:227|128:296,2,140.25000428009,14|2|2,0:2|0:2|3:2,0:0:0:0:
349,346,180303,2,0,P|354:276|362:206,2,140.25000428009,10|2|2,0:2|0:0|3:2,0:0:0:0:
109,162,180934,6,0,P|175:155|219:150,1,93.5000028533936,10|0,0:2|3:0,0:0:0:0:
258,74,181171,6,0,P|308:79|359:85,1,93.5000028533936,2|0,0:2|0:0,0:0:0:0:
417,127,181408,5,2,3:2:0:0:
311,275,181566,2,0,P|304:224|299:173,1,93.5000028533936,10|0,0:2|3:2,0:0:0:0:
121,354,181881,2,0,P|127:303|132:252,1,93.5000028533936,8|0,0:0|3:0,0:0:0:0:
258,74,182197,5,12,0:0:0:0:
311,275,182355,1,2,3:2:0:0:
109,136,182513,1,10,0:2:0:0:
121,354,182671,1,2,3:2:0:0:
252,167,182829,1,10,0:2:0:0:
297,384,182987,2,0,P|359:375|408:371,1,93.5000028533936,8|0,0:0|3:0,0:0:0:0:
485,95,183303,6,0,P|467:195|452:296,1,187.000005706787,10|0,0:2|3:0,0:0:0:0:
191,213,183776,1,8,0:0:0:0:
389,113,183934,1,0,3:0:0:0:
182,41,184092,1,8,0:0:0:0:
358,286,184250,1,0,3:0:0:0:
462,315,184724,5,2,0:0:0:0:
231,52,194355,5,10,0:0:0:0:
231,52,194434,1,8,3:0:0:0:
231,52,194513,1,0,3:2:0:0:
193,242,194671,1,2,3:2:0:0:
36,171,194829,6,0,P|86:164|137:158,1,101.999996887207,14|0,0:2|3:0,0:0:0:0:
236,328,195145,1,8,0:0:0:0:
78,251,195303,1,0,3:0:0:0:
295,143,195460,2,0,P|288:193|282:244,1,101.999996887207,10|0,0:0|3:0,0:0:0:0:
500,379,195776,2,0,P|493:328|487:277,1,101.999996887207,8|0,0:0|3:0,0:0:0:0:
286,127,196092,5,10,0:0:0:0:
494,171,196250,1,0,3:0:0:0:
329,320,196408,1,8,0:0:0:0:
399,157,196566,1,0,3:0:0:0:
181,88,196724,2,0,P|188:139|194:190,1,101.999996887207,10|0,0:0|3:0,0:0:0:0:
0,286,197039,2,0,P|5:235|12:184,1,101.999996887207,10|0,0:0|3:0,0:0:0:0:
240,355,197355,6,0,P|189:348|138:342,1,101.999996887207,10|0,0:0|3:0,0:0:0:0:
275,127,197671,1,10,0:0:0:0:
397,363,197829,2,0,P|403:312|409:261,1,101.999996887207,2|8,3:2|0:0,0:0:0:0:
180,87,198145,2,0,P|186:137|192:188,1,101.999996887207,2|8,3:2|0:0,0:0:0:0:
405,157,198460,1,2,3:2:0:0:
284,11,198618,6,0,P|277:61|271:112,1,101.999996887207,8|0,0:0|3:0,0:0:0:0:
495,196,198934,2,0,P|489:145|482:94,1,101.999996887207,8|0,0:0|3:0,0:0:0:0:
228,230,199250,1,10,0:2:0:0:
504,290,199408,1,2,3:2:0:0:
381,68,199566,1,10,0:2:0:0:
276,340,199724,1,2,3:2:0:0:
495,196,199881,6,0,P|432:188|375:180,1,101.999996887207,10|0,0:2|3:0,0:0:0:0:
260,352,200197,1,10,0:0:0:0:
177,95,200355,2,0,P|240:87|297:79,1,101.999996887207,2|8,3:2|0:0,0:0:0:0:
438,263,200671,2,0,P|375:255|318:247,1,101.999996887207,2|8,3:2|0:0,0:0:0:0:
278,81,200987,1,2,3:2:0:0:
123,375,201145,6,0,B|196:357|271:338|271:338|320:390,1,203.999993774414,8|10,0:0|0:0,0:0:0:0:
382,176,201618,1,0,3:0:0:0:
230,254,201776,2,0,P|179:247|128:241,1,101.999996887207,10|0,0:0|3:0,0:0:0:0:
0,75,202092,2,0,P|50:68|101:62,1,101.999996887207,10|0,0:0|3:0,0:0:0:0:
320,7,202408,6,0,B|307:68|302:120,1,101.999996887207,10|0,0:0|3:0,0:0:0:0:
338,262,202724,1,10,0:0:0:0:
512,83,202881,2,0,B|451:70|399:65,1,101.999996887207,2|8,3:2|0:0,0:0:0:0:
210,202,203197,2,0,B|271:189|323:184,1,101.999996887207,2|8,3:2|0:0,0:0:0:0:
213,92,203513,1,2,3:2:0:0:
174,371,203671,6,0,B|171:332|158:271,1,101.999996887207,10|0,0:2|3:0,0:0:0:0:
19,108,203987,2,0,B|6:169|2:208,1,101.999996887207,8|0,0:0|3:0,0:0:0:0:
246,317,204303,1,10,0:0:0:0:
120,148,204460,1,2,3:2:0:0:
324,181,204618,1,10,0:0:0:0:
114,276,204776,1,2,3:2:0:0:
405,376,204934,6,0,P|454:327|379:205,1,203.999993774414,12|8,0:0|0:0,0:0:0:0:
230,172,205408,1,0,3:0:0:0:
379,297,205566,2,0,P|319:289|272:281,1,101.999996887207,10|0,0:0|3:0,0:0:0:0:
101,384,205881,1,8,0:0:0:0:
236,188,206039,1,0,3:0:0:0:
0,120,206197,6,0,P|7:175|14:232,1,101.999996887207,14|0,0:0|3:2,0:0:0:0:
131,0,206513,1,10,0:0:0:0:
242,202,206671,2,0,P|187:195|130:188,1,101.999996887207,2|8,3:2|0:0,0:0:0:0:
305,38,206987,2,0,P|311:88|317:139,1,101.999996887207,2|8,3:2|0:0,0:0:0:0:
161,104,207303,1,2,3:2:0:0:
400,264,207460,6,0,P|406:213|412:162,1,101.999996887207,12|0,0:0|3:0,0:0:0:0:
192,272,207776,2,0,P|198:322|204:373,1,101.999996887207,8|0,0:0|3:0,0:0:0:0:
316,119,208092,5,10,0:0:0:0:
292,306,208250,1,0,3:0:0:0:
305,110,208408,5,8,0:0:0:0:
372,336,208566,1,0,3:0:0:0:
388,88,208724,5,14,0:0:0:0:
307,384,208881,1,0,3:0:0:0:
207,85,209039,5,8,0:0:0:0:
478,234,209197,1,0,3:0:0:0:
117,302,209355,5,10,0:0:0:0:
424,167,209513,1,0,3:0:0:0:
129,142,209671,5,8,0:0:0:0:
395,252,209829,1,2,3:2:0:0:
81,383,209987,6,0,P|70:280|58:177,1,187.000005706787,12|8,0:2|0:0,0:0:0:0:
259,235,210460,1,0,3:0:0:0:
139,49,210618,2,0,P|132:108|125:168,1,93.5000028533936,8|0,0:0|3:0,0:0:0:0:
274,245,210934,2,0,P|268:198|263:152,1,93.5000028533936,8|0,0:0|3:0,0:0:0:0:
469,92,211250,5,8,0:2:0:0:
250,22,211408,1,0,3:0:0:0:
353,210,211566,1,8,0:0:0:0:
410,3,211724,1,0,3:0:0:0:
453,204,211881,2,0,P|400:195|341:183,1,93.5000028533936,8|0,0:0|3:0,0:0:0:0:
239,342,212197,2,0,P|292:333|351:321,1,93.5000028533936,10|0,0:0|3:0,0:0:0:0:
80,221,212513,6,0,P|89:274|101:333,1,93.5000028533936,14|0,0:2|3:0,0:0:0:0:
263,152,212829,2,0,P|271:106|279:60,1,93.5000028533936,10|0,0:0|3:0,0:0:0:0:
189,208,213145,1,10,0:0:0:0:
53,114,213303,2,0,P|99:107|159:99,1,93.5000028533936,2|8,3:2|0:0,0:0:0:0:
375,85,213618,1,2,3:2:0:0:
248,343,213776,5,14,0:2:0:0:
266,106,213934,1,2,3:2:0:0:
72,260,214092,1,2,3:2:0:0:
366,329,214250,5,10,0:2:0:0:
366,329,214566,2,0,L|377:388,1,46.7500014266968,2|0,3:2|3:0,0:0:0:0:
332,241,214724,6,0,P|339:194|360:100,1,140.25000428009,8|0,0:2|0:0,0:0:0:0:
302,28,215039,6,0,P|400:24|443:105,1,187.000005706787,6|8,3:2|0:0,0:0:0:0:
252,217,215513,1,0,0:0:0:0:
356,102,215671,2,0,P|368:166|377:213,1,93.5000028533936,2|0,3:2|0:0,0:0:0:0:
162,270,215987,2,0,P|171:219|180:169,1,93.5000028533936,10|0,0:0|0:0,0:0:0:0:
446,327,216303,6,0,P|352:319|259:311,1,187.000005706787,2|8,3:2|0:0,0:0:0:0:
190,174,216776,1,0,0:0:0:0:
101,376,216934,2,0,P|151:371|202:366,1,93.5000028533936,2|0,3:2|0:0,0:0:0:0:
388,233,217250,2,0,P|337:228|281:223,1,93.5000028533936,10|0,0:0|0:0,0:0:0:0:
88,140,217566,6,0,P|98:186|106:232,1,93.5000028533936,2|0,3:2|0:0,3:0:0:0:
193,66,217881,1,10,0:0:0:0:
0,134,218039,2,0,P|8:88|18:42,1,93.5000028533936,2|0,0:0|3:0,0:0:0:0:
217,269,218355,2,0,P|209:223|200:169,1,93.5000028533936,2|8,0:0|0:0,0:0:0:0:
321,89,218671,1,2,0:0:0:0:
408,318,218829,6,0,P|362:308|316:299,1,93.5000028533936,0|0,3:0|0:0,0:0:0:0:
110,198,219145,2,0,P|155:188|206:176,1,93.5000028533936,8|0,0:0|0:0,0:0:0:0:
379,224,219460,1,2,3:2:0:0:
257,33,219618,1,2,0:0:0:0:
200,250,219776,1,10,0:0:0:0:
390,138,219934,1,2,0:0:0:0:
104,73,220092,6,0,P|113:120|122:166,1,93.5000028533936,2|0,3:2|0:0,0:0:0:0:
309,164,220408,1,10,0:2:0:0:
121,318,220566,2,0,B|197:300|250:286|250:286|302:345,1,187.000005706787,2|2,0:2|0:0,0:0:0:0:
511,330,221039,1,8,0:0:0:0:
321,243,221197,1,2,0:0:0:0:
422,369,221355,6,0,P|430:315|439:260,1,93.5000028533936,0|0,3:0|0:0,0:0:0:0:
283,140,221671,2,0,P|291:190|298:240,1,93.5000028533936,10|0,0:0|0:0,0:0:0:0:
512,174,221987,2,0,P|461:165|411:158,1,93.5000028533936,2|0,3:2|0:0,0:0:0:0:
226,59,222303,2,0,P|276:50|326:43,1,93.5000028533936,10|0,0:0|0:0,0:0:0:0:
208,308,222618,6,0,B|140:293|85:279|85:279|38:318,1,187.000005706787,2|10,3:2|0:2,0:0:0:0:
97,92,223092,2,0,P|104:147|114:223,1,93.5000028533936,2|0,0:0|3:0,0:0:0:0:
292,367,223408,1,2,0:0:0:0:
196,128,223566,1,8,0:0:0:0:
113,340,223724,6,0,P|159:332|205:325,1,93.5000028533936,10|2,0:2|3:2,0:0:0:0:
465,296,224039,1,8,0:0:0:0:
465,296,224118,1,8,0:0:0:0:
465,296,224197,1,0,3:0:0:0:
229,209,224355,1,8,0:0:0:0:
229,209,224434,1,8,0:0:0:0:
229,209,224513,5,2,3:2:0:0:
408,140,224671,1,10,0:2:0:0:
408,140,224750,1,8,0:0:0:0:
408,140,224829,2,0,L|399:208,1,46.7500014266968,10|8,3:2|0:0,0:0:0:0:
306,327,224987,2,0,L|298:276,1,46.7500014266968,10|8,0:2|0:0,0:0:0:0:
182,30,225145,6,0,P|163:121|145:213,1,187.000005706787,6|8,3:2|0:0,0:0:0:0:
0,277,225618,1,0,0:0:0:0:
32,78,225776,2,0,P|42:131|52:186,1,93.5000028533936,2|0,3:2|0:0,0:0:0:0:
218,283,226092,2,0,P|227:232|238:182,1,93.5000028533936,8|0,0:0|0:0,0:0:0:0:
499,124,226408,6,0,P|437:114|382:105,1,93.5000028533936,2|0,3:2|0:0,0:0:0:0:
286,0,226724,1,10,0:2:0:0:
236,191,226881,2,0,P|286:183|336:174,1,93.5000028533936,2|0,0:2|3:0,0:0:0:0:
164,16,227197,2,0,P|156:66|147:116,1,93.5000028533936,2|8,0:0|0:0,0:0:0:0:
323,187,227513,1,2,0:0:0:0:
78,286,227671,6,0,P|152:276|203:272,1,93.5000028533936,0|0,3:0|0:0,0:0:0:0:
347,384,227987,2,0,P|273:374|222:370,1,93.5000028533936,8|0,0:0|0:0,0:0:0:0:
459,228,228303,2,0,P|464:278|471:329,1,93.5000028533936,2|0,3:2|0:0,0:0:0:0:
228,186,228618,1,8,0:0:0:0:
254,372,228776,1,0,0:0:0:0:
371,141,228934,6,0,P|365:191|358:242,1,93.5000028533936,2|0,3:2|0:0,0:0:0:0:
127,317,229250,2,0,P|119:266|114:215,1,93.5000028533936,8|0,0:0|0:0,0:0:0:0:
191,40,229566,1,2,3:2:0:0:
236,277,229724,1,8,0:0:0:0:
261,94,229881,1,8,0:0:0:0:
114,224,230039,1,2,0:2:0:0:
422,121,230197,5,14,0:2:0:0:
153,135,230355,1,0,3:0:0:0:
339,320,230513,1,0,3:0:0:0:
344,48,230671,5,10,0:0:0:0:
236,271,230829,1,0,3:0:0:0:
486,204,230987,1,0,3:0:0:0:
178,61,231145,5,14,0:0:0:0:
272,346,231303,1,0,3:0:0:0:
269,28,231460,5,14,0:0:0:0:
392,251,231618,1,0,3:0:0:0:
112,212,231776,1,0,3:0:0:0:
341,134,231934,5,10,0:0:0:0:
140,332,232092,1,0,3:0:0:0:
99,57,232250,1,0,3:0:0:0:
304,261,232408,5,14,0:0:0:0:
29,207,232566,1,0,3:0:0:0:
220,75,232724,6,0,P|226:127|231:167,1,93.5000028533936,14|0,0:0|0:0,0:0:0:0:
47,303,233039,1,2,3:2:0:0:
311,372,233197,2,0,P|316:325|322:279,1,93.5000028533936,10|0,0:2|3:2,0:0:0:0:
98,163,233513,1,2,0:0:0:0:
313,84,233671,1,8,0:0:0:0:
210,339,233829,1,2,0:0:0:0:
123,158,233987,6,0,P|183:168|230:175,1,93.5000028533936,4|0,3:2|0:0,0:0:0:0:
416,22,234303,2,0,P|424:56|428:77,3,46.7500014266968,8|8|8|8,3:2|0:0|0:0|0:0,0:0:0:0:
358,173,234618,1,8,3:2:0:0:
355,198,234697,1,8,0:0:0:0:
352,223,234776,1,8,0:0:0:0:
349,249,234855,1,8,0:0:0:0:
347,274,234934,2,0,P|306:268|279:265,1,46.7500014266968,10|8,3:2|0:0,0:0:0:0:
167,365,235092,1,8,0:0:0:0:
167,365,235171,1,8,0:0:0:0:
167,365,235250,6,0,P|192:360|217:357,1,46.7500014266968,10|8,3:2|0:0,0:0:0:0:
80,231,235408,1,8,0:0:0:0:
80,231,235487,1,8,0:0:0:0:
80,231,235566,2,0,P|86:272|89:299,1,46.7500014266968,10|8,3:2|0:0,0:0:0:0:
243,216,235724,2,0,P|246:190|250:165,1,46.7500014266968,10|8,0:0|0:0,0:0:0:0:
122,79,235881,1,8,3:2:0:0:
122,79,235960,1,8,0:0:0:0:
122,79,236039,6,0,P|128:117|132:146,1,46.7500014266968,10|8,0:0|0:0,0:0:0:0:
240,34,236197,1,8,3:2:0:0:
273,32,236276,1,8,0:0:0:0:
306,40,236355,1,8,0:0:0:0:
330,64,236434,1,8,0:0:0:0:
354,87,236513,1,10,3:2:0:0:
387,94,236592,1,8,0:0:0:0:
421,91,236671,6,0,P|419:128|417:162,1,46.7500014266968,8|8,0:0|0:0,0:0:0:0:
299,265,236829,1,8,3:2:0:0:
319,238,236908,1,8,0:0:0:0:
350,224,236987,1,8,0:0:0:0:
384,226,237066,1,8,0:0:0:0:
413,243,237145,1,8,3:2:0:0:
431,272,237224,1,10,0:0:0:0:
433,305,237303,6,0,P|427:334|422:361,1,46.7500014266968,8|8,0:0|0:0,0:0:0:0:
299,265,237460,2,0,P|293:240|288:215,1,46.7500014266968,8|8,3:2|0:0,0:0:0:0:
512,335,237618,2,0,P|506:363|500:390,1,46.7500014266968,8|8,0:0|0:0,0:0:0:0:
218,259,237776,6,0,P|203:199|191:139,1,101.999996887207,14|2,3:2|0:0,0:0:0:0:
118,106,238408,2,0,P|70:80|19:98,2,101.999996887207,2|2|2,0:0|0:0|0:0,0:0:0:0:
110,210,239355,2,0,P|158:184|208:203,2,101.999996887207,2|2|2,0:0|0:0|0:0,0:0:0:0:
146,318,240303,6,0,P|198:275|296:314,1,170,2|0,0:0|0:0,0:0:0:0:
491,212,241250,2,0,P|439:169|341:208,1,170,2|0,0:0|0:0,0:0:0:0:
422,354,242197,2,0,P|419:308|418:246,1,101.999996887207,2|2,0:0|0:0,0:0:0:0:
262,154,242829,5,2,0:0:0:0:
322,282,243145,1,2,0:0:0:0:
140,365,243460,2,0,P|149:283|151:248,1,101.999996887207,2|2,0:0|0:0,0:0:0:0:
344,203,244092,5,2,0:0:0:0:
185,133,244408,1,2,0:0:0:0:
338,55,244724,2,0,P|388:60|442:72,2,101.999996887207,2|2|0,0:0|0:0|0:0,0:0:0:0:
256,192,245434,12,0,247250,0:0:0:0:
299,40,247408,5,0,3:0:0:0:
299,40,247566,2,0,P|331:36|373:34,1,63.75,8|0,0:0|0:0,0:0:0:0:
506,135,247881,6,0,P|449:127|402:120,1,93.5000028533936,14|0,0:0|3:0,0:0:0:0:
282,288,248197,2,0,P|328:281|374:274,1,93.5000028533936,10|0,0:0|3:0,0:0:0:0:
218,105,248513,1,10,0:0:0:0:
417,199,248671,1,0,3:0:0:0:
191,284,248829,2,0,P|184:237|177:191,1,93.5000028533936,10|0,0:0|3:0,0:0:0:0:
327,51,249145,6,0,P|320:97|313:143,1,93.5000028533936,10|0,0:0|3:0,0:0:0:0:
37,62,249460,2,0,P|83:55|129:48,1,93.5000028533936,10|0,0:0|3:0,0:0:0:0:
321,157,249776,1,10,0:0:0:0:
225,0,249934,1,0,3:0:0:0:
151,215,250092,2,0,P|104:208|58:201,1,93.5000028533936,10|0,0:0|3:0,0:0:0:0:
341,345,250408,6,0,B|354:269|363:219|363:219|306:147,1,187.000005706787,10|8,0:0|0:0,0:0:0:0:
171,103,250881,1,0,3:0:0:0:
143,301,251039,2,0,P|217:286|244:282,1,93.5000028533936,8|0,0:0|3:0,0:0:0:0:
418,131,251355,6,0,P|370:82|238:126,1,187.000005706787,10|8,0:0|0:0,0:0:0:0:
340,294,251829,1,0,3:0:0:0:
196,208,251987,1,8,0:0:0:0:
340,169,252145,1,0,3:0:0:0:
161,18,252303,2,0,P|169:64|174:110,1,93.5000028533936,10|0,0:0|3:0,0:0:0:0:
0,243,252618,2,0,P|5:196|13:150,1,93.5000028533936,10|0,0:0|3:0,0:0:0:0:
262,354,252934,6,0,P|202:342|152:335,1,93.5000028533936,14|0,0:2|3:0,0:0:0:0:
19,255,253250,2,0,P|79:243|129:236,1,93.5000028533936,10|0,0:0|3:0,0:0:0:0:
341,298,253566,1,10,0:0:0:0:
173,157,253724,1,0,3:0:0:0:
376,97,253881,2,0,P|362:156|353:197,1,93.5000028533936,10|0,0:0|3:0,0:0:0:0:
12,69,254197,6,0,P|86:59|135:51,1,93.5000028533936,14|0,0:2|3:0,0:0:0:0:
279,190,254513,2,0,P|205:180|156:172,1,93.5000028533936,10|0,0:0|3:0,0:0:0:0:
229,0,254829,2,0,P|234:58|239:124,1,93.5000028533936,10|0,0:0|3:0,0:0:0:0:
403,222,255145,2,0,P|406:175|410:128,1,93.5000028533936,10|0,0:0|3:0,0:0:0:0:
142,335,255460,6,0,P|177:284|310:296,1,187.000005706787,14|10,0:2|0:2,0:0:0:0:
237,348,255934,1,0,3:0:0:0:
160,190,256092,1,10,0:2:0:0:
341,357,256250,1,2,3:2:0:0:
339,126,256408,1,10,0:2:0:0:
155,292,256566,1,2,3:2:0:0:
249,71,256724,6,0,L|265:163,1,93.5000028533936,12|0,0:0|3:0,0:0:0:0:
341,357,257039,1,12,0:0:0:0:
425,156,257197,1,0,3:0:0:0:
242,247,257355,1,12,0:2:0:0:
464,295,257513,1,0,3:0:0:0:
369,383,257671,1,8,0:0:0:0:
366,359,257750,1,8,0:0:0:0:
364,336,257829,1,8,0:0:0:0:
362,313,257908,1,8,0:0:0:0:
360,289,257987,5,6,3:2:0:0:
171,193,258145,1,0,3:0:0:0:
250,364,258303,2,0,P|258:313|268:259,1,93.5000028533936,10|0,0:0|3:0,0:0:0:0:
411,118,258618,2,0,P|421:163|432:209,1,93.5000028533936,10|0,0:0|3:0,0:0:0:0:
244,141,258934,2,0,P|252:90|261:35,1,93.5000028533936,10|0,0:0|3:0,0:0:0:0:
498,113,259250,5,10,0:0:0:0:
328,199,259408,1,0,3:0:0:0:
395,25,259566,2,0,P|403:71|410:117,1,93.5000028533936,10|0,0:0|3:0,0:0:0:0:
236,231,259881,2,0,P|183:220|132:209,1,93.5000028533936,10|0,0:0|3:0,0:0:0:0:
52,76,260197,2,0,P|105:70|157:64,1,93.5000028533936,10|0,0:0|3:0,0:0:0:0:
437,96,260513,6,0,P|370:72|282:146,1,187.000005706787,10|8,0:0|0:0,0:0:0:0:
164,178,260987,1,0,3:0:0:0:
370,265,261145,2,0,P|379:195|386:151,1,93.5000028533936,8|0,0:0|3:0,0:0:0:0:
114,307,261460,6,0,P|154:348|279:293,1,187.000005706787,10|8,0:0|0:0,0:0:0:0:
276,105,261934,1,0,3:0:0:0:
189,267,262092,1,8,0:0:0:0:
370,265,262250,1,0,3:0:0:0:
170,164,262408,2,0,P|177:228|181:283,1,93.5000028533936,10|0,0:0|3:0,0:0:0:0:
354,95,262724,2,0,P|347:159|343:214,1,93.5000028533936,10|0,0:2|3:0,0:0:0:0:
101,83,263039,6,0,P|172:72|237:62,1,93.5000028533936,14|0,0:2|3:0,0:0:0:0:
344,188,263355,2,0,P|273:177|208:167,1,93.5000028533936,10|0,0:0|3:0,0:0:0:0:
37,273,263671,1,10,0:0:0:0:
246,335,263829,1,0,3:0:0:0:
165,156,263987,2,0,P|156:223|148:268,1,93.5000028533936,10|0,0:0|3:0,0:0:0:0:
423,363,264303,6,0,P|415:316|409:270,1,93.5000028533936,14|0,0:0|3:0,0:0:0:0:
462,101,264618,1,10,0:0:0:0:
308,237,264776,1,0,3:0:0:0:
347,42,264934,2,0,P|352:88|360:134,1,93.5000028533936,10|0,0:0|3:0,0:0:0:0:
126,267,265250,1,10,0:0:0:0:
212,75,265408,1,0,3:0:0:0:
316,322,265566,6,0,B|387:305|438:292|438:292|489:349,1,187.000005706787,14|12,0:0|0:0,0:0:0:0:
308,237,266039,1,0,3:0:0:0:
490,179,266197,1,8,3:0:0:0:
415,384,266355,1,4,3:0:0:0:
360,164,266513,1,0,3:0:0:0:
202,341,266671,6,0,B|91:298|122:411|-9:349,1,187.000005706787,12|0,0:2|3:0,0:0:0:0:
142,139,267145,2,0,P|149:206|155:243,1,93.5000028533936,8|0,0:0|3:0,0:0:0:0:
334,315,267460,1,8,0:0:0:0:
221,92,267618,1,8,0:0:0:0:
136,366,267776,1,8,0:2:0:0:
345,91,267934,1,8,0:2:0:0:
435,331,268092,6,0,P|394:234|225:288,1,280.500008560181,2|0,0:2|0:0,0:0:0:0:
