osu file format v14

[General]
AudioFilename: audio.mp3
AudioLeadIn: 0
PreviewTime: 63460
Countdown: 0
SampleSet: Soft
StackLeniency: 0.4
Mode: 0
LetterboxInBreaks: 0
WidescreenStoryboard: 1

[Editor]
DistanceSpacing: 1.3
BeatDivisor: 4
GridSize: 4
TimelineZoom: 2.299999

[Metadata]
Title:Not For Sale Fossil (Cut Ver.)
TitleUnicode:ノットフォーセール・フォッシル (Cut Ver.)
Artist:Wakeshima Kanon
ArtistUnicode:分島花音
Creator:-Nenu- 3
Version:Ori's Expert
Source:
Tags:Arronchu1207 crystalinfusion Flake original3s jpop japanese japan pop j-pop luminescence QED Q.E.D KayINeo
BeatmapID:3570792
BeatmapSetID:1569012

[Difficulty]
HPDrainRate:5
CircleSize:4.2
OverallDifficulty:8.5
ApproachRate:9
SliderMultiplier:2.08
SliderTickRate:1

[Events]
//Background and Video events
0,0,"wakeshima5.jpg",0,0
//Break Periods
2,106608,113387
//Storyboard Layer 0 (Background)
//Storyboard Layer 1 (Fail)
//Storyboard Layer 2 (Pass)
//Storyboard Layer 3 (Foreground)
//Storyboard Layer 4 (Overlay)
//Storyboard Sound Samples

[TimingPoints]
-2223,315.789473684211,4,2,22,65,1,0
2828,-83.3333333333333,4,2,22,65,0,0
3066,-83.3333333333333,4,2,22,5,0,0
3145,-111.111111111111,4,2,22,65,0,0
4013,-111.111111111111,4,2,22,5,0,0
4092,-90.9090909090908,4,2,22,65,0,0
4329,-90.9090909090908,4,2,22,5,0,0
4408,-76.9230769230769,4,2,22,65,0,0
4645,-111.111111111111,4,2,22,5,0,0
4724,-90.9090909090909,4,2,22,65,0,0
4961,-111.111111111111,4,2,22,5,0,0
5039,-111.111111111111,4,2,22,65,0,0
5276,-111.111111111111,4,2,22,5,0,0
5355,-111.111111111111,4,2,22,65,0,0
5592,-111.111111111111,4,2,22,5,0,0
5671,-111.111111111111,4,2,22,65,0,0
6618,-111.111111111111,4,2,22,65,0,0
6855,-111.111111111111,4,2,22,5,0,0
6934,-111.111111111111,4,2,22,65,0,0
7250,-90.9090909090908,4,2,22,65,0,0
7487,-111.111111111111,4,2,22,5,0,0
7566,-76.9230769230769,4,2,22,65,0,0
7881,-71.4285714285714,4,2,22,65,0,0
8118,-71.4285714285714,4,2,22,5,0,0
8197,-90.9090909090909,4,2,22,65,0,0
9145,-76.9230769230769,4,2,22,65,0,0
9381,-76.9230769230769,4,2,22,5,0,0
9460,-111.111111111111,4,2,22,65,0,0
9776,-90.9090909090908,4,2,22,65,0,0
10013,-111.111111111111,4,2,22,5,0,0
10092,-76.9230769230769,4,2,22,65,0,0
10329,-76.9230769230769,4,2,22,5,0,0
10408,-90.9090909090909,4,2,22,65,0,0
10645,-90.9090909090909,4,2,22,5,0,0
10724,-71.4285714285714,4,2,22,65,0,0
11513,-76.9230769230769,4,2,22,65,0,0
11987,-100,4,2,22,65,0,0
12224,-111.111111111111,4,2,22,5,0,0
12303,-111.111111111111,4,2,22,65,0,0
12619,-166.666666666666,4,2,22,65,0,0
12777,-166.666666666667,4,2,22,65,0,0
12855,-166.666666666667,4,2,22,5,0,0
12934,-83.3333333333333,4,2,22,65,0,0
13171,-83.3333333333333,4,2,22,5,0,0
13250,-111.111111111111,4,2,22,65,0,0
14119,-111.111111111111,4,2,22,5,0,0
14197,-90.9090909090909,4,2,22,65,0,0
14434,-90.9090909090909,4,2,22,5,0,0
14513,-76.9230769230769,4,2,22,65,0,0
14750,-76.9230769230769,4,2,22,5,0,0
14829,-90.9090909090909,4,2,22,65,0,0
15066,-76.9230769230769,4,2,22,5,0,0
15145,-111.111111111111,4,2,22,65,0,0
15381,-111.111111111111,4,2,22,5,0,0
15460,-111.111111111111,4,2,22,65,0,0
16013,-111.111111111111,4,2,22,5,0,0
16092,-83.3333333333333,4,2,22,65,0,0
16645,-83.3333333333333,4,2,22,5,0,0
16724,-66.6666666666667,4,2,22,65,0,0
17276,-66.6666666666667,4,2,22,5,0,0
17355,-66.6666666666667,4,2,22,65,0,0
17671,-125,4,2,22,65,0,0
17908,-125,4,2,22,5,0,0
17987,-66.6666666666667,4,2,22,65,0,0
18224,-66.6666666666667,4,2,22,5,0,0
18303,-100,4,2,22,65,0,0
18539,-100,4,2,22,5,0,0
18618,-142.857142857143,4,2,22,65,0,0
18855,-142.857142857143,4,2,22,5,0,0
18934,-142.857142857143,4,2,22,65,0,0
19171,-142.857142857143,4,2,22,5,0,0
19250,-111.111111111111,4,2,22,65,0,0
19487,-111.111111111111,4,2,22,5,0,0
19566,-111.111111111111,4,2,22,65,0,0
19881,-90.9090909090909,4,2,22,65,0,0
20118,-90.9090909090909,4,2,22,5,0,0
20197,-90.9090909090909,4,2,22,65,0,0
20434,-90.9090909090909,4,2,22,5,0,0
20513,-66.6666666666667,4,2,22,65,0,0
20750,-66.6666666666667,4,2,22,5,0,0
20829,-66.6666666666667,4,2,22,65,0,0
21618,-76.9230769230769,4,2,22,65,0,0
22960,-76.9230769230769,4,2,22,5,0,0
23039,-111.111111111111,4,2,22,55,0,0
24145,-142.857142857143,4,2,22,55,0,0
24855,-111.111111111111,4,2,22,5,0,0
24934,-142.857142857143,4,2,22,55,0,0
25803,-142.857142857143,4,2,22,5,0,0
25882,-142.857142857143,4,2,22,55,0,0
26671,-111.111111111111,4,2,22,55,0,0
26908,-142.857142857143,4,2,22,5,0,0
26987,-142.857142857143,4,2,22,55,0,0
27540,-142.857142857143,4,2,22,5,0,0
27619,-142.857142857143,4,2,22,55,0,0
29592,-142.857142857143,4,2,22,5,0,0
29671,-142.857142857143,4,2,22,55,0,0
30539,-142.857142857143,4,2,22,5,0,0
30618,-111.111111111111,4,2,22,55,0,0
33618,-125,4,2,22,55,0,0
34960,-125,4,2,22,5,0,0
35039,-125,4,2,22,55,0,0
35908,-125,4,2,22,5,0,0
35987,-125,4,2,22,55,0,0
36698,-125,4,2,22,5,0,0
36776,-100,4,2,22,55,0,0
37013,-100,4,2,22,5,0,0
37092,-100,4,2,22,50,0,0
37645,-125,4,2,22,5,0,0
37724,-142.857142857143,4,2,22,50,0,0
38118,-142.857142857143,4,2,22,5,0,0
38197,-111.111111111111,4,2,22,50,0,0
39303,-142.857142857143,4,2,22,50,0,0
39539,-142.857142857143,4,2,22,5,0,0
39618,-142.857142857143,4,2,22,55,0,0
40013,-125,4,2,22,5,0,0
40090,-200,4,2,22,55,0,0
40645,-200,4,2,22,5,0,0
40724,-90.909090909091,4,2,22,55,0,0
40961,-125,4,2,22,5,0,0
41039,-100,4,2,22,55,0,0
41987,-83.3333333333333,4,2,22,55,0,0
42224,-125,4,2,22,5,0,0
42303,-125,4,2,22,55,0,0
42618,-100,4,2,22,55,0,0
42934,-142.857142857143,4,2,22,55,0,0
43171,-142.857142857143,4,2,22,5,0,0
43250,-100,4,2,22,55,0,0
43724,-125,4,2,22,55,0,0
44355,-125,4,2,22,30,0,0
44513,-125,4,2,22,55,0,0
45382,-125,4,2,22,5,0,0
45461,-125,4,2,22,55,0,0
45776,-100,4,2,22,30,0,0
46408,-125,4,2,22,30,0,0
46565,-125,4,2,22,55,0,0
46645,-125,4,2,22,5,0,0
46724,-125,4,2,22,55,0,0
46961,-125,4,2,22,30,0,0
47040,-125,4,2,22,55,0,0
47908,-125,4,2,22,5,0,0
47987,-125,4,2,22,45,0,0
48144,-125,4,2,22,30,0,0
48303,-100,4,2,22,45,0,0
48539,-100,4,2,22,5,0,0
48618,-100,4,2,22,45,0,0
49171,-100,4,2,22,5,0,0
49250,-100,4,2,22,45,0,0
49803,-100,4,2,22,5,0,0
49881,-100,4,2,22,45,0,0
50118,-100,4,2,22,5,0,0
50197,-100,4,2,22,45,0,0
50434,-100,4,2,22,5,0,0
50513,-100,4,2,22,45,0,0
50829,-83.3333333333333,4,2,22,45,0,0
51066,-83.3333333333333,4,2,22,5,0,0
51145,-83.3333333333333,4,2,22,45,0,0
51460,-76.9230769230769,4,2,22,45,0,0
51697,-76.9230769230769,4,2,22,5,0,0
51776,-76.9230769230769,4,2,22,45,0,0
52092,-90.9090909090909,4,2,22,55,0,0
53355,-76.9230769230769,4,2,22,45,0,0
53829,-111.111111111111,4,2,22,45,0,0
54303,-111.111111111111,4,2,22,45,0,0
54618,-111.111111111111,4,2,22,45,0,0
55487,-111.111111111111,4,2,22,5,0,0
55566,-111.111111111111,4,2,22,45,0,0
55881,-111.111111111111,4,2,22,45,0,0
56118,-111.111111111111,4,2,22,5,0,0
56197,-111.111111111111,4,2,22,45,0,0
56829,-90.9090909090908,4,2,22,45,0,0
56987,-90.9090909090908,4,2,22,30,0,0
57066,-90.9090909090908,4,2,22,30,0,0
57145,-90.9090909090908,4,2,22,45,0,0
57776,-100,4,2,22,45,0,0
58013,-100,4,2,22,5,0,0
58092,-125,4,2,22,45,0,0
58408,-83.3333333333333,4,2,22,50,0,0
59039,-83.3333333333333,4,2,22,55,0,0
59671,-83.3333333333333,4,2,22,60,0,0
60303,-83.3333333333333,4,2,22,68,0,0
60934,-125,4,2,22,80,0,0
61566,-125,4,2,22,52,0,0
62197,-125,4,2,22,68,0,0
63381,-125,4,2,22,5,0,0
63460,-62.5,4,2,22,80,0,0
63698,-62.5,4,2,22,5,0,0
63776,-71.4285714285714,4,2,22,80,0,0
64645,-71.4285714285714,4,2,22,5,0,0
64724,-62.5,4,2,22,80,0,0
64961,-71.4285714285714,4,2,22,5,0,0
65039,-71.4285714285714,4,2,22,80,0,0
65671,-166.666666666667,4,2,22,80,0,0
65908,-166.666666666667,4,2,22,5,0,0
65987,-62.5,4,2,22,80,0,0
66224,-71.4285714285714,4,2,22,5,0,0
66303,-71.4285714285714,4,2,22,80,0,0
66460,-76.9230769230769,4,2,22,80,0,0
66776,-90.9090909090909,4,2,22,80,0,0
67250,-76.9230769230769,4,2,22,80,0,0
67487,-71.4285714285714,4,2,22,5,0,0
67566,-90.9090909090909,4,2,22,80,0,0
67960,-90.9090909090909,4,2,22,5,0,0
68039,-90.9090909090909,4,2,22,80,0,0
68118,-90.9090909090909,4,2,22,5,0,0
68197,-90.9090909090909,4,2,22,80,0,0
68276,-90.9090909090909,4,2,22,5,0,0
68354,-90.9090909090909,4,2,22,80,0,0
68434,-90.9090909090909,4,2,22,5,0,0
68513,-66.6666666666667,4,2,22,80,0,0
68750,-66.6666666666667,4,2,22,5,0,0
68829,-66.6666666666667,4,2,22,80,0,0
68987,-83.3333333333333,4,2,22,80,0,0
69776,-90.9090909090909,4,2,22,80,0,0
70013,-90.9090909090909,4,2,22,5,0,0
70092,-76.9230769230769,4,2,22,80,0,0
70408,-71.4285714285714,4,2,22,80,0,0
70645,-71.4285714285714,4,2,22,5,0,0
70724,-90.9090909090909,4,2,22,80,0,0
70960,-90.9090909090909,4,2,22,5,0,0
71039,-62.5,4,2,22,80,0,0
71276,-62.5,4,2,22,5,0,0
71355,-62.5,4,2,22,80,0,0
71434,-62.5,4,2,22,5,0,0
71513,-76.9230769230769,4,2,22,80,0,0
71592,-76.9230769230769,4,2,22,5,0,0
71671,-76.9230769230769,4,2,22,80,0,0
71829,-100,4,2,22,80,0,0
71908,-100,4,2,22,5,0,0
71987,-100,4,2,22,80,0,0
72303,-76.9230769230769,4,2,22,80,0,0
72539,-90.9090909090909,4,2,22,5,0,0
72618,-71.4285714285714,4,2,22,80,0,0
73013,-90.9090909090909,4,2,22,5,0,0
73092,-90.9090909090909,4,2,22,80,0,0
73171,-90.9090909090909,4,2,22,5,0,0
73250,-90.9090909090909,4,2,22,80,0,0
73329,-90.9090909090909,4,2,22,5,0,0
73407,-90.9090909090909,4,2,22,80,0,0
73487,-90.9090909090909,4,2,22,5,0,0
73566,-66.6666666666667,4,2,22,80,0,0
73803,-71.4285714285714,4,2,22,5,0,0
73881,-83.3333333333333,4,2,22,80,0,0
74434,-71.4285714285714,4,2,22,5,0,0
74513,-71.4285714285714,4,2,22,80,0,0
74750,-83.3333333333333,4,2,22,5,0,0
74829,-71.4285714285714,4,2,22,80,0,0
75066,-71.4285714285714,4,2,22,5,0,0
75145,-71.4285714285714,4,2,22,80,0,0
75303,-83.3333333333333,4,2,22,80,0,0
75619,-111.111111111111,4,2,22,80,0,0
76092,-66.6666666666667,4,2,22,80,0,0
76329,-66.6666666666667,4,2,22,5,0,0
76408,-83.3333333333333,4,2,22,80,0,0
76724,-62.5,4,2,22,80,0,0
76960,-62.5,4,2,22,5,0,0
77039,-76.9230769230769,4,2,22,80,0,0
78224,-76.9230769230769,4,2,22,5,0,0
78303,-76.9230769230769,4,2,22,80,0,0
78460,-125,4,2,22,80,0,0
78539,-125,4,2,22,5,0,0
78618,-71.4285714285714,4,2,22,55,0,0
78855,-71.4285714285714,4,2,22,5,0,0
78934,-71.4285714285714,4,2,22,55,0,0
79171,-71.4285714285714,4,2,22,5,0,0
79250,-71.4285714285714,4,2,22,55,0,0
79803,-71.4285714285714,4,2,22,5,0,0
79881,-71.4285714285714,4,2,22,65,0,0
80513,-90.9090909090909,4,2,22,65,0,0
80750,-71.4285714285714,4,2,22,5,0,0
80829,-71.4285714285714,4,2,22,65,0,0
80907,-71.4285714285714,4,2,22,55,0,0
81145,-66.6666666666667,4,2,2,40,0,0
81303,-66.6666666666667,4,2,4,40,0,0
81381,-66.6666666666667,4,2,2,40,0,0
81618,-66.6666666666667,4,2,4,40,0,0
81697,-66.6666666666667,4,2,2,40,0,0
81934,-66.6666666666667,4,2,4,40,0,0
82013,-66.6666666666667,4,2,2,40,0,0
82250,-66.6666666666667,4,2,4,40,0,0
82329,-66.6666666666667,4,2,2,40,0,0
82408,-66.6666666666667,4,2,22,70,0,0
82487,-66.6666666666667,4,2,22,5,0,0
82566,-66.6666666666667,4,2,22,80,0,0
82645,-66.6666666666667,4,2,22,5,0,0
82724,-66.6666666666667,4,2,22,80,0,0
82803,-66.6666666666667,4,2,22,5,0,0
82881,-90.9090909090909,4,2,22,80,0,0
82960,-90.9090909090909,4,2,22,5,0,0
83197,-90.9090909090909,4,2,22,80,0,0
83276,-90.9090909090909,4,2,22,80,0,0
83355,-90.9090909090909,4,2,22,80,0,0
83592,-90.9090909090909,4,2,22,5,0,0
83671,-71.4285714285714,4,2,22,80,0,0
83987,-71.4285714285714,4,2,22,60,0,0
84145,-71.4285714285714,4,2,22,80,0,0
84303,-90.9090909090909,4,2,22,80,0,0
84539,-90.9090909090909,4,2,22,5,0,0
84618,-90.9090909090909,4,2,22,80,0,0
84934,-76.9230769230769,4,2,22,80,0,0
85171,-71.4285714285714,4,2,22,5,0,0
85250,-71.4285714285714,4,2,22,80,0,0
86197,-71.4285714285714,4,2,22,80,0,0
86513,-71.4285714285714,4,2,22,60,0,0
86671,-83.3333333333333,4,2,22,80,0,0
86987,-100,4,2,22,80,0,0
87460,-71.4285714285714,4,2,22,80,0,0
87698,-71.4285714285714,4,2,22,5,0,0
87776,-83.3333333333333,4,2,22,60,0,0
87934,-83.3333333333333,4,2,22,80,0,0
88171,-83.3333333333333,4,2,22,5,0,0
88250,-83.3333333333333,4,2,22,80,0,0
88329,-83.3333333333333,4,2,22,5,0,0
88408,-83.3333333333333,4,2,22,80,0,0
88487,-83.3333333333333,4,2,22,5,0,0
88566,-83.3333333333333,4,2,22,80,0,0
88645,-83.3333333333333,4,2,22,5,0,0
88724,-71.4285714285714,4,2,22,80,0,0
88961,-71.4285714285714,4,2,22,5,0,0
89040,-71.4285714285714,4,2,22,80,0,0
89197,-83.3333333333333,4,2,22,80,0,0
89513,-100,4,2,22,80,0,0
90224,-71.4285714285714,4,2,22,5,0,0
90303,-83.3333333333333,4,2,22,80,0,0
90618,-71.4285714285714,4,2,22,80,0,0
90855,-71.4285714285714,4,2,22,5,0,0
90934,-66.6666666666667,4,2,22,80,0,0
91250,-71.4285714285714,4,2,22,80,0,0
91487,-71.4285714285714,4,2,22,5,0,0
91566,-71.4285714285714,4,2,22,80,0,0
92671,-71.4285714285714,4,2,22,60,0,0
93460,-90.9090909090909,4,2,22,60,0,0
93539,-90.9090909090909,4,2,22,80,0,0
93776,-71.4285714285714,4,2,22,80,0,0
94013,-71.4285714285714,4,2,22,5,0,0
94092,-83.3333333333333,4,2,22,80,0,0
94645,-83.3333333333333,4,2,22,5,0,0
94724,-83.3333333333333,4,2,22,80,0,0
95039,-71.4285714285714,4,2,22,80,0,0
95277,-71.4285714285714,4,2,22,5,0,0
95355,-71.4285714285714,4,2,22,80,0,0
96303,-83.3333333333333,4,2,22,80,0,0
96934,-111.111111111111,4,2,22,80,0,0
97171,-71.4285714285714,4,2,22,5,0,0
97250,-71.4285714285714,4,2,22,80,0,0
97566,-83.3333333333333,4,2,22,80,0,0
97803,-83.3333333333333,4,2,22,5,0,0
97882,-83.3333333333333,4,2,22,80,0,0
98198,-71.4285714285714,4,2,22,80,0,0
98750,-66.6666666666667,4,2,22,5,0,0
98829,-71.4285714285714,4,2,22,80,0,0
100092,-62.5,4,2,22,80,0,0
100723,-62.5,4,2,22,50,0,0
100803,-62.5,4,2,22,5,0,0
100881,-62.5,4,2,22,53,0,0
101039,-62.5,4,2,22,80,0,0
101276,-62.5,4,2,22,5,0,0
101355,-71.4285714285714,4,2,22,80,0,0
101592,-71.4285714285714,4,2,22,5,0,0
101671,-71.4285714285714,4,2,22,80,0,0
102618,-62.5,4,2,22,80,0,0
102855,-71.4285714285714,4,2,22,80,0,0
102934,-142.857142857143,4,2,22,30,0,0
103091,-142.857142857143,4,2,22,32,0,0
103250,-125,4,2,22,35,0,0
103407,-125,4,2,22,37,0,0
103566,-111.111111111111,4,2,22,40,0,0
103881,-62.5,4,2,22,45,0,0
104038,-62.5,4,2,22,47,0,0
104119,-71.4285714285714,4,2,22,47,0,0
104197,-62.5,4,2,22,50,0,0
104355,-71.4285714285714,4,2,22,50,0,0
104513,-71.4285714285714,4,2,22,55,0,0
105303,-71.4285714285714,4,2,22,60,0,0
105460,-83.3333333333333,4,2,22,60,0,0
105776,-83.3333333333333,4,2,22,65,0,0
116434,-83.3333333333333,4,2,22,5,0,0
116513,-76.9230769230769,4,2,22,65,0,0
116750,-76.9230769230769,4,2,22,5,0,0
116829,-90.9090909090909,4,2,22,65,0,0
117776,-83.3333333333333,4,2,22,65,0,0
118013,-83.3333333333333,4,2,22,5,0,0
118092,-76.9230769230769,4,2,22,65,0,0
118329,-71.4285714285714,4,2,22,5,0,0
118408,-90.9090909090909,4,2,22,65,0,0
118645,-71.4285714285714,4,2,22,5,0,0
118724,-111.111111111111,4,2,22,65,0,0
118960,-111.111111111111,4,2,22,5,0,0
119039,-111.111111111111,4,2,22,65,0,0
119276,-111.111111111111,4,2,22,5,0,0
119355,-111.111111111111,4,2,22,65,0,0
120303,-100,4,2,22,65,0,0
120539,-100,4,2,22,5,0,0
120618,-100,4,2,22,65,0,0
120934,-83.3333333333333,4,2,22,65,0,0
121171,-71.4285714285714,4,2,22,5,0,0
121250,-76.9230769230769,4,2,22,65,0,0
121566,-71.4285714285714,4,2,22,65,0,0
121803,-71.4285714285714,4,2,22,5,0,0
121881,-83.3333333333333,4,2,22,65,0,0
122829,-66.6666666666667,4,2,22,65,0,0
123066,-66.6666666666667,4,2,22,5,0,0
123145,-83.3333333333333,4,2,22,65,0,0
123460,-111.111111111111,4,2,22,65,0,0
123698,-71.4285714285714,4,2,22,5,0,0
123776,-90.9090909090908,4,2,22,65,0,0
124013,-90.9090909090908,4,2,22,5,0,0
124092,-66.6666666666667,4,2,22,65,0,0
124329,-66.6666666666667,4,2,22,5,0,0
124408,-76.9230769230769,4,2,22,65,0,0
125671,-71.4285714285714,4,2,22,65,0,0
125829,-62.5,4,2,22,65,0,0
126618,-71.4285714285714,4,2,22,65,0,0
126855,-71.4285714285714,4,2,22,5,0,0
126934,-90.9090909090909,4,2,22,65,0,0
127250,-83.3333333333333,4,2,22,65,0,0
127566,-76.9230769230769,4,2,22,65,0,0
127803,-76.9230769230769,4,2,22,5,0,0
127881,-66.6666666666667,4,2,22,65,0,0
128118,-66.6666666666667,4,2,22,5,0,0
128197,-90.9090909090909,4,2,22,65,0,0
128513,-83.3333333333333,4,2,22,65,0,0
128829,-76.9230769230769,4,2,22,65,0,0
129066,-76.9230769230769,4,2,22,5,0,0
129145,-66.6666666666667,4,2,22,65,0,0
129381,-66.6666666666667,4,2,22,5,0,0
129460,-76.9230769230769,4,2,22,65,0,0
129698,-71.4285714285714,4,2,22,5,0,0
129776,-66.6666666666667,4,2,22,65,0,0
130013,-71.4285714285714,4,2,22,5,0,0
130092,-83.3333333333333,4,2,22,65,0,0
130329,-83.3333333333333,4,2,22,5,0,0
130408,-66.6666666666667,4,2,22,65,0,0
130645,-66.6666666666667,4,2,22,5,0,0
130723,-66.6666666666667,4,2,22,65,0,0
131039,-90.9090909090909,4,2,22,65,0,0
131277,-71.4285714285714,4,2,22,5,0,0
131355,-76.9230769230769,4,2,22,65,0,0
131592,-76.9230769230769,4,2,22,5,0,0
131671,-90.9090909090909,4,2,22,65,0,0
131987,-83.3333333333333,4,2,22,65,0,0
132303,-76.9230769230769,4,2,22,65,0,0
132618,-90.9090909090909,4,2,22,65,0,0
132855,-90.9090909090909,4,2,22,5,0,0
132934,-66.6666666666667,4,2,22,65,0,0
133171,-66.6666666666667,4,2,22,5,0,0
133250,-90.9090909090909,4,2,22,65,0,0
133566,-83.3333333333333,4,2,22,65,0,0
133881,-76.9230769230769,4,2,22,65,0,0
134118,-76.9230769230769,4,2,22,5,0,0
134197,-66.6666666666667,4,2,22,65,0,0
134434,-66.6666666666667,4,2,22,5,0,0
134513,-66.6666666666667,4,2,22,65,0,0
134829,-66.6666666666667,4,2,0,65,0,0
134987,-66.6666666666667,4,2,22,65,0,0
135303,-58.8235294117647,4,2,22,65,0,0
135776,-125,4,2,3,45,0,0
135934,-125,4,2,22,65,0,0
136013,-125,4,2,22,5,0,0
136092,-125,4,2,22,65,0,0
137040,-125,4,2,22,34,0,0
137197,-125,4,2,22,34,0,0

[Colours]
Combo1 : 166,11,69
Combo2 : 201,244,252
Combo3 : 150,196,184
Combo4 : 204,156,79
Combo5 : 154,79,6
Combo6 : 207,205,205
Combo7 : 139,139,139
Combo8 : 232,38,91

[HitObjects]
15,72,2829,38,0,P|79:122|196:91,1,187.19999428711,14|0,0:2|0:0,0:0:0:0:
96,149,3145,2,0,P|83:198|61:252,1,93.5999971435548,10|0,0:2|1:2,0:0:0:0:
218,47,3461,2,0,P|230:34|287:50,1,46.7999985717774,10|0,1:2|0:0,0:0:0:0:
178,106,3619,1,0,1:2:0:0:
158,217,3777,2,0,P|134:283|116:359,1,140.399995715332,10|0,0:2|0:0,0:0:0:0:
211,304,4092,6,0,P|308:330|355:415,1,171.600005236817,10|0,0:2|0:0,0:0:0:0:
261,384,4408,102,0,B|212:341|270:251|298:318|349:248|297:186,1,202.799990716553,10|0,0:2|0:0,0:0:0:0:
261,170,4724,2,0,B|227:164|217:128|240:94|240:94|229:121|242:159|305:168,1,171.600005236817,10|0,0:2|0:0,0:0:0:0:
166,68,5040,2,0,P|234:55|274:0,1,140.399995715332,10|0,0:2|0:0,0:0:0:0:
160,52,5355,5,10,0:2:0:0:
94,79,5513,1,0,1:2:0:0:
19,48,5671,101,8,0:2:0:0:
106,101,5829,1,0,1:2:0:0:
17,237,5987,5,8,0:2:0:0:
170,172,6145,1,0,1:2:0:0:
42,142,6303,101,10,0:2:0:0:
38,152,6461,1,0,1:2:0:0:
141,261,6619,6,0,P|208:271|216:358,1,140.399995715332,8|0,0:2|0:0,0:0:0:0:
157,357,6934,2,0,P|119:363|66:393,1,93.5999971435548,8|0,0:2|1:2,0:0:0:0:
242,228,7250,102,0,P|336:283|420:304,1,171.600005236817,10|0,0:2|0:0,0:0:0:0:
319,314,7566,2,0,P|242:343|278:412,1,135.199993811035,10|0,0:2|1:2,0:0:0:0:
245,210,7882,6,0,B|175:157|228:77|272:152|318:60|242:-7,1,218.399993334961,14|0,0:2|0:0,0:0:0:0:
289,121,8198,2,0,P|320:127|346:222,1,114.400003491211,10|0,0:2|1:2,0:0:0:0:
195,61,8513,1,10,0:2:0:0:
135,101,8671,1,0,1:2:0:0:
9,71,8829,1,10,0:2:0:0:
15,64,8987,1,0,1:2:0:0:
107,27,9145,102,0,B|189:83|189:83|151:130|139:173,1,202.799990716553,14|0,0:2|0:0,0:0:0:0:
0,283,9461,2,0,P|55:261|104:226,1,93.5999971435548,10|0,0:2|1:2,0:0:0:0:
274,384,9777,6,0,P|208:331|237:241,1,171.600005236817,10|0,0:2|0:0,0:0:0:0:
164,310,10092,2,0,P|97:335|32:380,1,135.199993811035,10|0,0:2|1:2,0:0:0:0:
231,155,10408,102,0,P|300:193|421:234,1,171.600005236817,14|0,0:2|0:0,0:0:0:0:
434,172,10724,2,0,B|459:162|469:129|450:107|450:107|457:133|450:159|412:177,1,145.599995556641,8|0,0:2|1:2,0:0:0:0:
167,109,11040,5,10,0:2:0:0:
283,210,11198,101,2,1:2:0:0:
343,162,11355,5,2,1:2:0:0:
157,104,11513,102,0,B|143:92|133:87|133:87|142:25|91:-6|26:11|26:11|78:43|48:127,1,270.399987622071,14|2,0:2|1:2,0:0:0:0:
237,82,11987,2,0,P|183:102|172:217,1,156,8|0,0:2|0:0,0:0:0:0:
106,240,12303,1,8,0:2:0:0:
88,246,12382,1,8,3:0:0:0:
73,256,12461,1,0,1:2:0:0:
2,150,12619,6,0,P|-9:147|1:154,1,31.1999990478516,8|0,0:2|0:0,0:0:0:0:
72,163,12777,1,0,1:2:0:0:
209,316,12934,102,0,P|270:332|417:409,1,187.19999428711,14|0,0:2|0:0,0:0:0:0:
434,329,13250,2,0,P|470:290|434:248,1,93.5999971435548,10|0,0:2|1:2,0:0:0:0:
263,246,13566,2,0,P|290:261|321:268,1,46.7999985717774,10|0,0:2|0:0,0:0:0:0:
203,209,13724,1,0,1:2:0:0:
386,166,13882,2,0,P|450:137|512:104,1,140.399995715332,10|0,0:2|0:0,0:0:0:0:
512,196,14197,6,0,P|447:139|470:24,1,171.600005236817,10|0,0:2|0:0,0:0:0:0:
346,83,14513,102,0,B|334:10|261:5|279:68|183:54|193:-23,1,202.799990716553,10|0,0:2|0:0,0:0:0:0:
151,77,14829,2,0,B|120:117|145:171|191:124|226:214|154:244,1,171.600005236817,10|0,0:2|0:0,0:0:0:0:
282,234,15145,2,0,B|315:242|346:193|309:202|337:143|393:168,1,140.399995715332,10|0,0:2|0:0,0:0:0:0:
274,123,15461,5,10,0:2:0:0:
208,156,15619,1,0,1:2:0:0:
130,125,15777,1,8,0:2:0:0:
44,154,15934,1,0,1:2:0:0:
162,237,16092,102,0,P|123:278|102:376,2,124.799996191406,10|0|8,0:2|1:2|0:2,0:0:0:0:
207,174,16566,1,0,1:2:0:0:
72,274,16724,6,0,P|154:293|184:379,2,156.000005950928,10|0|8,0:2|1:2|0:2,0:0:0:0:
21,226,17198,1,0,1:2:0:0:
61,107,17355,101,10,0:2:0:0:
130,125,17513,1,0,1:2:0:0:
188,75,17671,2,0,P|237:49|324:-6,1,124.8,10|0,0:2|0:0,0:0:0:0:
74,29,17987,6,0,P|172:114|186:234,1,234.000008926392,14|0,0:2|0:0,0:0:0:0:
224,143,18303,2,0,P|274:114|350:78,1,104,8|0,0:2|1:2,0:0:0:0:
366,383,18619,102,0,P|341:354|344:304,2,72.7999977783204,10|0|8,0:2|1:2|0:2,0:0:0:0:
373,260,19092,1,0,1:2:0:0:
238,324,19250,6,0,P|251:284|301:259,2,93.5999971435548,10|0|8,0:2|1:2|0:2,0:0:0:0:
373,260,19724,1,0,1:2:0:0:
232,164,19882,102,0,P|281:154|336:190,2,114.400003491211,10|0|8,0:2|1:2|0:2,0:0:0:0:
373,260,20355,1,0,1:2:0:0:
512,0,20513,6,0,P|478:74|416:198,2,156.000005950928,10|0|8,0:2|1:2|0:2,0:0:0:0:
436,158,20987,1,0,1:2:0:0:
321,110,21145,101,8,3:0:0:0:
215,163,21303,5,4,3:0:0:0:
137,129,21461,101,4,3:0:0:0:
23,376,21619,6,0,B|-24:303|-24:303|78:234|78:234|62:312,1,270.399987622071,12|0,0:2|1:2,0:0:0:0:
264,283,22092,1,8,0:2:0:0:
200,316,22250,1,0,1:2:0:0:
352,325,22408,102,0,P|334:354|320:384,1,67.5999969055177,8|0,0:2|0:0,0:0:0:0:
141,277,22566,1,0,1:2:0:0:
321,161,22882,21,2,0:2:0:0:
345,232,23040,2,0,P|434:282|543:323,1,187.19999428711,6|8,1:2|0:2,0:0:0:0:
452,75,23513,5,2,1:2:0:0:
407,127,23671,1,2,0:2:0:0:
464,163,23829,1,2,1:2:0:0:
512,113,23987,1,2,0:2:0:0:
393,128,24145,102,0,B|345:149|314:107|355:99|320:54|265:73,1,145.599995556641,10|2,0:2|1:2,0:0:0:0:
142,1,24619,2,0,P|136:63|187:97,1,109.199996667481,8|0,1:2|0:0,0:0:0:0:
174,97,24934,2,0,P|136:112|91:144,1,72.7999977783204,0|0,0:0|1:2,0:0:0:0:
223,25,25250,1,8,0:2:0:0:
279,69,25408,1,2,0:2:0:0:
250,141,25566,6,0,P|297:181|285:246,1,109.199996667481,2|0,1:2|0:0,0:0:0:0:
297,224,25882,1,8,0:2:0:0:
225,297,26040,101,2,0:2:0:0:
291,329,26198,1,2,1:2:0:0:
209,229,26355,1,2,1:2:0:0:
124,319,26671,6,0,P|76:340|-32:406,1,140.399995715332,10|0,0:2|0:0,0:0:0:0:
0,370,26987,2,0,P|31:352|64:337,1,72.7999977783204,2|8,1:2|0:2,0:0:0:0:
0,176,27303,2,0,P|-6:240|40:260,1,109.199996667481,2|0,1:2|0:0,0:0:0:0:
30,176,27619,2,0,P|11:142|-6:99,1,72.7999977783204,2|10,1:2|0:2,0:0:0:0:
92,214,27934,1,2,0:2:0:0:
79,101,28092,102,0,P|136:79|230:31,2,145.599995556641,0|8|0,1:2|0:2|0:2,0:0:0:0:
126,42,28882,1,0,1:2:0:0:
158,110,29040,2,0,P|205:121|226:162,1,72.7999977783204,2|8,0:2|0:2,0:0:0:0:
297,4,29355,6,0,P|305:74|354:97,1,109.199996667481,2|0,0:0|0:0,0:0:0:0:
368,29,29671,1,10,0:2:0:0:
393,333,29987,101,2,0:2:0:0:
357,273,30145,1,0,1:2:0:0:
388,211,30303,1,10,0:2:0:0:
461,279,30619,6,0,B|404:248|357:306|411:311|356:383|282:332,2,187.19999428711,6|8|0,1:2|0:2|1:2,0:0:0:0:
443,355,31408,1,0,1:2:0:0:
257,294,31566,101,10,0:2:0:0:
194,321,31724,1,2,1:2:0:0:
78,273,31882,1,8,3:2:0:0:
22,229,32040,53,8,3:0:0:0:
61,342,32355,1,2,1:2:0:0:
146,254,32671,1,6,3:0:0:0:
78,273,32829,1,12,3:0:0:0:
238,340,32987,5,2,0:2:0:0:
171,384,33145,2,0,P|206:316|254:206,1,187.19999428711,6|8,1:2|0:2,0:0:0:0:
307,171,33619,1,2,0:2:0:0:
206,124,33777,37,2,0:2:0:0:
145,159,33934,1,2,1:2:0:0:
73,137,34092,1,2,0:2:0:0:
0,153,34250,6,0,P|80:189|160:247,1,166.4,10|2,0:2|1:2,0:0:0:0:
6,0,34724,2,0,B|11:51|70:61|70:8|126:32|130:96,2,166.4,8|0|8,0:2|0:0|0:2,0:0:0:0:
137,89,35513,101,2,0:2:0:0:
179,146,35671,2,0,P|223:173|303:206,1,124.8,0|0,1:2|0:0,0:0:0:0:
290,201,35987,1,10,0:2:0:0:
361,175,36145,1,2,0:2:0:0:
462,244,36303,1,2,0:2:0:0:
397,271,36461,2,0,P|359:327|410:397,1,124.8,2|0,1:2|0:0,0:0:0:0:
459,229,36777,6,0,B|413:182|460:106|500:169|559:97|486:24,1,208,10|2,0:2|1:2,0:0:0:0:
373,41,37250,1,10,0:2:0:0:
329,97,37408,2,0,P|249:126|173:174,1,156,2|0,0:2|0:0,0:0:0:0:
188,162,37724,1,2,1:2:0:0:
78,0,37882,2,0,P|137:46|115:99,1,109.199996667481,8|0,0:2|0:0,0:0:0:0:
88,125,38198,102,0,P|-7:179|-1:264,2,187.19999428711,6|8|0,1:2|0:2|0:0,0:0:0:0:
77,14,38987,1,0,1:2:0:0:
20,53,39145,1,2,0:2:0:0:
148,85,39303,6,0,P|119:156|95:246,1,145.599995556641,10|0,0:2|1:2,0:0:0:0:
0,277,39777,2,0,P|59:304|59:345,1,109.199996667481,8|0,0:2|0:0,0:0:0:0:
47,335,40092,102,0,P|125:353|212:395,1,156,2|2,0:2|1:2,0:0:0:0:
268,320,40724,6,0,P|363:296|467:252,1,171.600005236817,6|0,1:2|0:0,0:0:0:0:
418,384,41040,2,0,P|402:335|342:332,1,104,8|2,0:2|0:2,0:0:0:0:
276,184,41355,2,0,P|219:231|227:270,1,104,0|2,0:0|1:2,0:0:0:0:
241,93,41671,37,10,0:2:0:0:
343,152,41829,1,2,1:2:0:0:
208,272,41987,6,0,B|106:238|106:238|149:283|127:348,1,187.19999428711,10|0,3:0|0:0,0:0:0:0:
61,305,42303,1,0,1:2:0:0:
166,183,42461,101,8,0:2:0:0:
110,131,42619,2,0,P|70:121|-13:90,1,104,2|0,1:2|1:2,0:0:0:0:
280,7,42934,6,0,P|235:52|248:104,1,109.199996667481,10|0,0:2|0:0,0:0:0:0:
111,29,43250,38,0,P|201:76|239:212,1,208,6|2,1:2|0:2,0:0:0:0:
326,76,43724,2,0,P|363:63|431:38,1,83.2,2|8,1:2|0:2,0:0:0:0:
494,127,44040,1,2,0:2:0:0:
428,157,44198,2,0,P|410:175|411:208,3,41.6,2|0|8|8,1:2|1:2|0:2|0:2,0:0:0:0:
344,155,44513,5,0,1:2:0:0:
391,263,44671,1,8,0:2:0:0:
371,330,44829,1,0,0:0:0:0:
373,343,44987,1,2,1:2:0:0:
304,294,45145,102,0,P|248:320|173:347,1,124.8,10|0,0:2|0:0,0:0:0:0:
128,384,45461,1,2,1:2:0:0:
0,112,45777,6,0,P|70:137|58:269,1,208,2|2,1:2|0:2,0:0:0:0:
57,160,46250,1,2,1:2:0:0:
130,182,46408,2,0,P|174:155|212:141,1,83.2,8|0,0:2|0:0,0:0:0:0:
178,0,46724,2,0,P|119:8|104:66,1,124.8,2|8,1:2|0:2,0:0:0:0:
31,41,47040,101,0,1:2:0:0:
25,33,47198,1,8,0:2:0:0:
220,72,47355,2,0,P|258:57|312:29,1,83.2,2|0,0:2|1:2,0:0:0:0:
411,199,47671,2,0,P|348:172|365:99,1,124.8,10|0,0:2|0:0,0:0:0:0:
375,58,47987,6,0,P|393:46|432:31,3,41.6,2|0|8|8,1:2|1:2|0:2|0:2,0:0:0:0:
345,122,48303,38,0,B|271:114|251:174|251:174|270:235|196:275,1,208,12|2,0:2|1:2,0:0:0:0:
179,195,48777,1,2,0:2:0:0:
59,384,48934,2,0,P|75:338|99:277,2,104,12|0|2,0:2|0:0|1:2,0:0:0:0:
167,270,49408,1,2,0:2:0:0:
46,103,49566,6,0,P|86:132|82:182,1,104,12|0,0:2|0:0,0:0:0:0:
12,178,49882,1,2,1:2:0:0:
3,172,50040,1,0,0:0:0:0:
129,115,50198,101,14,0:2:0:0:
213,145,50355,1,0,0:0:0:0:
287,36,50513,5,2,1:2:0:0:
120,118,50671,1,0,0:0:0:0:
334,157,50829,102,0,B|376:142|376:142|382:89|424:49|496:74|496:74|463:107|474:166,1,249.599992382813,6|0,1:2|1:2,0:0:0:0:
316,166,51303,1,2,1:2:0:0:
403,0,51461,6,0,B|338:52|405:154|463:67|504:185|442:232,1,270.399987622071,14|0,2:2|1:2,0:0:0:0:
304,344,51934,101,2,0:2:0:0:
225,283,52092,2,0,P|344:327|445:364,1,228.800006982422,6|2,1:2|1:2,0:0:0:0:
304,344,52566,5,2,1:2:0:0:
462,361,52724,2,0,P|343:317|242:280,1,228.800006982422,14|2,0:2|1:2,0:0:0:0:
304,344,53198,1,2,0:2:0:0:
0,264,53355,38,0,B|35:231|35:231|128:272|128:272|103:344|162:388,1,270.399987622071,6|2,1:2|0:2,0:0:0:0:
149,248,53829,2,0,P|170:217|144:131,1,93.5999971435548,2|8,1:2|0:2,0:0:0:0:
85,88,54145,1,2,0:2:0:0:
27,145,54303,5,8,1:2:0:0:
37,143,54382,2,0,P|12:129|-13:122,2,46.7999985717774,8|8|8,0:2|0:2|0:2,0:0:0:0:
19,56,54619,101,0,1:2:0:0:
98,189,54777,1,10,0:2:0:0:
168,162,54934,1,0,0:0:0:0:
214,188,55092,1,2,1:2:0:0:
143,41,55250,6,0,P|219:45|265:-12,1,140.399995715332,10|0,0:2|0:0,0:0:0:0:
236,83,55566,1,10,1:2:0:0:
238,73,55645,2,0,P|251:97|259:126,2,46.7999985717774,8|8|8,0:2|0:2|0:2,0:0:0:0:
315,51,55882,101,2,1:2:0:0:
423,133,56040,1,8,0:2:0:0:
326,149,56198,6,0,P|336:172|366:230,1,46.7999985717774,2|0,0:2|0:0,0:0:0:0:
455,68,56355,2,0,P|444:45|415:-13,1,46.7999985717774,2|0,1:2|0:0,0:0:0:0:
423,133,56513,1,8,0:2:0:0:
490,234,56671,101,2,0:2:0:0:
435,274,56829,2,0,P|342:329|318:399,1,171.600005236817,2|8,1:2|0:2,0:0:0:0:
323,282,57145,2,0,P|304:275|319:286,1,57.2000017456055,0|0,1:2|0:0,0:0:0:0:
381,327,57303,1,8,0:2:0:0:
435,274,57461,5,2,1:2:0:0:
65,384,57777,102,0,P|84:311|104:207,1,156,10|0,0:2|0:0,0:0:0:0:
148,384,58092,2,0,P|157:334|170:286,1,83.2,2|0,1:2|0:0,0:0:0:0:
113,157,58408,54,0,P|126:140|116:160,1,62.3999980957032,12|0,0:2|0:0,0:0:0:0:
45,185,58566,1,2,1:2:0:0:
56,115,58724,1,2,1:2:0:0:
228,182,58882,6,0,B|322:205|322:205|367:216|340:257|414:267,1,187.19999428711,2|0,1:2|0:0,0:0:0:0:
443,214,59198,1,2,1:2:0:0:
480,275,59355,1,2,1:2:0:0:
182,250,59513,102,0,B|276:273|276:273|321:284|294:325|368:335,1,187.19999428711,2|0,1:2|0:0,0:0:0:0:
273,377,59829,5,2,1:2:0:0:
182,250,59987,101,2,1:2:0:0:
262,94,60145,5,2,1:2:0:0:
257,83,60303,1,8,0:2:0:0:
193,41,60461,101,2,1:2:0:0:
333,133,60619,5,2,1:2:0:0:
123,204,60777,101,2,1:2:0:0:
89,139,60934,54,0,B|157:122|193:41|193:41|157:130|217:193,1,291.2,14|0,0:2|0:0,0:0:0:0:
246,234,61566,6,0,P|264:244|287:264,3,27.7333333333333,2|2|2|2,0:2|0:0|0:0|0:2,0:0:0:0:
269,248,61882,1,2,0:2:0:0:
80,0,62671,102,0,P|87:22|100:52,1,41.6,0|0,1:2|1:2,0:0:0:0:
63,102,62829,5,8,0:2:0:0:
213,27,62987,101,8,0:2:0:0:
421,129,63145,5,8,0:2:0:0:
484,11,63461,38,0,B|504:60|468:108|415:109|395:50|330:56|285:104|349:192,1,249.6,14|0,0:2|0:0,0:0:0:0:
227,117,63777,2,0,P|300:155|328:257,1,145.599995556641,8|2,0:2|1:2,0:0:0:0:
301,23,64092,5,10,0:2:0:0:
115,148,64250,1,0,1:2:0:0:
73,53,64408,1,8,0:2:0:0:
137,82,64566,1,0,1:2:0:0:
19,302,64724,102,0,B|-26:219|-26:219|31:148|31:148|32:183|77:232,1,249.6,10|0,0:2|0:0,0:0:0:0:
94,276,65040,2,0,P|145:238|240:194,1,145.599995556641,8|0,0:2|1:2,0:0:0:0:
1,87,65355,5,10,0:2:0:0:
139,158,65513,1,0,1:2:0:0:
177,100,65671,2,0,P|213:82|264:48,1,93.5999971435548,10|0,0:2|0:0,0:0:0:0:
31,150,65987,102,0,P|100:237|187:403,1,249.6,8|0,0:2|0:0,0:0:0:0:
94,276,66303,1,10,0:2:0:0:
325,171,66461,2,0,P|290:214|247:297,1,135.199993811035,2|8,1:2|0:2,0:0:0:0:
512,322,66777,2,0,P|477:278|434:195,1,114.400003491211,2|8,1:2|0:2,0:0:0:0:
512,183,67092,1,2,1:2:0:0:
294,0,67250,6,0,P|353:87|464:83,1,202.799990716553,8|0,0:2|0:0,0:0:0:0:
503,49,67566,2,0,B|522:42|532:21|519:-6|519:-6|523:17|514:35|490:47,1,114.400003491211,8|0,0:2|1:2,0:0:0:0:
312,102,67882,101,10,1:2:0:0:
246,78,68040,5,2,1:2:0:0:
138,120,68198,101,10,0:2:0:0:
1,77,68355,5,2,1:2:0:0:
151,128,68513,102,0,B|100:182|135:270|183:187|234:285|173:345,1,234.000008926392,10|0,0:2|0:0,0:0:0:0:
90,350,68829,1,10,0:2:0:0:
82,186,68987,2,0,B|39:186|46:144|46:144|91:144|74:220,1,124.799996191406,2|8,1:2|0:2,0:0:0:0:
21,349,69303,1,2,1:2:0:0:
53,287,69461,1,8,0:2:0:0:
124,291,69619,1,2,1:2:0:0:
225,161,69777,6,0,P|296:208|418:225,1,171.600005236817,8|0,0:2|0:0,0:0:0:0:
381,303,70092,2,0,B|386:347|344:359|344:359|378:334|363:280,1,135.199993811035,10|0,0:2|1:2,0:0:0:0:
180,240,70408,102,0,P|310:205|331:121,1,218.399993334961,10|0,0:2|0:0,0:0:0:0:
302,70,70724,2,0,B|274:55|288:20|288:20|322:34|310:81,1,114.400003491211,10|0,0:2|1:2,0:0:0:0:
345,358,71040,6,0,P|334:266|186:152,1,249.6,10|0,0:2|0:0,0:0:0:0:
151,172,71355,1,10,0:2:0:0:
86,2,71513,2,0,P|166:38|171:88,1,135.199993811035,2|8,1:2|0:2,0:0:0:0:
32,252,71829,2,0,P|96:256|104:216,1,104,2|8,1:2|0:2,0:0:0:0:
107,112,72145,1,2,1:2:0:0:
326,22,72303,102,0,B|362:86|288:126|270:76|195:101|234:214,1,202.799990716553,10|0,0:2|0:0,0:0:0:0:
220,242,72619,2,0,B|244:316|244:316|247:218,1,145.599995556641,8|0,0:2|1:2,0:0:0:0:
262,65,72934,5,10,1:2:0:0:
294,129,73092,101,2,1:2:0:0:
226,233,73250,5,10,0:2:0:0:
286,373,73408,101,2,1:2:0:0:
405,163,73566,6,0,P|296:101|186:91,1,234.000008926392,12|0,0:2|0:0,0:0:0:0:
272,73,73882,2,0,P|335:49|323:-14,1,124.799996191406,8|2,0:2|1:2,0:0:0:0:
482,227,74198,102,0,B|460:263|423:277|423:277|401:362|493:346,1,187.19999428711,10|0,0:2|0:0,0:0:0:0:
483,208,74513,1,8,0:2:0:0:
342,316,74829,6,0,B|422:274|472:348|472:348|436:354|399:400,1,218.399993334961,10|0,0:2|0:0,0:0:0:0:
333,302,75145,1,10,0:2:0:0:
275,370,75303,2,0,P|197:370|168:313,1,124.799996191406,2|8,1:2|0:2,0:0:0:0:
420,286,75619,1,2,1:2:0:0:
415,303,75777,1,8,0:2:0:0:
490,160,75934,101,2,1:2:0:0:
414,382,76092,6,0,P|446:276|497:145,1,234.000008926392,8|0,0:2|0:0,0:0:0:0:
420,119,76408,2,0,B|401:83|366:104|366:104|376:149|455:120,1,124.799996191406,8|0,0:2|1:2,0:0:0:0:
168,6,76724,102,0,P|269:129|264:257,1,249.6,10|0,0:2|0:0,0:0:0:0:
284,79,77040,2,0,B|288:30|331:33|331:33|294:47|284:99,1,135.199993811035,8|0,0:2|1:2,0:0:0:0:
210,372,77355,5,10,0:2:0:0:
168,196,77513,1,0,1:2:0:0:
367,107,77671,1,8,0:2:0:0:
395,176,77829,1,0,1:2:0:0:
359,242,77987,101,10,0:2:0:0:
370,261,78145,5,0,1:2:0:0:
367,267,78303,101,8,0:2:0:0:
443,120,78461,6,0,P|454:91|490:79,1,41.6,2|0,1:2|0:0,0:0:0:0:
265,242,78619,86,0,B|271:278|247:310|177:311|212:266|149:254|106:299|134:382,1,218.399993334961,12|0,0:2|0:0,0:0:0:0:
53,119,78934,102,0,B|25:142|23:182|76:228|78:171|134:202|138:264|63:310,1,218.399993334961,8|0,0:2|0:0,0:0:0:0:
55,361,79250,5,8,0:2:0:0:
15,300,79408,1,0,1:2:0:0:
146,104,79566,101,8,0:2:0:0:
192,187,79724,1,0,1:2:0:0:
127,350,79882,5,8,0:2:0:0:
50,231,80040,1,0,1:2:0:0:
218,118,80198,101,8,0:2:0:0:
395,230,80355,5,0,1:2:0:0:
507,209,80513,102,0,P|437:242|412:367,1,171.600005236817,8|0,0:2|0:0,0:0:0:0:
122,384,80829,2,0,P|144:369|120:381,1,72.7999977783204,10|0,0:2|0:0,0:0:0:0:
462,384,81145,6,0,P|417:195|395:96,1,234.000008926392,8|0,0:2|0:2,0:0:0:0:
398,56,81461,1,8,0:2:0:0:
456,99,81619,1,8,0:2:0:0:
509,49,81777,101,8,0:2:0:0:
323,145,81934,1,8,0:2:0:0:
264,108,82092,1,8,0:2:0:0:
332,153,82250,1,8,0:2:0:0:
231,6,82408,5,14,0:2:0:0:
182,245,82566,1,2,1:2:0:0:
216,323,82724,1,2,1:2:0:0:
110,328,82882,102,0,B|176:368|230:285|161:291|233:198|320:263,1,228.800006982422,10|2,0:2|1:2,0:0:0:0:
302,328,83277,1,0,1:2:0:0:
307,320,83355,2,0,P|330:331|331:375,1,57.2000017456055,8|0,0:2|0:0,0:0:0:0:
373,275,83513,1,0,0:0:0:0:
259,384,83671,22,0,P|341:227|434:107,1,291.199991113282,6|8,1:2|0:2,0:0:0:0:
121,0,84303,2,0,P|145:66|254:67,1,171.600005236817,2|0,1:2|0:0,0:0:0:0:
107,87,84619,2,0,P|54:49|-10:36,1,114.400003491211,8|0,0:2|0:0,0:0:0:0:
387,5,84934,2,0,P|336:88|265:191,1,202.799990716553,2|0,1:2|0:0,0:0:0:0:
221,231,85250,2,0,B|183:251|186:298|186:298|190:261|232:237,1,145.599995556641,8|0,0:2|1:2,0:0:0:0:
370,101,85566,5,2,1:2:0:0:
310,61,85882,1,10,0:2:0:0:
358,314,86198,102,0,B|418:266|508:299|515:376|515:376|459:343|406:389,1,291.199991113282,0|10,1:2|0:2,0:0:0:0:
512,147,86671,2,0,P|487:191|390:184,1,124.799996191406,2|0,1:2|1:2,0:0:0:0:
290,286,86987,2,0,P|323:328|355:403,1,104,2|8,1:2|0:2,0:0:0:0:
323,221,87303,6,0,P|307:200|273:135,1,52,2|0,1:2|1:2,0:0:0:0:
176,271,87461,2,0,P|54:293|-6:397,1,218.399993334961,0|0,1:2|0:0,0:0:0:0:
47,239,87777,2,0,P|84:213|64:254,1,124.799996191406,10|0,0:2|1:2,0:0:0:0:
177,370,88092,101,2,1:2:0:0:
166,345,88250,1,2,1:2:0:0:
194,259,88408,1,10,0:2:0:0:
150,139,88566,1,2,1:2:0:0:
312,14,88724,6,0,B|177:12|248:119|119:149,1,218.399993334961,6|0,1:2|0:0,0:0:0:0:
119,20,89040,2,0,P|154:26|172:57,1,72.7999977783204,10|0,0:2|0:0,0:0:0:0:
329,105,89198,2,0,P|293:171|258:263,1,124.799996191406,2|0,1:2|1:2,0:0:0:0:
149,352,89513,2,0,P|173:306|193:258,1,104,2|8,1:2|0:2,0:0:0:0:
207,187,89829,101,2,1:2:0:0:
457,351,89987,6,0,P|395:308|309:275,1,156,0|0,1:2|0:0,0:0:0:0:
353,214,90303,2,0,B|349:185|392:167|392:167|357:190|365:250,1,124.799996191406,10|0,0:2|0:0,0:0:0:0:
512,42,90619,102,0,P|442:116|309:75,1,218.399993334961,2|0,1:2|0:0,0:0:0:0:
320,29,90934,2,0,P|287:90|220:181,1,156.000005950928,10|0,0:2|0:0,0:0:0:0:
345,384,91250,6,0,P|399:289|465:202,1,218.399993334961,2|0,1:2|0:0,0:0:0:0:
512,148,91566,2,0,P|521:123|503:142,1,72.7999977783204,10|0,0:2|0:0,0:0:0:0:
394,229,91724,1,2,1:2:0:0:
489,276,92040,101,2,1:2:0:0:
423,295,92198,5,8,0:2:0:0:
302,248,92355,101,10,0:2:0:0:
137,298,92513,6,0,P|94:311|41:338,1,72.7999977783204,4|0,1:2|0:0,0:0:0:0:
241,384,92671,101,8,0:2:0:0:
262,356,92750,1,8,0:2:0:0:
257,321,92829,1,0,1:2:0:0:
207,252,92987,5,8,0:2:0:0:
202,227,93066,1,0,1:2:0:0:
218,208,93145,101,6,1:2:0:0:
261,103,93303,1,10,0:2:0:0:
149,179,93461,6,0,P|120:192|69:211,1,57.2000017456055,2|0,1:2|1:2,0:0:0:0:
315,161,93619,2,0,P|344:148|391:130,1,57.2000017456055,10|8,0:2|0:2,0:0:0:0:
23,49,93777,102,0,P|153:53|186:173,1,218.399993334961,6|0,1:2|0:0,0:0:0:0:
261,103,94092,2,0,P|313:73|318:14,1,124.799996191406,8|0,0:2|1:2,0:0:0:0:
104,79,94408,5,2,1:2:0:0:
141,15,94566,1,0,1:2:0:0:
191,119,94724,1,8,0:2:0:0:
512,52,95040,102,0,P|458:147|418:248,1,218.399993334961,2|0,1:2|0:0,0:0:0:0:
424,141,95355,2,0,P|410:118|429:136,1,72.7999977783204,10|0,0:2|0:0,0:0:0:0:
480,213,95513,5,2,1:2:0:0:
419,248,95671,1,0,1:2:0:0:
333,211,95829,1,2,1:2:0:0:
206,263,95987,1,8,0:2:0:0:
268,295,96145,101,2,1:2:0:0:
257,139,96303,2,0,P|302:262|342:389,1,249.599992382813,0|8,1:2|0:2,0:0:0:0:
338,374,96777,1,0,1:2:0:0:
355,204,96934,6,0,B|356:253|307:272|312:232|264:253|262:323,1,140.399995715332,2|0,1:2|0:0,0:0:0:0:
334,279,97250,1,8,0:2:0:0:
340,292,97408,1,0,1:2:0:0:
205,252,97566,102,0,P|294:284|318:411,1,187.19999428711,2|0,1:2|0:0,0:0:0:0:
252,364,97882,1,8,0:2:0:0:
186,380,98040,1,0,0:0:0:0:
271,185,98198,6,0,B|293:146|249:120|249:120|230:162|271:187,2,145.599995556641,2|8|8,1:2|0:2|0:2,0:0:0:0:
295,256,98671,1,2,0:2:0:0:
306,10,98829,86,0,B|300:101|180:107|206:48|90:62|96:163,1,291.199991113282,10|2,0:2|1:2,0:0:0:0:
52,89,99303,1,10,0:2:0:0:
186,227,99461,1,0,1:2:0:0:
162,298,99618,1,2,1:2:0:0:
30,184,99777,1,10,0:2:0:0:
38,202,99934,1,2,1:2:0:0:
217,5,100092,102,0,P|275:22|293:131,2,166.4,10|2|2,0:2|1:2|1:2,0:0:0:0:
231,136,100566,1,10,0:2:0:0:
396,24,100724,1,0,1:2:0:0:
461,46,100882,1,2,1:2:0:0:
331,186,101040,5,10,0:2:0:0:
344,182,101198,1,0,0:0:0:0:
192,72,101355,102,0,P|97:47|-43:-6,1,218.399993334961,6|0,1:2|0:0,0:0:0:0:
52,61,101671,2,0,P|15:75|5:136,1,72.7999977783204,2|0,1:2|0:0,0:0:0:0:
137,267,101829,5,10,0:2:0:0:
249,159,101987,1,0,1:2:0:0:
75,235,102145,1,2,1:2:0:0:
225,226,102303,1,8,0:2:0:0:
69,133,102461,2,0,P|114:149|129:205,1,72.7999977783204,2|0,1:2|1:2,0:0:0:0:
261,384,102619,102,0,P|212:329|170:130,1,249.6,8|0,0:2|0:0,0:0:0:0:
152,74,102934,6,0,P|148:85|103:93,3,36.3999988891602,8|8|8|8,0:2|0:2|0:2|0:2,0:0:0:0:
294,21,103250,1,8,0:2:0:0:
306,14,103329,2,0,P|339:34|360:47,2,41.6,8|8|8,0:2|0:2|0:2,0:0:0:0:
321,154,103566,101,10,0:2:0:0:
324,163,103645,1,8,0:2:0:0:
334,169,103724,2,0,P|304:184|285:215,1,46.7999985717774,10|8,0:2|0:2,0:0:0:0:
127,339,103882,6,0,B|101:254|183:202|189:280|263:210|239:144,1,249.6,10|8,0:2|0:2,0:0:0:0:
156,151,104198,1,10,0:2:0:0:
141,144,104277,1,8,0:2:0:0:
127,139,104355,2,0,P|87:120|40:102,1,72.7999977783204,8|8,0:2|0:2,0:0:0:0:
256,48,104513,1,10,0:2:0:0:
275,57,104592,1,8,0:2:0:0:
293,63,104671,2,0,P|344:86|406:111,1,72.7999977783204,10|8,0:2|0:2,0:0:0:0:
129,63,104829,102,0,P|148:33|168:-12,1,72.7999977783204,10|8,0:2|0:2,0:0:0:0:
295,193,104987,2,0,P|275:222|256:268,1,72.7999977783204,8|8,0:2|0:2,0:0:0:0:
46,217,105145,5,8,0:2:0:0:
41,225,105224,1,10,0:2:0:0:
82,211,105303,1,8,0:2:0:0:
115,222,105382,1,8,0:2:0:0:
120,231,105461,102,0,P|109:256|84:297,3,62.3999980957032,8|8|8|8,0:2|0:2|0:2|0:2,0:0:0:0:
233,343,105777,5,10,0:2:0:0:
248,366,105855,1,10,0:2:0:0:
296,384,105934,1,8,0:2:0:0:
344,371,106013,1,8,0:2:0:0:
334,363,106092,101,8,0:2:0:0:
352,343,106171,5,8,0:2:0:0:
330,316,106250,101,8,0:2:0:0:
358,260,106329,5,8,0:2:0:0:
353,254,106408,101,12,0:2:0:0:
256,192,113987,12,0,116039,0:0:0:0:
263,183,116198,69,8,0:2:0:0:
114,384,116513,102,0,P|96:262|-11:201,1,202.799990716553,14|0,0:2|0:0,0:0:0:0:
114,225,116829,2,0,P|146:160|232:154,1,114.400003491211,10|0,0:2|1:2,0:0:0:0:
42,53,117145,5,10,1:2:0:0:
96,96,117303,1,0,1:2:0:0:
146,41,117461,1,10,0:2:0:0:
93,0,117619,1,0,1:2:0:0:
153,46,117777,102,0,P|263:100|342:121,1,187.19999428711,10|0,0:2|0:0,0:0:0:0:
394,76,118092,2,0,B|430:60|440:26|419:-13|419:-13|429:20|418:61|369:67,1,202.799990716553,10|0,0:2|0:0,0:0:0:0:
512,76,118408,2,0,P|426:107|449:207,1,171.600005236817,10|0,0:2|0:0,0:0:0:0:
512,205,118724,2,0,P|473:274|446:351,1,140.399995715332,10|0,0:2|0:0,0:0:0:0:
392,285,119040,5,10,0:2:0:0:
367,223,119198,1,0,1:2:0:0:
301,195,119355,1,8,0:2:0:0:
227,228,119513,1,0,1:2:0:0:
211,323,119671,1,8,0:2:0:0:
286,375,119829,1,0,1:2:0:0:
322,290,119987,101,10,0:2:0:0:
314,292,120145,1,0,1:2:0:0:
230,208,120303,6,0,P|140:171|66:120,1,156,8|0,0:2|0:0,0:0:0:0:
118,207,120619,2,0,P|60:240|62:317,1,104,8|0,0:2|1:2,0:0:0:0:
246,192,120934,102,0,P|185:116|270:26,1,187.19999428711,10|0,0:2|0:0,0:0:0:0:
152,81,121250,2,0,B|151:52|129:37|95:45|95:45|133:51|161:127,1,135.199993811035,10|0,0:2|1:2,0:0:0:0:
291,114,121566,6,0,P|416:61|542:43,1,218.399993334961,14|0,0:2|0:0,0:0:0:0:
345,41,121882,2,0,P|321:5|349:35,1,124.799996191406,10|0,0:2|1:2,0:0:0:0:
457,124,122198,1,10,0:2:0:0:
429,190,122355,1,0,1:2:0:0:
468,305,122513,1,10,0:2:0:0:
478,319,122671,1,0,1:2:0:0:
500,191,122829,102,0,P|401:121|266:166,1,234.000008926392,14|0,0:2|0:0,0:0:0:0:
300,218,123145,2,0,P|352:248|352:333,1,124.799996191406,10|0,0:2|1:2,0:0:0:0:
159,378,123461,6,0,P|175:308|206:225,1,140.399995715332,10|0,0:2|0:0,0:0:0:0:
69,371,123777,2,0,P|96:296|140:158,1,171.600005236817,10|0,0:2|0:0,0:0:0:0:
20,281,124092,102,0,P|101:285|248:353,1,234.000008926392,14|0,0:2|0:0,0:0:0:0:
117,248,124408,2,0,P|118:225|123:248,1,67.5999969055177,8|0,0:2|0:0,0:0:0:0:
136,319,124566,1,0,1:2:0:0:
196,179,124724,69,8,0:2:0:0:
131,134,124882,1,2,1:2:0:0:
256,71,125040,1,10,0:2:0:0:
81,7,125198,1,2,1:2:0:0:
137,54,125355,102,0,P|174:31|237:4,2,67.5999969055177,12|0|0,0:2|1:2|1:2,0:0:0:0:
325,99,125671,6,0,P|357:115|353:176,1,72.7999977783204,8|0,0:2|0:0,0:0:0:0:
268,144,125829,2,0,P|277:184|339:190,1,83.2,0|0,1:2|0:0,0:0:0:0:
256,71,125987,101,12,0:2:0:0:
386,222,126145,1,0,1:2:0:0:
329,333,126303,5,8,0:2:0:0:
296,344,126382,1,8,0:2:0:0:
265,361,126461,1,8,0:2:0:0:
237,381,126540,1,8,0:2:0:0:
229,377,126619,102,1,P|177:268|105:166,1,218.399993334961,14|0,0:2|0:0,0:0:0:0:
195,244,126934,6,0,P|205:227|202:248,1,57.2000017456055,10|0,0:2|0:0,0:0:0:0:
153,303,127092,1,0,1:2:0:0:
52,149,127250,102,0,P|26:135|44:77,1,62.3999980957032,10|0,0:2|0:0,0:0:0:0:
122,187,127408,1,0,1:2:0:0:
224,38,127566,6,0,P|238:72|290:134,1,67.5999969055177,10|0,0:2|0:0,0:0:0:0:
126,18,127724,1,0,1:2:0:0:
89,82,127882,102,1,P|125:46|328:51,1,234.000008926392,14|0,0:2|0:0,0:0:0:0:
366,58,128198,6,0,P|406:42|457:24,1,57.2000017456055,10|0,0:2|0:0,0:0:0:0:
298,31,128355,1,0,1:2:0:0:
417,157,128513,102,0,P|451:171|432:227,1,62.3999980957032,10|0,0:2|0:0,0:0:0:0:
336,133,128671,1,0,1:2:0:0:
366,295,128829,6,0,P|388:310|377:286,1,67.5999969055177,10|0,0:2|0:0,0:0:0:0:
315,200,128987,1,0,1:2:0:0:
512,285,129145,102,1,P|445:298|296:393,1,234.000008926392,14|0,0:2|0:0,0:0:0:0:
182,250,129461,6,0,P|234:198|240:299,1,202.799990716553,8|0,0:2|0:0,0:0:0:0:
125,341,129777,102,0,P|60:276|52:407,1,234.000008926392,8|0,0:2|0:0,0:0:0:0:
207,333,130092,6,0,P|182:358|180:410,1,62.3999980957032,10|0,0:2|0:0,0:0:0:0:
105,210,130250,2,0,P|93:174|26:172,1,62.3999980957032,0|0,1:2|0:0,0:0:0:0:
328,96,130408,102,1,P|227:156|197:310,1,234.000008926392,12|0,0:2|0:0,0:0:0:0:
197,132,130724,1,8,0:2:0:0:
252,182,130882,1,0,1:2:0:0:
434,79,131040,6,0,P|356:57|285:-4,1,171.600005236817,10|0,0:2|0:0,0:0:0:0:
324,76,131355,2,0,P|282:94|261:154,1,67.5999969055177,10|0,0:2|0:0,0:0:0:0:
380,26,131513,1,0,1:2:0:0:
362,245,131671,102,0,P|359:260|368:243,1,57.2000017456055,14|0,0:2|0:0,0:0:0:0:
334,177,131829,1,0,1:2:0:0:
512,102,131987,6,0,P|476:121|477:179,1,62.3999980957032,10|0,0:2|0:0,0:0:0:0:
381,122,132145,1,0,1:2:0:0:
446,314,132303,102,0,P|460:283|478:255,1,67.5999969055177,10|0,0:2|0:0,0:0:0:0:
409,187,132461,1,0,1:2:0:0:
322,191,132619,6,0,P|235:194|199:282,1,171.600005236817,8|0,0:2|0:0,0:0:0:0:
163,380,132934,102,1,B|201:324|156:240|116:305|69:226|126:122,1,234.000008926392,14|0,0:2|0:0,0:0:0:0:
71,112,133250,6,0,B|65:84|65:84|83:133,1,57.2000017456055,10|0,0:2|0:0,0:0:0:0:
106,173,133408,1,0,1:2:0:0:
167,42,133566,102,0,B|191:20|191:20|212:75,1,62.3999980957032,10|0,0:2|0:0,0:0:0:0:
170,121,133724,1,0,1:2:0:0:
302,60,133882,6,0,B|339:59|339:59|372:121,1,67.5999969055177,10|0,0:2|0:0,0:0:0:0:
256,152,134040,1,0,1:2:0:0:
470,244,134198,102,1,P|356:186|228:145,1,234.000008926392,14|0,0:2|0:0,0:0:0:0:
370,178,134513,5,10,0:2:0:0:
353,194,134671,1,0,1:2:0:0:
445,169,134829,101,8,3:0:0:0:
272,221,134987,5,6,0:3:0:0:
494,326,135145,101,2,1:2:0:0:
342,384,135303,6,0,P|379:254|480:12,1,353.600006744385,14|0,0:2|1:2,0:0:0:0:
288,301,135777,2,0,P|259:331|278:390,1,83.2,10|0,0:2|1:2,0:0:0:0:
89,152,136092,101,10,0:2:0:0:
179,195,136250,5,10,0:2:0:0:
332,102,136408,101,10,0:2:0:0:
25,202,136566,5,10,0:2:0:0:
164,384,136724,102,0,P|133:312|99:197,1,166.4,2|0,0:2|0:0,0:0:0:0:
