osu file format v14

[General]
AudioFilename: audio.mp3
AudioLeadIn: 0
PreviewTime: 63460
Countdown: 0
SampleSet: Soft
StackLeniency: 0.4
Mode: 0
LetterboxInBreaks: 0
WidescreenStoryboard: 1

[Editor]
Bookmarks: 2829,4724,5355,7881,12934,21618,23039,31881,33145,41987,43250,48303,53355,58408,60934,63460,81145,82408,83671,88092,90303,92355,92513,93303,93539,93776,95829,98829,102618,103566,103724,103881,104197,104355,104671,104829,105145,105776,106408,116197,118724,126618,136566
DistanceSpacing: 1.3
BeatDivisor: 4
GridSize: 4
TimelineZoom: 2.799999

[Metadata]
Title:Not For Sale Fossil (Cut Ver.)
TitleUnicode:ノットフォーセール・フォッシル (Cut Ver.)
Artist:Wakeshima Kanon
ArtistUnicode:分島花音
Creator:-Nenu- 3
Version:Hard
Source:
Tags:Arronchu1207 crystalinfusion Flake original3s jpop japanese japan pop j-pop luminescence QED Q.E.D KayINeo
BeatmapID:3210209
BeatmapSetID:1569012

[Difficulty]
HPDrainRate:4.5
CircleSize:3.5
OverallDifficulty:7
ApproachRate:8
SliderMultiplier:1.4
SliderTickRate:1

[Events]
//Background and Video events
0,0,"wakeshima5.jpg",0,0
//Break Periods
2,106608,115448
//Storyboard Layer 0 (Background)
//Storyboard Layer 1 (Fail)
//Storyboard Layer 2 (Pass)
//Storyboard Layer 3 (Foreground)
//Storyboard Layer 4 (Overlay)
//Storyboard Sound Samples

[TimingPoints]
-2223,315.789473684211,4,2,22,65,1,0
2829,-111.111111111111,4,2,22,65,0,0
2986,-111.111111111111,4,2,22,65,0,0
3066,-111.111111111111,4,2,22,5,0,0
3145,-111.111111111111,4,2,22,65,0,0
4329,-111.111111111111,4,2,22,5,0,0
4408,-111.111111111111,4,2,22,65,0,0
5276,-111.111111111111,4,2,22,5,0,0
5355,-111.111111111111,4,2,22,65,0,0
5592,-111.111111111111,4,2,22,5,0,0
5671,-111.111111111111,4,2,22,65,0,0
6855,-111.111111111111,4,2,22,5,0,0
6934,-111.111111111111,4,2,22,65,0,0
8118,-111.111111111111,4,2,22,5,0,0
8197,-111.111111111111,4,2,22,65,0,0
9381,-111.111111111111,4,2,22,5,0,0
9460,-111.111111111111,4,2,22,65,0,0
10329,-111.111111111111,4,2,22,5,0,0
10408,-111.111111111111,4,2,22,65,0,0
10645,-111.111111111111,4,2,22,5,0,0
10724,-111.111111111111,4,2,22,65,0,0
12855,-111.111111111111,4,2,22,5,0,0
12934,-111.111111111111,4,2,22,65,0,0
13171,-111.111111111111,4,2,22,5,0,0
13250,-111.111111111111,4,2,22,65,0,0
14434,-111.111111111111,4,2,22,5,0,0
14513,-111.111111111111,4,2,22,65,0,0
14750,-111.111111111111,4,2,22,5,0,0
14829,-111.111111111111,4,2,22,65,0,0
15381,-111.111111111111,4,2,22,5,0,0
15460,-111.111111111111,4,2,22,65,0,0
16013,-111.111111111111,4,2,22,5,0,0
16092,-111.111111111111,4,2,22,65,0,0
16645,-111.111111111111,4,2,22,5,0,0
16724,-111.111111111111,4,2,22,65,0,0
17276,-111.111111111111,4,2,22,5,0,0
17355,-111.111111111111,4,2,22,65,0,0
17908,-111.111111111111,4,2,22,5,0,0
17987,-111.111111111111,4,2,22,65,0,0
18224,-111.111111111111,4,2,22,5,0,0
18303,-111.111111111111,4,2,22,65,0,0
18539,-111.111111111111,4,2,22,5,0,0
18618,-111.111111111111,4,2,22,65,0,0
18855,-111.111111111111,4,2,22,5,0,0
18934,-111.111111111111,4,2,22,65,0,0
19171,-111.111111111111,4,2,22,5,0,0
19250,-111.111111111111,4,2,22,65,0,0
19487,-111.111111111111,4,2,22,5,0,0
19566,-111.111111111111,4,2,22,65,0,0
20118,-111.111111111111,4,2,22,5,0,0
20197,-111.111111111111,4,2,22,65,0,0
20434,-111.111111111111,4,2,22,5,0,0
20513,-111.111111111111,4,2,22,65,0,0
20750,-111.111111111111,4,2,22,5,0,0
20829,-111.111111111111,4,2,22,65,0,0
22960,-111.111111111111,4,2,22,5,0,0
23039,-125,4,2,22,55,0,0
30539,-125,4,2,22,5,0,0
30618,-125,4,2,22,55,0,0
34960,-125,4,2,22,5,0,0
35039,-125,4,2,22,55,0,0
36933,-125,4,2,22,55,0,0
37013,-125,4,2,22,5,0,0
37092,-125,4,2,22,50,0,0
38118,-125,4,2,22,5,0,0
38197,-125,4,2,22,50,0,0
39539,-125,4,2,22,5,0,0
39618,-125,4,2,22,55,0,0
40645,-125,4,2,22,5,0,0
40724,-125,4,2,22,55,0,0
43091,-125,4,2,22,55,0,0
43171,-125,4,2,22,5,0,0
43250,-142.857142857143,4,2,22,55,0,0
44355,-142.857142857143,4,2,22,30,0,0
44513,-142.857142857143,4,2,22,55,0,0
45618,-142.857142857143,4,2,22,30,0,0
46645,-142.857142857143,4,2,22,5,0,0
46724,-142.857142857143,4,2,22,55,0,0
47908,-142.857142857143,4,2,22,5,0,0
47986,-142.857142857143,4,2,22,45,0,0
48539,-142.857142857143,4,2,22,5,0,0
48618,-142.857142857143,4,2,22,45,0,0
49091,-142.857142857143,4,2,22,45,0,0
49171,-142.857142857143,4,2,22,5,0,0
49250,-142.857142857143,4,2,22,45,0,0
49723,-142.857142857143,4,2,22,45,0,0
49803,-142.857142857143,4,2,22,5,0,0
49881,-142.857142857143,4,2,22,45,0,0
50038,-142.857142857143,4,2,22,45,0,0
50118,-142.857142857143,4,2,22,5,0,0
50197,-142.857142857143,4,2,22,45,0,0
50354,-142.857142857143,4,2,22,45,0,0
50434,-142.857142857143,4,2,22,5,0,0
50513,-142.857142857143,4,2,22,45,0,0
51066,-142.857142857143,4,2,22,5,0,0
51145,-142.857142857143,4,2,22,45,0,0
51617,-142.857142857143,4,2,22,45,0,0
51697,-142.857142857143,4,2,22,5,0,0
51776,-142.857142857143,4,2,22,45,0,0
51934,-142.857142857143,4,2,22,45,0,0
52091,-142.857142857143,4,2,22,55,0,0
52248,-142.857142857143,4,2,22,55,0,0
52408,-142.857142857143,4,2,22,55,0,0
53355,-142.857142857143,4,2,22,45,0,0
54461,-142.857142857143,4,2,22,30,0,0
55566,-142.857142857143,4,2,22,45,0,0
55724,-142.857142857143,4,2,22,30,0,0
55881,-142.857142857143,4,2,22,45,0,0
56118,-142.857142857143,4,2,22,5,0,0
56197,-142.857142857143,4,2,22,45,0,0
56986,-142.857142857143,4,2,22,45,0,0
57066,-142.857142857143,4,2,22,30,0,0
57145,-142.857142857143,4,2,22,45,0,0
58012,-142.857142857143,4,2,22,45,0,0
58092,-142.857142857143,4,2,22,45,0,0
58328,-142.857142857143,4,2,22,45,0,0
58408,-142.857142857143,4,2,22,50,0,0
59039,-142.857142857143,4,2,22,55,0,0
59670,-142.857142857143,4,2,22,60,0,0
60302,-142.857142857143,4,2,22,68,0,0
60933,-142.857142857143,4,2,22,80,0,0
61566,-142.857142857143,4,2,22,52,0,0
62197,-142.857142857143,4,2,22,68,0,0
62671,-142.857142857143,4,2,22,68,0,0
63381,-142.857142857143,4,2,22,5,0,0
63461,-100,4,2,22,80,0,1
64645,-100,4,2,22,5,0,1
64724,-100,4,2,22,80,0,1
65908,-100,4,2,22,5,0,1
65987,-100,4,2,22,80,0,1
67960,-100,4,2,22,5,0,1
68039,-100,4,2,22,80,0,1
68118,-100,4,2,22,5,0,1
68197,-100,4,2,22,80,0,1
68276,-100,4,2,22,5,0,1
68354,-100,4,2,22,80,0,1
68434,-100,4,2,22,5,0,1
68513,-100,4,2,22,80,0,1
68750,-100,4,2,22,5,0,1
68829,-100,4,2,22,80,0,1
70013,-100,4,2,22,5,0,1
70092,-100,4,2,22,80,0,1
70645,-100,4,2,22,5,0,1
70724,-100,4,2,22,80,0,1
70960,-100,4,2,22,5,0,1
71039,-100,4,2,22,80,0,1
71276,-100,4,2,22,5,0,1
71355,-100,4,2,22,80,0,1
71434,-100,4,2,22,5,0,1
71512,-100,4,2,22,80,0,1
71592,-100,4,2,22,5,0,1
71671,-100,4,2,22,80,0,1
71908,-100,4,2,22,5,0,1
71987,-100,4,2,22,80,0,1
73013,-100,4,2,22,5,0,1
73092,-100,4,2,22,80,0,1
73171,-100,4,2,22,5,0,1
73250,-100,4,2,22,80,0,1
73329,-100,4,2,22,5,0,1
73407,-100,4,2,22,80,0,1
73487,-100,4,2,22,5,0,1
73566,-100,4,2,22,80,0,1
74750,-100,4,2,22,5,0,1
74829,-100,4,2,22,80,0,1
76881,-100,4,2,22,80,0,1
76960,-100,4,2,22,5,0,1
77039,-100,4,2,22,80,0,1
78224,-100,4,2,22,5,0,1
78303,-100,4,2,22,80,0,1
78539,-100,4,2,22,5,0,1
78618,-100,4,2,22,55,0,1
79803,-100,4,2,22,5,0,1
79881,-100,4,2,22,65,0,1
81145,-100,4,2,2,40,0,0
81302,-100,4,2,4,40,0,0
81381,-100,4,2,2,40,0,0
81460,-100,4,2,2,40,0,0
81617,-100,4,2,4,40,0,0
81697,-100,4,2,2,40,0,0
81776,-100,4,2,2,40,0,0
81934,-100,4,2,4,40,0,0
82013,-100,4,2,2,40,0,0
82092,-100,4,2,2,40,0,0
82250,-100,4,2,4,40,0,0
82329,-100,4,2,2,40,0,0
82408,-100,4,2,22,70,0,0
82487,-100,4,2,22,5,0,0
82565,-100,4,2,22,80,0,0
82645,-100,4,2,22,5,0,0
82724,-100,4,2,22,80,0,0
82803,-100,4,2,22,5,0,0
82881,-100,4,2,22,80,0,0
82960,-100,4,2,22,5,0,0
83197,-100,4,2,22,80,0,0
83276,-100,4,2,22,5,0,0
83355,-100,4,2,22,80,0,0
83512,-100,4,2,22,80,0,0
83592,-100,4,2,22,5,0,0
83671,-100,4,2,22,80,0,1
83986,-100,4,2,22,60,0,1
84145,-100,4,2,22,80,0,1
84303,-100,4,2,22,80,0,1
84539,-100,4,2,22,5,0,1
84618,-100,4,2,22,80,0,1
86512,-100,4,2,22,60,0,1
86671,-100,4,2,22,80,0,1
87776,-100,4,2,22,60,0,1
87933,-100,4,2,22,80,0,1
88171,-100,4,2,22,5,0,1
88250,-100,4,2,22,80,0,1
88329,-100,4,2,22,5,0,1
88408,-100,4,2,22,80,0,1
88487,-100,4,2,22,5,0,1
88566,-100,4,2,22,80,0,1
88645,-100,4,2,22,5,0,1
88724,-100,4,2,22,80,0,1
92671,-100,4,2,22,60,0,1
93539,-100,4,2,22,80,0,1
93618,-100,4,2,22,80,0,1
94645,-100,4,2,22,5,0,1
94724,-100,4,2,22,80,0,1
96460,-100,4,2,22,80,0,1
96618,-100,4,2,22,80,0,1
98750,-100,4,2,22,5,0,1
98829,-100,4,2,22,80,0,0
100723,-100,4,2,22,50,0,0
100803,-100,4,2,22,5,0,0
100881,-100,4,2,22,53,0,0
101039,-100,4,2,22,80,0,0
101196,-100,4,2,22,80,0,0
101276,-100,4,2,22,5,0,0
101355,-100,4,2,22,80,0,0
102933,-100,4,2,22,30,0,0
103092,-100,4,2,22,32,0,0
103250,-100,4,2,22,35,0,0
103408,-100,4,2,22,37,0,0
103566,-100,4,2,22,40,0,0
103881,-100,4,2,22,45,0,0
104038,-100,4,2,22,47,0,0
104196,-100,4,2,22,50,0,0
104513,-100,4,2,22,55,0,0
105303,-100,4,2,22,60,0,0
105776,-100,4,2,22,65,0,0
116354,-100,4,2,22,65,0,0
116434,-100,4,2,22,5,0,0
116513,-111.111111111111,4,2,22,65,0,0
116750,-111.111111111111,4,2,22,5,0,0
116829,-111.111111111111,4,2,22,65,0,0
118013,-111.111111111111,4,2,22,5,0,0
118092,-111.111111111111,4,2,22,65,0,0
118960,-111.111111111111,4,2,22,5,0,0
119039,-111.111111111111,4,2,22,65,0,0
119276,-111.111111111111,4,2,22,5,0,0
119355,-111.111111111111,4,2,22,65,0,0
120539,-111.111111111111,4,2,22,5,0,0
120618,-111.111111111111,4,2,22,65,0,0
121803,-111.111111111111,4,2,22,5,0,0
121881,-111.111111111111,4,2,22,65,0,0
123066,-111.111111111111,4,2,22,5,0,0
123144,-111.111111111111,4,2,22,65,0,0
124013,-111.111111111111,4,2,22,5,0,0
124092,-111.111111111111,4,2,22,65,0,0
124329,-111.111111111111,4,2,22,5,0,0
124407,-111.111111111111,4,2,22,65,0,0
126619,-100,4,2,22,65,0,1
126855,-100,4,2,22,5,0,1
126934,-100,4,2,22,65,0,1
127803,-100,4,2,22,5,0,1
127881,-100,4,2,22,65,0,1
128118,-100,4,2,22,5,0,1
128197,-100,4,2,22,65,0,1
129066,-100,4,2,22,5,0,1
129144,-100,4,2,22,65,0,1
129381,-100,4,2,22,5,0,1
129460,-100,4,2,22,65,0,1
130329,-100,4,2,22,5,0,1
130407,-100,4,2,22,65,0,1
130645,-100,4,2,22,5,0,1
130723,-100,4,2,22,65,0,1
131592,-100,4,2,22,5,0,1
131671,-100,4,2,22,65,0,1
132855,-100,4,2,22,5,0,1
132934,-100,4,2,22,65,0,1
133171,-100,4,2,22,5,0,1
133250,-100,4,2,22,65,0,1
134118,-100,4,2,22,5,0,1
134197,-100,4,2,22,65,0,1
134434,-100,4,2,22,5,0,1
134513,-100,4,2,22,65,0,1
134829,-100,4,2,0,65,0,1
134986,-100,4,2,22,65,0,1
135776,-100,4,2,3,45,0,1
135933,-100,4,2,22,65,0,1
136013,-100,4,2,22,5,0,1
136092,-100,4,2,22,65,0,1
136566,-142.857142857143,4,2,22,65,0,0
137197,-100,4,2,22,5,0,0

[Colours]
Combo1 : 166,11,69
Combo2 : 201,244,252
Combo3 : 150,196,184
Combo4 : 204,156,79
Combo5 : 154,79,6
Combo6 : 207,205,205
Combo7 : 139,139,139
Combo8 : 232,38,91

[HitObjects]
36,77,2829,38,0,L|110:69,1,62.9999980773926,14|0,0:2|0:0,0:0:0:0:
165,22,3145,2,0,P|234:33|248:107,1,125.999996154785,10|10,0:2|1:2,0:0:0:0:
179,125,3619,1,0,1:2:0:0:
104,173,3777,2,0,L|116:313,1,125.999996154785,10|10,0:2|0:2,0:0:0:0:
276,371,4408,6,0,L|366:356,1,62.9999980773926,10|0,0:2|1:2,0:0:0:0:
382,290,4724,2,0,L|444:300,1,62.9999980773926,10|0,0:2|1:2,0:0:0:0:
512,254,5039,2,0,P|517:215|492:173,1,62.9999980773926,10|0,0:2|1:2,0:0:0:0:
441,135,5355,102,0,B|392:125|392:125|374:106|374:106|325:94,1,125.999996154785,10|8,0:2|0:2,0:0:0:0:
273,159,5829,1,0,1:2:0:0:
273,159,5987,2,0,L|184:177,1,62.9999980773926,8|0,0:2|1:2,0:0:0:0:
163,246,6303,2,0,P|130:234|100:130,1,125.999996154785,10|8,0:2|0:2,0:0:0:0:
133,80,6776,5,0,1:2:0:0:
133,80,6934,2,0,L|222:98,1,62.9999980773926,8|0,0:2|1:2,0:0:0:0:
302,10,7250,2,0,B|295:31|278:51|278:51|302:127,1,125.999996154785,10|10,0:2|0:2,0:0:0:0:
383,159,7724,1,0,1:2:0:0:
391,246,7881,102,0,B|339:255|339:255|320:273|320:273|257:285,1,125.999996154785,14|10,0:2|0:2,0:0:0:0:
195,239,8355,1,0,1:2:0:0:
121,288,8513,2,0,P|124:350|194:367,1,125.999996154785,10|10,0:2|0:2,0:0:0:0:
281,233,9145,6,0,L|265:87,1,125.999996154785,14|10,0:2|0:2,0:0:0:0:
297,25,9618,1,0,1:2:0:0:
382,48,9776,2,0,P|374:81|353:109,1,62.9999980773926,10|0,0:2|1:2,0:0:0:0:
268,108,10092,2,0,L|197:98,1,62.9999980773926,10|0,0:2|1:2,0:0:0:0:
133,24,10408,102,0,P|79:27|46:101,1,125.999996154785,14|8,0:2|0:2,0:0:0:0:
111,150,10881,1,0,1:2:0:0:
184,210,11039,2,0,L|171:284,1,62.9999980773926,10|2,0:2|1:2,0:0:0:0:
241,338,11355,1,2,1:2:0:0:
294,255,11513,6,0,B|370:247|341:294|423:284,1,125.999996154785,14|2,0:2|1:2,0:0:0:0:
460,218,11987,2,0,L|466:139,1,62.9999980773926,8|0,0:2|1:2,0:0:0:0:
416,80,12303,1,8,0:2:0:0:
416,80,12381,1,8,3:0:0:0:
416,80,12460,1,0,1:2:0:0:
356,145,12618,2,0,P|324:145|269:128,1,62.9999980773926,8|0,0:2|1:2,0:0:0:0:
230,67,12934,102,0,P|199:60|167:60,1,62.9999980773926,14|0,0:2|1:2,0:0:0:0:
94,10,13250,2,0,P|25:21|11:95,1,125.999996154785,10|10,0:2|0:2,0:0:0:0:
64,132,13723,1,0,1:2:0:0:
16,206,13881,2,0,L|28:346,1,125.999996154785,10|10,0:2|0:2,0:0:0:0:
250,260,14513,6,0,L|310:276,1,62.9999980773926,10|0,0:2|1:2,0:0:0:0:
370,333,14829,2,0,P|397:326|425:304,1,62.9999980773926,10|0,0:2|1:2,0:0:0:0:
445,225,15145,1,10,0:2:0:0:
378,72,15460,102,0,B|325:82|325:82|312:93|312:93|254:106,1,125.999996154785,10|8,0:2|0:2,0:0:0:0:
214,174,15934,1,0,1:2:0:0:
139,139,16092,2,0,P|78:143|52:217,1,125.999996154785,10|8,0:2|0:2,0:0:0:0:
152,322,16724,6,0,P|296:294|303:292,1,125.999996154785,10|8,0:2|0:2,0:0:0:0:
309,224,17197,1,0,1:2:0:0:
378,267,17355,2,0,P|375:298|369:329,1,62.9999980773926,10|0,0:2|1:2,0:0:0:0:
450,345,17671,2,0,P|456:314|458:282,1,62.9999980773926,10|0,0:2|1:2,0:0:0:0:
499,211,17987,102,0,L|467:78,1,125.999996154785,14|8,0:2|0:2,0:0:0:0:
418,24,18460,1,0,1:2:0:0:
352,99,18618,2,0,L|381:221,1,125.999996154785,10|8,0:2|0:2,0:0:0:0:
356,300,19092,1,0,1:2:0:0:
258,272,19250,6,0,L|228:149,1,125.999996154785,10|8,0:2|0:2,0:0:0:0:
165,96,19724,1,0,1:2:0:0:
102,182,19881,2,0,L|131:304,1,125.999996154785,10|8,0:2|0:2,0:0:0:0:
201,347,20355,1,0,1:2:0:0:
305,371,20513,102,0,P|333:339|432:334,1,125.999996154785,10|8,0:2|0:2,0:0:0:0:
486,289,20987,1,0,1:2:0:0:
455,209,21145,2,0,P|488:199|527:166,2,62.9999980773926,8|4|4,3:0|3:0|3:0,0:0:0:0:
409,144,21618,6,0,B|354:132|354:132|334:142|334:142|241:126,1,125.999996154785,12|0,0:2|1:2,0:0:0:0:
271,51,22092,101,8,0:2:0:0:
271,51,22250,1,0,1:2:0:0:
184,33,22408,1,8,0:2:0:0:
124,98,22566,1,0,1:2:0:0:
124,98,23039,22,0,P|135:139|206:151,1,112,6|8,1:2|0:2,0:0:0:0:
275,134,23513,1,2,1:2:0:0:
275,134,23671,2,0,P|306:153|319:173,1,56,2|2,0:2|1:2,0:0:0:0:
383,210,23987,1,2,0:2:0:0:
337,274,24145,6,0,P|283:278|226:292,1,112,10|2,0:2|1:2,0:0:0:0:
160,340,24619,2,0,P|113:286|124:239,1,112,8|0,1:2|0:0,0:0:0:0:
47,212,25092,1,0,1:2:0:0:
47,212,25250,2,0,L|57:148,1,56,8|2,0:2|0:2,0:0:0:0:
68,78,25566,102,0,B|136:85|103:117|171:123,1,112,2|8,1:2|0:2,0:0:0:0:
236,73,26040,1,2,0:2:0:0:
236,73,26198,1,2,1:2:0:0:
300,116,26355,2,0,L|365:101,1,56,2|0,1:2|0:0,0:0:0:0:
393,172,26671,1,10,0:2:0:0:
500,242,26987,6,0,P|500:264|487:296,1,56,2|8,1:2|0:2,0:0:0:0:
413,322,27303,2,0,L|358:309,1,56,2|0,1:2|0:0,0:0:0:0:
300,361,27619,2,0,L|245:374,1,56,2|10,1:2|0:2,0:0:0:0:
174,339,27934,102,0,P|160:299|202:241,1,112,2|0,0:2|0:0,0:0:0:0:
250,187,28408,2,0,L|310:202,2,56,8|0|0,0:2|1:2|0:2,0:0:0:0:
201,125,28882,1,0,1:2:0:0:
201,125,29040,2,0,L|142:136,1,56,2|8,0:2|0:2,0:0:0:0:
82,88,29355,6,0,L|26:77,1,56,2|0,0:0|1:2,0:0:0:0:
0,218,29671,2,0,P|65:203|71:156,1,112,10|2,0:2|0:2,0:0:0:0:
82,88,30145,1,0,1:2:0:0:
6,51,30303,1,10,0:2:0:0:
188,63,30619,102,0,B|229:73|229:73|249:88|249:88|292:98,2,112,6|8|0,1:2|0:2|1:2,0:0:0:0:
343,187,31566,2,0,L|337:243,1,56,10|2,0:2|1:2,0:0:0:0:
333,339,31882,53,8,3:2:0:0:
264,300,32040,1,8,3:0:0:0:
112,341,32355,6,0,L|167:320,1,56,2|2,1:2|1:2,0:0:0:0:
188,239,32671,2,0,L|170:171,2,56,6|12|2,3:0|3:0|0:2,0:0:0:0:
256,165,33145,38,0,P|228:116|167:104,1,112,6|8,1:2|0:2,0:0:0:0:
97,98,33619,1,2,0:2:0:0:
97,98,33777,2,0,L|88:160,1,56,2|2,0:2|1:2,0:0:0:0:
40,216,34092,1,2,0:2:0:0:
79,283,34250,2,0,P|104:295|131:295,1,56,10|0,0:2|0:0,0:0:0:0:
195,248,34566,5,2,1:2:0:0:
243,315,34724,2,0,P|298:293|358:301,1,112,8|0,0:2|0:0,0:0:0:0:
424,320,35198,1,0,1:2:0:0:
471,257,35355,1,8,0:2:0:0:
426,106,35671,102,0,B|379:117|379:117|362:136|362:136|321:145,1,112,0|10,1:2|0:2,0:0:0:0:
259,101,36145,1,2,0:2:0:0:
259,101,36303,1,2,0:2:0:0:
191,41,36461,2,0,P|159:45|131:57,1,56,2|0,1:2|0:0,0:0:0:0:
45,35,36777,6,0,P|41:58|35:93,1,56,10|0,0:2|0:0,0:0:0:0:
101,136,37092,2,0,P|96:165|91:197,1,56,2|10,1:2|0:2,0:0:0:0:
164,223,37408,2,0,P|159:252|154:284,1,56,2|0,0:2|0:0,0:0:0:0:
215,329,37724,2,0,P|210:358|205:390,1,56,2|8,1:2|0:2,0:0:0:0:
256,227,38198,102,0,B|318:235|303:265|369:267,1,112,6|8,1:2|0:2,0:0:0:0:
402,332,38671,1,0,0:0:0:0:
466,287,38829,2,0,L|456:223,1,56,0|0,0:0|1:2,0:0:0:0:
487,158,39145,1,2,0:2:0:0:
430,103,39303,6,0,B|381:106|381:106|360:118|360:118|313:123,1,112,10|0,0:2|1:2,0:0:0:0:
258,75,39777,2,0,P|207:85|193:92,1,56,8|0,0:2|1:2,0:0:0:0:
166,156,40092,2,0,P|139:164|111:167,1,56,2|0,0:2|1:2,0:0:0:0:
45,123,40408,1,8,0:2:0:0:
128,256,40724,102,0,P|187:241|243:218,2,112,6|8|0,1:2|0:2|0:0,0:0:0:0:
218,86,41671,2,0,P|227:133|234:149,1,56,10|2,0:2|1:2,0:0:0:0:
328,147,41987,53,10,3:0:0:0:
354,220,42145,2,0,L|345:278,1,56,0|0,1:2|1:2,0:0:0:0:
276,311,42461,1,8,0:2:0:0:
209,267,42619,2,0,L|146:283,1,56,2|0,1:2|1:2,0:0:0:0:
132,362,42934,2,0,L|69:378,1,56,10|0,0:2|0:0,0:0:0:0:
20,309,43250,54,0,B|27:266|27:266|35:252|35:252|41:209,1,97.9999970092774,6|2,1:2|0:2,0:0:0:0:
93,161,43724,2,0,P|124:149|140:137,1,48.9999985046387,2|8,1:2|0:2,0:0:0:0:
148,64,44040,1,2,0:2:0:0:
222,92,44198,2,0,P|253:104|269:116,1,48.9999985046387,2|8,1:2|0:2,0:0:0:0:
293,122,44434,1,8,0:2:0:0:
293,122,44513,6,0,L|279:220,1,97.9999970092774,0|0,1:2|0:0,0:0:0:0:
300,374,45145,2,0,L|348:369,1,48.9999985046387,10|0,0:2|1:2,0:0:0:0:
392,303,45461,2,0,L|444:309,1,48.9999985046387,2|8,1:2|0:2,0:0:0:0:
471,297,45698,1,8,0:2:0:0:
471,297,45777,102,0,B|490:249|455:244|468:195,1,97.9999970092774,2|2,1:2|0:2,0:0:0:0:
509,136,46250,2,0,P|487:125|463:120,1,48.9999985046387,2|8,1:2|0:2,0:0:0:0:
340,38,46724,6,0,B|303:41|303:41|286:52|286:52|239:57,1,97.9999970092774,2|0,1:2|1:2,0:0:0:0:
174,28,47198,1,8,0:2:0:0:
109,69,47355,2,0,L|116:125,1,48.9999985046387,2|0,0:2|1:2,0:0:0:0:
78,187,47671,2,0,L|62:293,2,97.9999970092774,10|2|12,0:2|1:2|0:2,0:0:0:0:
225,133,48619,37,2,1:2:0:0:
284,183,48777,2,0,L|386:170,1,97.9999970092774,2|0,0:2|0:0,0:0:0:0:
459,182,49250,6,0,P|480:257|448:326,1,146.999995513916,2|0,1:2|0:0,0:0:0:0:
379,295,49882,2,0,L|330:288,1,48.9999985046387,2|0,1:2|0:0,0:0:0:0:
266,334,50198,2,0,L|217:340,1,48.9999985046387,14|0,0:2|0:0,0:0:0:0:
150,298,50513,2,0,P|131:276|124:253,1,48.9999985046387,2|0,1:2|0:0,0:0:0:0:
124,178,50829,102,0,B|182:187|162:207|218:212,1,97.9999970092774,6|0,1:2|1:2,0:0:0:0:
264,150,51303,1,2,1:2:0:0:
287,75,51461,2,0,L|280:19,1,48.9999985046387,14|0,2:2|0:0,0:0:0:0:
432,5,51934,1,2,0:2:0:0:
455,80,52092,6,0,L|447:134,1,48.9999985046387,6|0,1:2|0:0,0:0:0:0:
395,188,52408,2,0,L|405:241,1,48.9999985046387,2|2,1:2|1:2,0:0:0:0:
342,276,52724,2,0,L|328:379,1,97.9999970092774,14|2,0:2|1:2,0:0:0:0:
221,267,53355,38,0,B|170:270|182:300|126:310,1,97.9999970092774,6|2,1:2|0:2,0:0:0:0:
71,260,53829,2,0,L|67:209,1,48.9999985046387,2|8,1:2|0:2,0:0:0:0:
56,122,54145,2,0,L|52:68,2,48.9999985046387,2|8|8,0:2|1:2|0:2,0:0:0:0:
66,132,54540,1,8,0:2:0:0:
66,132,54619,6,0,B|145:138|116:182|204:185,1,146.999995513916,0|2,1:2|1:2,0:0:0:0:
249,124,55250,2,0,L|303:115,1,48.9999985046387,10|0,0:2|0:0,0:0:0:0:
368,168,55566,2,0,L|426:160,1,48.9999985046387,10|8,1:2|0:2,0:0:0:0:
439,180,55803,1,8,0:2:0:0:
439,180,55882,102,0,L|428:278,1,97.9999970092774,2|2,1:2|0:2,0:0:0:0:
349,266,56355,2,0,L|338:363,1,97.9999970092774,2|2,1:2|0:2,0:0:0:0:
263,336,56829,2,0,L|200:325,1,48.9999985046387,2|8,1:2|0:2,0:0:0:0:
193,347,57066,1,8,0:2:0:0:
193,347,57145,6,0,L|76:328,1,97.9999970092774,0|2,1:2|1:2,0:0:0:0:
59,261,57619,1,0,1:2:0:0:
100,194,57777,2,0,L|174:172,1,73.4999977569581,10|0,0:2|0:0,0:0:0:0:
209,180,58092,2,0,P|245:160|259:123,1,73.4999977569581,2|0,1:2|0:0,0:0:0:0:
264,92,58408,37,12,0:2:0:0:
331,43,58566,2,0,L|317:-17,2,48.9999985046387,2|2|2,1:2|1:2|1:2,0:0:0:0:
391,100,59040,1,8,0:2:0:0:
455,46,59198,2,0,L|469:-14,2,48.9999985046387,2|2|2,1:2|1:2|1:2,0:0:0:0:
391,100,59671,1,8,0:2:0:0:
447,161,59829,2,0,L|469:226,2,48.9999985046387,2|2|2,1:2|1:2|1:2,0:0:0:0:
391,100,60303,1,8,0:2:0:0:
391,100,60461,5,2,1:2:0:0:
331,43,60619,1,2,1:2:0:0:
265,94,60777,1,2,1:2:0:0:
193,52,60934,1,14,0:2:0:0:
423,103,62671,37,0,1:2:0:0:
423,103,62750,1,0,1:2:0:0:
423,103,62829,1,8,0:2:0:0:
396,25,62987,1,8,0:2:0:0:
315,43,63145,1,8,0:2:0:0:
134,65,63461,54,0,P|103:130|81:214,1,140,14|8,0:2|0:2,0:0:0:0:
124,277,63934,1,2,1:2:0:0:
187,212,64092,2,0,P|230:226|324:271,1,140,10|8,0:2|0:2,0:0:0:0:
356,348,64566,1,0,1:2:0:0:
447,284,64724,6,0,L|427:118,1,140,10|8,0:2|0:2,0:0:0:0:
362,83,65198,1,0,1:2:0:0:
285,33,65355,2,0,P|254:42|199:86,1,70,10|0,0:2|1:2,0:0:0:0:
136,29,65671,2,0,P|120:57|112:127,1,70,10|0,0:2|1:2,0:0:0:0:
120,243,65987,102,0,P|181:214|184:139,1,140,8|10,0:2|0:2,0:0:0:0:
110,93,66461,2,0,P|58:104|28:121,1,70,2|8,1:2|0:2,0:0:0:0:
33,209,66777,2,0,P|4:253|-5:286,1,70,2|8,1:2|0:2,0:0:0:0:
76,341,67092,6,0,B|152:339|129:388|219:384,1,140,2|0,1:2|1:2,0:0:0:0:
245,296,67566,2,0,P|290:291|335:281,1,70,8|0,0:2|1:2,0:0:0:0:
398,260,67882,1,10,1:2:0:0:
461,205,68040,1,2,1:2:0:0:
442,123,68198,1,10,0:2:0:0:
380,180,68355,1,2,1:2:0:0:
308,136,68513,102,0,B|246:129|246:129|220:113|220:113|145:106,1,140,10|10,0:2|0:2,0:0:0:0:
85,62,68987,1,2,1:2:0:0:
85,62,69145,1,8,0:2:0:0:
61,152,69303,2,0,L|74:236,1,70,2|8,1:2|0:2,0:0:0:0:
174,197,69619,6,0,B|245:205|217:239|306:249,1,140,2|0,1:2|1:2,0:0:0:0:
383,228,70092,2,0,P|402:200|405:160,1,70,10|0,0:2|1:2,0:0:0:0:
489,158,70408,2,0,P|482:124|456:94,1,70,10|0,0:2|1:2,0:0:0:0:
512,31,70724,2,0,P|484:12|444:9,1,70,10|0,0:2|1:2,0:0:0:0:
360,65,71040,102,0,B|324:104|324:104|213:82,1,140,10|10,0:2|0:2,0:0:0:0:
142,49,71513,2,0,B|113:24|113:24|134:138,1,140,2|2,1:2|1:2,0:0:0:0:
206,168,71987,1,8,0:2:0:0:
286,211,72145,1,2,1:2:0:0:
231,285,72303,2,0,P|163:277|126:221,1,140,10|8,0:2|0:2,0:0:0:0:
296,65,72934,5,10,1:2:0:0:
296,65,73092,1,2,1:2:0:0:
378,47,73250,1,10,0:2:0:0:
439,104,73408,1,2,1:2:0:0:
408,181,73566,102,0,L|423:327,1,140,12|8,0:2|0:2,0:0:0:0:
342,363,74040,1,2,1:2:0:0:
265,317,74198,2,0,B|201:315|197:360|129:354,1,140,10|8,0:2|0:2,0:0:0:0:
28,204,74829,6,0,B|87:192|87:192|111:175|111:175|189:162,1,140,10|10,0:2|0:2,0:0:0:0:
201,85,75303,2,0,L|281:72,1,70,2|8,1:2|0:2,0:0:0:0:
360,59,75619,2,0,P|394:85|407:132,1,70,2|8,1:2|0:2,0:0:0:0:
428,220,75934,102,0,B|403:211|380:192|380:192|292:220,1,140,2|0,1:2|1:2,0:0:0:0:
247,288,76408,2,0,P|295:331|327:332,1,70,8|0,0:2|1:2,0:0:0:0:
384,360,76724,2,0,P|425:354|457:334,1,70,10|0,0:2|1:2,0:0:0:0:
509,262,77040,2,0,P|516:227|506:182,1,70,8|0,0:2|1:2,0:0:0:0:
345,147,77355,6,0,P|365:213|435:215,1,140,10|8,0:2|0:2,0:0:0:0:
456,38,77987,2,0,L|373:52,1,70,10|0,0:2|1:2,0:0:0:0:
301,79,78303,2,0,L|231:67,1,70,8|2,0:2|1:2,0:0:0:0:
128,1,78619,86,0,L|148:146,1,140,12|8,0:2|0:2,0:0:0:0:
70,189,79092,1,0,1:2:0:0:
95,283,79250,1,8,0:2:0:0:
95,283,79408,1,0,1:2:0:0:
208,285,79566,102,0,L|377:249,1,140,8|8,0:2|0:2,0:0:0:0:
431,227,80040,1,0,1:2:0:0:
408,137,80198,1,8,0:2:0:0:
321,164,80355,2,0,B|234:153|273:102|190:95,1,140,0|0,1:2|1:2,0:0:0:0:
119,60,80829,5,10,0:2:0:0:
28,71,80987,1,0,1:2:0:0:
8,159,81145,102,0,P|48:171|89:185,1,70,8|8,0:2|0:2,0:0:0:0:
142,248,81461,2,0,P|140:289|130:332,1,70,8|8,0:2|0:2,0:0:0:0:
215,358,81777,1,8,0:2:0:0:
297,319,81934,2,0,P|301:283|311:244,1,70,8|8,0:2|0:2,0:0:0:0:
380,193,82250,1,8,0:2:0:0:
289,139,82408,2,0,P|245:145|216:149,1,70,14|2,0:2|1:2,0:0:0:0:
147,81,82724,1,2,1:2:0:0:
202,5,82882,1,10,0:2:0:0:
427,2,83198,1,2,1:2:0:0:
475,87,83355,2,0,P|458:123|418:147,1,70,8|0,0:2|0:0,0:0:0:0:
337,234,83671,22,0,B|379:221|379:221|467:278,1,140,6|8,1:2|0:2,0:0:0:0:
288,336,84303,2,0,P|233:291|228:199,1,140,2|8,1:2|0:2,0:0:0:0:
126,84,84934,6,0,B|188:71|188:71|201:51|201:51|267:35,1,140,2|8,1:2|0:2,0:0:0:0:
433,62,85566,2,0,L|421:148,1,70,2|0,1:2|0:0,0:0:0:0:
330,164,85882,2,0,L|338:252,1,70,10|0,0:2|0:0,0:0:0:0:
460,289,86198,102,0,P|423:329|326:314,1,140,0|10,1:2|0:2,0:0:0:0:
256,358,86671,2,0,P|233:347|167:347,1,70,2|0,1:2|1:2,0:0:0:0:
121,280,86987,2,0,L|131:198,1,70,2|8,1:2|0:2,0:0:0:0:
92,126,87303,6,0,P|117:178|205:175,1,140,2|0,1:2|1:2,0:0:0:0:
235,103,87777,2,0,P|272:85|318:81,1,70,10|0,0:2|1:2,0:0:0:0:
348,149,88092,1,2,1:2:0:0:
420,107,88250,1,2,1:2:0:0:
372,37,88408,1,10,0:2:0:0:
300,80,88566,1,2,1:2:0:0:
348,149,88724,102,0,L|366:303,1,140,6|10,1:2|0:2,0:0:0:0:
306,358,89198,2,0,P|260:349|228:329,2,70,2|0|2,1:2|1:2|1:2,0:0:0:0:
364,288,89671,1,8,0:2:0:0:
435,236,89829,6,0,L|418:96,1,140,2|0,1:2|0:0,0:0:0:0:
357,29,90303,2,0,P|326:27|276:39,1,70,10|0,0:2|0:0,0:0:0:0:
246,107,90619,2,0,P|217:121|168:136,1,70,2|0,1:2|0:0,0:0:0:0:
110,79,90934,2,0,L|99:9,1,70,10|0,0:2|0:0,0:0:0:0:
1,123,91250,102,0,B|77:131|40:172|137:192,1,140,2|10,1:2|0:2,0:0:0:0:
146,276,91724,2,0,P|192:285|224:305,1,70,2|0,1:2|1:2,0:0:0:0:
278,214,92040,2,0,P|232:205|200:185,1,70,2|8,1:2|0:2,0:0:0:0:
166,121,92355,1,10,0:2:0:0:
166,121,92513,5,4,1:2:0:0:
228,54,92671,2,0,L|278:70,2,35,8|8|0,0:2|0:2|1:2,0:0:0:0:
138,33,92987,1,8,0:2:0:0:
138,33,93066,1,0,1:2:0:0:
138,33,93145,1,6,1:2:0:0:
71,95,93303,2,0,L|15:112,2,35,10|8|2,0:2|0:2|1:2,0:0:0:0:
166,121,93619,1,10,0:2:0:0:
166,121,93698,1,8,0:2:0:0:
166,121,93777,102,0,L|148:282,1,140,6|8,1:2|0:2,0:0:0:0:
299,366,94408,2,0,P|370:318|370:260,1,140,2|8,1:2|0:2,0:0:0:0:
240,144,95040,6,0,B|252:197|252:197|271:219|271:219|289:287,1,140,2|10,1:2|0:2,0:0:0:0:
373,269,95513,2,0,B|415:272|415:272|454:245,1,70,2|0,1:2|1:2,0:0:0:0:
468,169,95829,2,0,L|443:86,1,70,2|8,1:2|0:2,0:0:0:0:
352,64,96145,102,0,B|292:78|304:125|228:147,1,140,2|0,1:2|0:0,0:0:0:0:
169,85,96619,1,8,0:2:0:0:
68,219,96934,2,0,L|92:360,1,140,2|8,1:2|0:2,0:0:0:0:
263,281,97566,6,0,L|239:142,1,140,2|8,1:2|0:2,0:0:0:0:
369,36,98198,1,2,1:2:0:0:
392,116,98355,1,8,0:2:0:0:
417,196,98513,1,8,0:2:0:0:
368,384,98829,86,0,L|351:289,1,70,10|2,0:2|1:2,0:0:0:0:
263,281,99145,1,2,1:2:0:0:
170,249,99303,2,0,L|182:180,1,70,10|0,0:2|1:2,0:0:0:0:
313,34,99777,102,0,P|278:59|228:54,1,70,10|2,0:2|1:2,0:0:0:0:
165,14,100092,1,10,0:2:0:0:
96,83,100250,2,0,L|83:151,1,70,2|2,1:2|1:2,0:0:0:0:
19,234,100566,6,0,B|54:234|54:234|81:258,1,70,10|0,0:2|1:2,0:0:0:0:
147,328,100882,1,2,1:2:0:0:
228,273,101040,2,0,L|321:255,1,70,10|0,0:2|0:0,0:0:0:0:
408,265,101355,102,0,P|362:214|377:148,1,140,6|2,1:2|1:2,0:0:0:0:
456,82,101829,2,0,P|483:117|480:160,1,70,10|0,0:2|1:2,0:0:0:0:
376,149,102145,2,0,P|344:134|300:119,1,70,2|8,1:2|0:2,0:0:0:0:
216,66,102461,1,2,1:2:0:0:
216,66,102619,6,0,L|229:212,1,140,8|8,0:2|0:2,0:0:0:0:
155,271,103092,1,8,0:2:0:0:
155,271,103171,1,8,0:2:0:0:
155,271,103250,1,8,0:2:0:0:
200,358,103408,1,8,0:2:0:0:
304,352,103566,2,0,L|284:397,3,35,10|8|10|8,0:2|0:2|0:2|0:2,0:0:0:0:
342,330,103882,102,0,L|485:309,1,140,10|10,0:2|0:2,0:0:0:0:
487,197,104355,1,8,0:2:0:0:
487,197,104434,1,8,0:2:0:0:
487,197,104513,2,0,L|495:231,2,35,10|8|10,0:2|0:2|0:2,0:0:0:0:
441,87,104829,6,0,P|377:68|326:116,1,140,10|8,0:2|0:2,0:0:0:0:
254,177,105303,1,8,0:2:0:0:
254,177,105382,1,8,0:2:0:0:
254,177,105461,1,8,0:2:0:0:
158,154,105619,2,0,L|167:121,2,35,8|8|10,0:2|0:2|0:2,0:0:0:0:
72,190,105934,1,8,0:2:0:0:
72,190,106013,1,8,0:2:0:0:
72,190,106092,2,0,L|84:254,3,35,8|8|8|8,0:2|0:2|0:2|0:2,0:0:0:0:
97,237,106408,101,12,0:2:0:0:
485,307,116198,70,0,L|411:315,1,70,8|0,0:2|0:0,0:0:0:0:
346,359,116513,102,0,P|277:348|263:274,1,125.999996154785,14|10,0:2|0:2,0:0:0:0:
333,259,116987,1,0,1:2:0:0:
408,211,117145,2,0,B|405:152|405:152|399:132|399:132|396:71,1,125.999996154785,10|10,1:2|0:2,0:0:0:0:
236,13,117777,6,0,P|199:24|146:28,1,62.9999980773926,10|0,0:2|1:2,0:0:0:0:
130,94,118092,2,0,P|99:86|68:84,1,62.9999980773926,10|0,0:2|1:2,0:0:0:0:
0,130,118408,2,0,P|-5:169|20:211,1,62.9999980773926,10|0,0:2|1:2,0:0:0:0:
71,249,118724,102,0,B|120:259|120:259|138:278|138:278|187:290,1,125.999996154785,10|10,0:2|0:2,0:0:0:0:
239,225,119198,1,0,1:2:0:0:
239,225,119355,2,0,L|328:207,1,62.9999980773926,8|0,0:2|1:2,0:0:0:0:
344,282,119671,2,0,L|433:264,1,62.9999980773926,8|0,0:2|1:2,0:0:0:0:
493,284,119987,2,0,P|460:272|430:168,1,125.999996154785,10|8,0:2|0:2,0:0:0:0:
405,119,120461,5,0,1:2:0:0:
405,119,120619,2,0,L|316:137,1,62.9999980773926,8|0,0:2|1:2,0:0:0:0:
254,30,120934,2,0,B|261:51|278:71|278:71|254:147,1,125.999996154785,10|10,0:2|0:2,0:0:0:0:
211,215,121408,1,0,1:2:0:0:
131,235,121566,102,0,B|79:226|79:226|60:208|60:208|-3:196,1,125.999996154785,14|10,0:2|0:2,0:0:0:0:
15,116,122040,1,0,1:2:0:0:
69,34,122198,2,0,P|110:79|107:144,1,125.999996154785,10|10,0:2|0:2,0:0:0:0:
225,254,122829,6,0,L|371:238,1,125.999996154785,14|10,0:2|0:2,0:0:0:0:
428,277,123303,1,0,1:2:0:0:
388,355,123461,2,0,P|355:347|327:326,1,62.9999980773926,10|0,0:2|1:2,0:0:0:0:
351,241,123777,2,0,L|361:170,1,62.9999980773926,10|0,0:2|1:2,0:0:0:0:
270,142,124092,102,0,P|324:139|357:65,1,125.999996154785,14|8,0:2|0:2,0:0:0:0:
300,24,124566,1,0,1:2:0:0:
228,63,124724,2,0,L|154:50,1,62.9999980773926,8|2,0:2|1:2,0:0:0:0:
100,102,125040,1,10,0:2:0:0:
153,164,125198,70,0,B|170:204|170:204|151:236|151:236|150:284,1,125.999996154785,2|0,1:2|1:2,0:0:0:0:
241,327,125671,2,0,L|236:248,1,62.9999980773926,8|0,0:2|1:2,0:0:0:0:
276,193,125987,1,12,0:2:0:0:
276,193,126145,1,0,1:2:0:0:
345,149,126303,2,0,P|381:157|432:166,1,62.9999980773926,8|8,0:2|0:2,0:0:0:0:
425,163,126540,1,8,0:2:0:0:
425,163,126619,102,1,P|442:91|381:37,1,140,14|10,0:2|0:2,0:0:0:0:
314,68,127092,1,0,1:2:0:0:
231,28,127250,2,0,L|142:43,1,70,10|0,0:2|1:2,0:0:0:0:
98,106,127566,2,0,L|11:118,1,70,10|0,0:2|1:2,0:0:0:0:
139,181,127882,6,1,L|226:193,1,70,14|0,0:2|1:2,0:0:0:0:
260,265,128198,1,10,0:2:0:0:
342,225,128355,1,0,1:2:0:0:
435,249,128513,2,0,P|488:231|507:221,1,70,10|0,0:2|1:2,0:0:0:0:
425,163,128829,2,0,P|372:145|353:135,1,70,10|0,0:2|1:2,0:0:0:0:
326,39,129145,102,1,P|278:97|217:94,1,140,14|8,0:2|0:2,0:0:0:0:
147,36,129619,1,0,1:2:0:0:
100,114,129777,2,0,L|115:204,1,70,8|0,0:2|1:2,0:0:0:0:
59,258,130092,2,0,P|84:290|142:297,1,70,10|0,0:2|1:2,0:0:0:0:
188,252,130408,6,1,L|271:235,1,70,12|0,0:2|1:2,0:0:0:0:
338,278,130724,1,8,0:2:0:0:
403,215,130882,1,0,1:2:0:0:
368,130,131040,2,0,L|354:39,1,70,10|0,0:2|1:2,0:0:0:0:
256,23,131355,2,0,L|266:100,1,70,10|0,0:2|1:2,0:0:0:0:
177,119,131671,102,0,B|106:135|126:173|46:193,1,140,14|10,0:2|0:2,0:0:0:0:
2,116,132145,1,0,1:2:0:0:
50,39,132303,2,0,P|108:33|129:40,1,70,10|0,0:2|1:2,0:0:0:0:
209,36,132619,2,0,L|284:23,1,70,8|0,0:2|1:2,0:0:0:0:
377,53,132934,6,1,L|366:134,1,70,14|0,0:2|1:2,0:0:0:0:
425,193,133250,1,10,0:2:0:0:
377,270,133408,1,0,1:2:0:0:
425,347,133566,2,0,P|375:358|332:376,1,70,10|0,0:2|1:2,0:0:0:0:
301,292,133882,2,0,P|267:281|233:274,1,70,10|0,0:2|1:2,0:0:0:0:
136,313,134198,102,1,P|197:241|163:202,1,140,14|10,0:2|0:2,0:0:0:0:
78,66,134829,2,0,L|166:57,1,70,8|6,3:0|0:3,0:0:0:0:
238,71,135145,5,2,1:2:0:0:
323,118,135303,2,0,L|392:125,1,70,14|0,0:2|0:0,0:0:0:0:
312,24,135619,1,0,1:2:0:0:
238,71,135777,2,0,L|217:164,1,70,10|0,0:2|1:2,0:0:0:0:
282,212,136092,101,10,0:2:0:0:
334,294,136250,1,10,0:2:0:0:
257,364,136408,1,10,0:2:0:0:
177,311,136566,1,10,0:2:0:0:
177,311,136724,6,0,L|29:285,1,146.999995513916,2|0,0:2|0:0,0:0:0:0:
