osu file format v14

[General]
AudioFilename: audio.mp3
AudioLeadIn: 0
PreviewTime: -1
Countdown: 1
SampleSet: None
StackLeniency: 0.7
Mode: 1
LetterboxInBreaks: 0
WidescreenStoryboard: 1

[Editor]
Bookmarks: 2164,2348,2716,12839
DistanceSpacing: 1.9
BeatDivisor: 8
GridSize: 8
TimelineZoom: 2.296288

[Metadata]
Title:Foul Play ni Kurari (TV Size)
TitleUnicode:ファールプレーにくらり (TV Size)
Artist:Wakeshima Kanon
ArtistUnicode:分島花音
Creator:tokimu
Version:Hard
Source:To LOVEる-とらぶる-ダークネス
Tags:ToLoveる ending trouble to love ru darkness lala satalin deviluke uta waifuiscute fluffy hair ancul yahuri
BeatmapID:1882687
BeatmapSetID:901692

[Difficulty]
HPDrainRate:5
CircleSize:5
OverallDifficulty:5
ApproachRate:5
SliderMultiplier:1.4
SliderTickRate:1

[Events]
//Background and Video events
0,0,"darkness.jpg",0,0
//Break Periods
//Storyboard Layer 0 (Background)
//Storyboard Layer 1 (Fail)
//Storyboard Layer 2 (Pass)
//Storyboard Layer 3 (Foreground)
//Storyboard Sound Samples

[TimingPoints]
325,368.098159509202,4,2,0,100,1,0
694,368.098159509202,4,2,0,100,1,0
30233,368.098159509202,3,2,0,100,1,0
39067,368.098159509202,4,2,0,100,1,0

[HitObjects]
226,193,325,5,0,0:0:0:0:
170,181,417,1,0,0:0:0:0:
189,221,509,1,2,0:0:0:0:
189,221,601,1,0,0:0:0:0:
219,127,694,1,2,0:0:0:0:
189,221,878,1,0,0:0:0:0:
219,127,1062,1,2,0:0:0:0:
226,193,1154,1,2,0:0:0:0:
189,221,1246,1,0,0:0:0:0:
189,221,1338,1,0,0:0:0:0:
219,127,1430,1,2,0:0:0:0:
189,221,1614,1,0,0:0:0:0:
219,127,1798,1,2,0:0:0:0:
225,193,1890,1,0,0:0:0:0:
169,156,1982,1,0,0:0:0:0:
189,221,2074,1,0,0:0:0:0:
129,225,2166,1,2,0:0:0:0:
162,69,2350,1,2,0:0:0:0:
139,200,2534,1,0,0:0:0:0:
139,200,2626,1,0,0:0:0:0:
129,225,2718,1,2,0:0:0:0:
219,127,2902,1,0,0:0:0:0:
218,147,3086,1,0,0:0:0:0:
218,147,3178,1,2,0:0:0:0:
218,147,3270,1,0,0:0:0:0:
129,225,3362,1,0,0:0:0:0:
129,225,3454,1,2,0:0:0:0:
217,146,3638,1,0,0:0:0:0:
219,127,3730,1,0,0:0:0:0:
95,92,3822,1,2,0:0:0:0:
127,149,3914,1,2,0:0:0:0:
216,146,4006,1,0,0:0:0:0:
94,91,4190,1,2,0:0:0:0:
144,133,4282,1,2,0:0:0:0:
215,146,4374,1,0,0:0:0:0:
93,90,4467,1,2,0:0:0:0:
287,201,4559,1,2,0:0:0:0:
213,145,4743,1,0,0:0:0:0:
144,31,4835,1,0,0:0:0:0:
91,90,4927,1,2,0:0:0:0:
215,146,5295,1,0,0:0:0:0:
213,145,5479,1,0,0:0:0:0:
216,12,5663,1,2,0:0:0:0:
198,174,5709,1,2,0:0:0:0:
215,146,5847,1,2,0:0:0:0:
199,175,5893,1,2,0:0:0:0:
215,146,6031,1,0,0:0:0:0:
275,172,6123,1,0,0:0:0:0:
275,172,6215,1,2,0:0:0:0:
389,187,6583,1,0,0:0:0:0:
389,187,6767,1,0,0:0:0:0:
322,194,6859,1,0,0:0:0:0:
389,187,6951,1,2,0:0:0:0:
389,187,7135,1,0,0:0:0:0:
322,194,7227,1,0,0:0:0:0:
389,187,7319,1,2,0:0:0:0:
389,187,7411,1,0,0:0:0:0:
389,187,7503,1,2,0:0:0:0:
389,187,7687,1,0,0:0:0:0:
389,187,7871,1,0,0:0:0:0:
389,187,8055,1,2,0:0:0:0:
259,219,8240,1,0,0:0:0:0:
197,243,8332,1,0,0:0:0:0:
389,187,8424,1,2,0:0:0:0:
389,187,8608,1,0,0:0:0:0:
197,243,8792,1,0,0:0:0:0:
197,243,8884,1,0,0:0:0:0:
389,187,8976,1,2,0:0:0:0:
389,187,9160,1,0,0:0:0:0:
389,187,9528,1,0,0:0:0:0:
389,187,9620,1,0,0:0:0:0:
389,187,9712,1,2,0:0:0:0:
389,187,9896,1,0,0:0:0:0:
328,205,9988,1,0,0:0:0:0:
389,187,10080,1,2,0:0:0:0:
322,194,10172,1,2,0:0:0:0:
257,207,10264,1,0,0:0:0:0:
257,207,10448,1,0,0:0:0:0:
257,207,10632,1,2,0:0:0:0:
257,207,10816,1,2,0:0:0:0:
257,207,11000,1,0,0:0:0:0:
190,202,11092,1,0,0:0:0:0:
257,207,11184,1,2,0:0:0:0:
257,207,11552,1,2,0:0:0:0:
190,204,11644,1,2,0:0:0:0:
257,207,11736,1,0,0:0:0:0:
190,204,11828,1,0,0:0:0:0:
257,207,11920,1,2,0:0:0:0:
257,207,12105,1,0,0:0:0:0:
249,168,12197,1,0,0:0:0:0:
216,226,12289,1,2,0:0:0:0:
249,168,12381,1,0,0:0:0:0:
249,168,12473,1,2,0:0:0:0:
249,168,12657,1,0,0:0:0:0:
7,280,12841,1,2,0:0:0:0:
125,218,13025,1,2,0:0:0:0:
191,210,13117,1,2,0:0:0:0:
249,168,13209,1,0,0:0:0:0:
249,168,13393,1,0,0:0:0:0:
491,60,13577,1,2,0:0:0:0:
374,124,13761,1,2,0:0:0:0:
316,156,13853,1,2,0:0:0:0:
249,168,13945,1,0,0:0:0:0:
215,225,14037,1,0,0:0:0:0:
231,36,14129,1,2,0:0:0:0:
249,168,14313,1,0,0:0:0:0:
201,67,14497,1,2,0:0:0:0:
249,168,14681,1,0,0:0:0:0:
211,182,14773,1,0,0:0:0:0:
244,132,14865,1,2,0:0:0:0:
211,182,14957,1,2,0:0:0:0:
249,168,15049,1,0,0:0:0:0:
183,177,15141,1,0,0:0:0:0:
168,77,15233,1,2,0:0:0:0:
249,168,15417,1,2,0:0:0:0:
211,182,15601,1,2,0:0:0:0:
220,228,15693,1,0,0:0:0:0:
211,182,15786,1,0,0:0:0:0:
211,182,15970,1,2,0:0:0:0:
249,168,16062,1,0,0:0:0:0:
211,182,16246,1,0,0:0:0:0:
249,168,16338,1,2,0:0:0:0:
249,168,16522,1,0,0:0:0:0:
249,168,16706,1,2,0:0:0:0:
249,168,16798,1,2,0:0:0:0:
249,168,16890,1,0,0:0:0:0:
249,168,17074,1,2,0:0:0:0:
195,195,17120,1,2,0:0:0:0:
223,188,17258,1,0,0:0:0:0:
191,198,17304,1,0,0:0:0:0:
191,198,17442,1,2,0:0:0:0:
223,188,17488,1,2,0:0:0:0:
249,168,17626,1,2,0:0:0:0:
223,188,17672,1,2,0:0:0:0:
249,168,17810,1,0,0:0:0:0:
249,168,17994,1,2,0:0:0:0:
249,168,18362,1,0,0:0:0:0:
249,168,18546,1,2,0:0:0:0:
249,168,18638,1,2,0:0:0:0:
249,168,18730,1,0,0:0:0:0:
249,168,18914,1,2,0:0:0:0:
249,168,19006,1,2,0:0:0:0:
249,168,19098,1,0,0:0:0:0:
249,168,19282,1,2,0:0:0:0:
193,124,19374,1,2,0:0:0:0:
249,168,19467,1,0,0:0:0:0:
249,168,19651,1,2,0:0:0:0:
197,209,19743,1,2,0:0:0:0:
249,168,19835,1,0,0:0:0:0:
217,226,20019,1,0,0:0:0:0:
249,168,20203,1,2,0:0:0:0:
186,285,20387,1,0,0:0:0:0:
217,226,20479,1,0,0:0:0:0:
249,168,20571,1,0,0:0:0:0:
186,287,20755,1,0,0:0:0:0:
249,168,20939,1,2,0:0:0:0:
316,283,21123,1,0,0:0:0:0:
260,246,21215,1,0,0:0:0:0:
249,168,21307,1,2,0:0:0:0:
249,168,21491,1,0,0:0:0:0:
249,168,21583,1,0,0:0:0:0:
249,168,21675,1,2,0:0:0:0:
185,186,21859,1,0,0:0:0:0:
249,168,21951,1,0,0:0:0:0:
249,168,22043,1,2,0:0:0:0:
249,168,22227,1,0,0:0:0:0:
240,102,22319,1,0,0:0:0:0:
249,168,22411,1,2,0:0:0:0:
249,168,22595,1,0,0:0:0:0:
190,199,22687,1,0,0:0:0:0:
249,168,22779,1,2,0:0:0:0:
186,285,22963,1,0,0:0:0:0:
249,168,23147,1,0,0:0:0:0:
217,226,23240,1,0,0:0:0:0:
217,226,23332,1,0,0:0:0:0:
249,168,23516,1,2,0:0:0:0:
122,128,23700,1,2,0:0:0:0:
122,128,23792,1,2,0:0:0:0:
249,168,23884,1,0,0:0:0:0:
122,128,23976,1,2,0:0:0:0:
249,168,24068,1,0,0:0:0:0:
249,168,24252,1,0,0:0:0:0:
249,168,24436,1,0,0:0:0:0:
249,168,24528,1,0,0:0:0:0:
249,168,24620,1,2,0:0:0:0:
189,198,24712,1,0,0:0:0:0:
122,128,24804,1,2,0:0:0:0:
277,274,24988,1,2,0:0:0:0:
278,275,25172,1,0,0:0:0:0:
278,275,25264,1,0,0:0:0:0:
249,168,25356,1,2,0:0:0:0:
189,198,25448,1,0,0:0:0:0:
278,275,25540,1,2,0:0:0:0:
266,163,25724,1,2,0:0:0:0:
136,132,25908,1,0,0:0:0:0:
278,275,26000,1,0,0:0:0:0:
249,168,26092,1,2,0:0:0:0:
185,148,26184,1,0,0:0:0:0:
278,275,26276,1,2,0:0:0:0:
215,157,26460,1,2,0:0:0:0:
215,157,26644,1,0,0:0:0:0:
278,275,26736,1,0,0:0:0:0:
215,157,26828,1,2,0:0:0:0:
215,157,26920,1,0,0:0:0:0:
215,157,27013,1,2,0:0:0:0:
278,275,27197,1,2,0:0:0:0:
278,275,27289,1,2,0:0:0:0:
278,275,27381,1,0,0:0:0:0:
278,275,27565,1,2,0:0:0:0:
278,275,27657,1,0,0:0:0:0:
278,275,27749,1,0,0:0:0:0:
278,275,27933,1,0,0:0:0:0:
172,193,28117,1,0,0:0:0:0:
278,275,28301,1,2,0:0:0:0:
225,234,28393,1,0,0:0:0:0:
225,234,28485,1,0,0:0:0:0:
249,168,28669,1,0,0:0:0:0:
191,134,28761,1,0,0:0:0:0:
249,168,28853,1,2,0:0:0:0:
249,168,29037,1,0,0:0:0:0:
225,234,29129,1,0,0:0:0:0:
249,168,29221,1,2,0:0:0:0:
215,226,29313,1,2,0:0:0:0:
249,168,29405,1,0,0:0:0:0:
249,168,29773,1,2,0:0:0:0:
283,296,29957,1,2,0:0:0:0:
256,188,30233,1,0,0:0:0:0:
222,187,30279,1,0,0:0:0:0:
167,270,30417,1,0,0:0:0:0:
256,188,30601,1,2,0:0:0:0:
157,98,30785,1,0,0:0:0:0:
256,188,30969,1,2,0:0:0:0:
157,98,31153,1,2,0:0:0:0:
256,188,31337,1,0,0:0:0:0:
222,187,31383,1,0,0:0:0:0:
168,268,31521,1,2,0:0:0:0:
256,188,31705,1,2,0:0:0:0:
149,90,31889,1,0,0:0:0:0:
256,188,32073,1,2,0:0:0:0:
157,98,32257,1,2,0:0:0:0:
256,188,32441,1,0,0:0:0:0:
222,187,32487,1,0,0:0:0:0:
139,252,32625,1,0,0:0:0:0:
256,188,32809,1,2,0:0:0:0:
157,98,32993,1,2,0:0:0:0:
256,188,33177,1,2,0:0:0:0:
139,252,33361,1,2,0:0:0:0:
256,188,33545,1,0,0:0:0:0:
226,203,33591,1,0,0:0:0:0:
128,224,33729,1,2,0:0:0:0:
259,217,33913,1,2,0:0:0:0:
141,162,34098,1,0,0:0:0:0:
259,217,34282,1,2,0:0:0:0:
182,108,34466,1,2,0:0:0:0:
259,217,34650,1,0,0:0:0:0:
226,212,34696,1,0,0:0:0:0:
138,160,34834,1,0,0:0:0:0:
259,217,35018,1,2,0:0:0:0:
138,160,35202,1,0,0:0:0:0:
259,217,35386,1,2,0:0:0:0:
129,156,35570,1,2,0:0:0:0:
259,217,35754,1,0,0:0:0:0:
234,194,35800,1,0,0:0:0:0:
160,126,35938,1,2,0:0:0:0:
259,217,36122,1,2,0:0:0:0:
182,108,36306,1,0,0:0:0:0:
259,217,36490,1,2,0:0:0:0:
259,217,36858,1,0,0:0:0:0:
291,210,37226,1,2,0:0:0:0:
291,210,37272,1,2,0:0:0:0:
258,216,37594,1,2,0:0:0:0:
291,210,37640,1,2,0:0:0:0:
278,275,37963,1,2,0:0:0:0:
226,233,38055,1,0,0:0:0:0:
278,275,38147,1,2,0:0:0:0:
226,233,38239,1,0,0:0:0:0:
278,275,38331,1,2,0:0:0:0:
502,358,38699,1,2,0:0:0:0:
502,358,39067,1,2,0:0:0:0:
502,358,39159,1,2,0:0:0:0:
502,358,39251,1,0,0:0:0:0:
502,358,39435,1,2,0:0:0:0:
502,358,39619,1,0,0:0:0:0:
502,358,39803,1,2,0:0:0:0:
502,358,39895,1,0,0:0:0:0:
444,325,39987,1,2,0:0:0:0:
328,259,40171,1,2,0:0:0:0:
212,193,40263,1,2,0:0:0:0:
328,257,40355,1,0,0:0:0:0:
207,200,40539,1,0,0:0:0:0:
213,190,40723,1,2,0:0:0:0:
270,223,40815,1,0,0:0:0:0:
327,257,40907,1,2,0:0:0:0:
212,189,41091,1,0,0:0:0:0:
326,256,41275,1,2,0:0:0:0:
392,257,41367,1,2,0:0:0:0:
211,189,41459,1,0,0:0:0:0:
325,255,41643,1,2,0:0:0:0:
391,257,41735,1,0,0:0:0:0:
200,185,41827,1,2,0:0:0:0:
316,249,42011,1,0,0:0:0:0:
199,184,42195,1,2,0:0:0:0:
257,216,42287,1,0,0:0:0:0:
81,124,42379,1,0,0:0:0:0:
198,185,42563,1,0,0:0:0:0:
315,249,42747,1,2,0:0:0:0:
198,183,42932,1,2,0:0:0:0:
255,215,43024,1,0,0:0:0:0:
69,111,43116,1,0,0:0:0:0:
185,175,43300,1,0,0:0:0:0:
300,241,43484,1,2,0:0:0:0:
364,255,43576,1,2,0:0:0:0:
198,183,43668,1,0,0:0:0:0:
320,235,43852,1,0,0:0:0:0:
254,248,43944,1,0,0:0:0:0:
174,188,44036,1,2,0:0:0:0:
272,241,44128,1,0,0:0:0:0:
279,267,44220,1,0,0:0:0:0:
279,267,44404,1,2,0:0:0:0:
279,267,44588,1,0,0:0:0:0:
279,267,44680,1,2,0:0:0:0:
279,267,44772,1,2,0:0:0:0:
272,241,44864,1,2,0:0:0:0:
279,267,44956,1,0,0:0:0:0:
411,252,45140,1,2,0:0:0:0:
305,227,45324,1,2,0:0:0:0:
242,203,45416,1,0,0:0:0:0:
272,241,45508,1,0,0:0:0:0:
214,203,45600,1,0,0:0:0:0:
272,241,45692,1,2,0:0:0:0:
272,241,45876,1,0,0:0:0:0:
272,241,46060,1,2,0:0:0:0:
272,241,46152,1,0,0:0:0:0:
272,241,46244,1,0,0:0:0:0:
272,241,46428,1,0,0:0:0:0:
206,228,46520,1,0,0:0:0:0:
177,146,46613,1,2,0:0:0:0:
234,179,46705,1,2,0:0:0:0:
276,220,46797,1,0,0:0:0:0:
143,221,46981,1,2,0:0:0:0:
194,255,47073,1,0,0:0:0:0:
276,220,47165,1,2,0:0:0:0:
214,194,47257,1,2,0:0:0:0:
305,279,47349,1,0,0:0:0:0:
276,220,47533,1,0,0:0:0:0:
225,176,47625,1,0,0:0:0:0:
276,220,47717,1,2,0:0:0:0:
209,220,47809,1,0,0:0:0:0:
396,276,47901,1,2,0:0:0:0:
276,220,48269,1,0,0:0:0:0:
295,229,48637,1,0,0:0:0:0:
285,151,48729,1,2,0:0:0:0:
285,151,48821,1,2,0:0:0:0:
245,97,48913,1,2,0:0:0:0:
295,229,49005,1,0,0:0:0:0:
285,151,49189,1,2,0:0:0:0:
224,162,49373,1,4,0:0:0:0:
182,112,49557,1,0,0:0:0:0:
224,162,49649,1,0,0:0:0:0:
268,215,49741,1,2,0:0:0:0:
268,215,49925,1,0,0:0:0:0:
190,129,50017,1,0,0:0:0:0:
268,215,50109,1,2,0:0:0:0:
200,216,50201,1,0,0:0:0:0:
268,215,50293,1,0,0:0:0:0:
268,215,50478,1,2,0:0:0:0:
215,255,50570,1,0,0:0:0:0:
295,84,50662,1,2,0:0:0:0:
268,215,50846,1,0,0:0:0:0:
135,219,51030,1,0,0:0:0:0:
201,217,51122,1,0,0:0:0:0:
267,215,51214,1,2,0:0:0:0:
200,217,51306,1,0,0:0:0:0:
133,136,51398,1,2,0:0:0:0:
268,215,51582,1,0,0:0:0:0:
201,217,51674,1,0,0:0:0:0:
268,215,51766,1,2,0:0:0:0:
223,165,51858,1,0,0:0:0:0:
268,215,51950,1,0,0:0:0:0:
210,121,52134,1,2,0:0:0:0:
145,103,52226,1,2,0:0:0:0:
296,222,52318,1,0,0:0:0:0:
278,353,52502,1,0,0:0:0:0:
146,1,52686,1,2,0:0:0:0:
212,115,52870,1,0,0:0:0:0:
245,172,52962,1,0,0:0:0:0:
300,228,53054,1,0,0:0:0:0:
257,354,53238,1,0,0:0:0:0:
151,7,53422,1,2,0:0:0:0:
217,122,53606,1,2,0:0:0:0:
250,179,53698,1,2,0:0:0:0:
299,227,53790,1,0,0:0:0:0:
234,215,53882,1,0,0:0:0:0:
226,118,53974,1,2,0:0:0:0:
234,215,54159,1,0,0:0:0:0:
234,215,54251,1,2,0:0:0:0:
225,117,54343,1,2,0:0:0:0:
299,227,54527,1,0,0:0:0:0:
225,116,54711,1,2,0:0:0:0:
172,173,54803,1,2,0:0:0:0:
298,226,54895,1,0,0:0:0:0:
234,215,54987,1,0,0:0:0:0:
268,355,55079,1,2,0:0:0:0:
283,290,55171,1,2,0:0:0:0:
304,236,55263,1,0,0:0:0:0:
276,195,55447,1,2,0:0:0:0:
209,198,55539,1,2,0:0:0:0:
276,195,55631,1,0,0:0:0:0:
276,195,55815,1,2,0:0:0:0:
276,195,55999,1,0,0:0:0:0:
163,124,56183,1,0,0:0:0:0:
210,170,56275,1,0,0:0:0:0:
50,52,56367,1,2,0:0:0:0:
152,136,56551,1,0,0:0:0:0:
276,195,56735,1,2,0:0:0:0:
293,259,56827,1,2,0:0:0:0:
171,112,56919,1,0,0:0:0:0:
221,155,57011,1,0,0:0:0:0:
44,69,57103,1,2,0:0:0:0:
169,112,57287,1,0,0:0:0:0:
293,259,57471,1,0,0:0:0:0:
164,121,57655,1,0,0:0:0:0:
293,259,57747,1,0,0:0:0:0:
294,157,57840,1,2,0:0:0:0:
214,161,57932,1,0,0:0:0:0:
293,259,58024,1,0,0:0:0:0:
56,275,58208,1,2,0:0:0:0:
186,247,58392,1,0,0:0:0:0:
293,259,58484,1,0,0:0:0:0:
302,153,58576,1,0,0:0:0:0:
293,259,58760,1,0,0:0:0:0:
64,271,58944,1,2,0:0:0:0:
293,259,59128,1,0,0:0:0:0:
293,259,59220,1,0,0:0:0:0:
302,153,59312,1,0,0:0:0:0:
293,259,59496,1,0,0:0:0:0:
64,271,59680,1,2,0:0:0:0:
126,247,59772,1,2,0:0:0:0:
183,212,59864,1,0,0:0:0:0:
249,218,59956,1,2,0:0:0:0:
302,153,60048,1,2,0:0:0:0:
191,228,60232,1,0,0:0:0:0:
246,191,60324,1,2,0:0:0:0:
302,153,60416,1,2,0:0:0:0:
250,178,60508,1,0,0:0:0:0:
191,210,60600,1,2,0:0:0:0:
191,211,60784,1,2,0:0:0:0:
248,178,60876,1,0,0:0:0:0:
191,211,60968,1,2,0:0:0:0:
248,178,61060,1,2,0:0:0:0:
268,215,61152,1,0,0:0:0:0:
333,244,61336,1,0,0:0:0:0:
268,215,61520,1,2,0:0:0:0:
333,244,61613,1,2,0:0:0:0:
268,215,61704,1,0,0:0:0:0:
268,215,61888,1,2,0:0:0:0:
321,239,61981,1,2,0:0:0:0:
268,215,62072,1,0,0:0:0:0:
333,244,62165,1,2,0:0:0:0:
268,215,62257,1,2,0:0:0:0:
295,84,62441,1,0,0:0:0:0:
293,139,62533,1,2,0:0:0:0:
268,215,62625,1,0,0:0:0:0:
202,223,62809,1,2,0:0:0:0:
268,215,62993,1,0,0:0:0:0:
202,223,63085,1,0,0:0:0:0:
133,136,63177,1,2,0:0:0:0:
268,215,63361,1,0,0:0:0:0:
202,223,63453,1,0,0:0:0:0:
268,215,63545,1,2,0:0:0:0:
330,236,63637,1,0,0:0:0:0:
268,215,63729,1,0,0:0:0:0:
210,121,63913,1,2,0:0:0:0:
296,222,64005,1,0,0:0:0:0:
235,249,64097,1,0,0:0:0:0:
202,223,64281,1,2,0:0:0:0:
202,223,64373,1,0,0:0:0:0:
146,1,64465,1,2,0:0:0:0:
202,223,64557,1,2,0:0:0:0:
202,223,64649,1,0,0:0:0:0:
300,228,64833,1,0,0:0:0:0:
202,223,65017,1,0,0:0:0:0:
202,223,65109,1,0,0:0:0:0:
151,7,65201,1,2,0:0:0:0:
268,231,65386,1,2,0:0:0:0:
333,239,65478,1,2,0:0:0:0:
299,227,65569,1,0,0:0:0:0:
202,223,65662,1,2,0:0:0:0:
226,118,65753,1,2,0:0:0:0:
300,228,65938,1,0,0:0:0:0:
202,223,66030,1,2,0:0:0:0:
225,117,66122,1,2,0:0:0:0:
299,227,66306,1,0,0:0:0:0:
225,116,66398,1,2,0:0:0:0:
298,226,66490,1,2,0:0:0:0:
202,223,66582,1,0,0:0:0:0:
202,223,66674,1,2,0:0:0:0:
202,223,66858,1,2,0:0:0:0:
304,236,66950,1,0,0:0:0:0:
370,243,67042,1,0,0:0:0:0:
276,195,67226,1,0,0:0:0:0:
276,195,67410,1,0,0:0:0:0:
202,223,67502,1,0,0:0:0:0:
276,195,67594,1,2,0:0:0:0:
276,195,67778,1,0,0:0:0:0:
145,218,67962,1,2,0:0:0:0:
202,223,68054,1,0,0:0:0:0:
50,52,68146,1,2,0:0:0:0:
202,223,68330,1,0,0:0:0:0:
276,195,68514,1,2,0:0:0:0:
202,223,68606,1,2,0:0:0:0:
171,112,68698,1,0,0:0:0:0:
128,163,68790,1,2,0:0:0:0:
86,214,68882,1,0,0:0:0:0:
201,223,68974,1,0,0:0:0:0:
135,227,69066,1,2,0:0:0:0:
43,68,69250,1,2,0:0:0:0:
202,223,69435,1,2,0:0:0:0:
202,223,69527,1,0,0:0:0:0:
294,157,69619,1,2,0:0:0:0:
201,223,69711,1,2,0:0:0:0:
202,223,69803,1,0,0:0:0:0:
56,275,69987,1,2,0:0:0:0:
173,212,70171,1,2,0:0:0:0:
302,153,70355,1,0,0:0:0:0:
180,207,70539,1,2,0:0:0:0:
64,271,70723,1,2,0:0:0:0:
181,208,70907,1,2,0:0:0:0:
299,148,71091,1,2,0:0:0:0:
181,209,71275,1,0,0:0:0:0:
64,271,71459,1,2,0:0:0:0:
183,212,71643,1,0,0:0:0:0:
302,153,71827,1,0,0:0:0:0:
183,212,72011,1,0,0:0:0:0:
302,153,72195,1,2,0:0:0:0:
250,178,72287,1,2,0:0:0:0:
191,210,72379,1,2,0:0:0:0:
191,211,72563,1,0,0:0:0:0:
248,178,72655,1,0,0:0:0:0:
191,211,72747,1,2,0:0:0:0:
248,178,72839,1,2,0:0:0:0:
191,212,72931,1,0,0:0:0:0:
323,230,73116,1,0,0:0:0:0:
395,382,73300,1,6,0:0:0:0:
409,233,73484,1,0,0:0:0:0:
353,269,73576,1,0,0:0:0:0:
409,233,73668,1,0,0:0:0:0:
409,233,73852,1,0,0:0:0:0:
346,341,74036,1,6,0:0:0:0:
357,212,74220,1,2,0:0:0:0:
295,238,74312,1,2,0:0:0:0:
295,238,74404,1,0,0:0:0:0:
192,322,74588,1,0,0:0:0:0:
295,238,74772,1,2,0:0:0:0:
241,198,74864,1,2,0:0:0:0:
355,213,74956,1,0,0:0:0:0:
357,212,75140,1,2,0:0:0:0:
357,212,75232,1,0,0:0:0:0:
357,212,75324,1,0,0:0:0:0:
357,212,75508,1,2,0:0:0:0:
296,183,75600,1,0,0:0:0:0:
357,212,75692,1,2,0:0:0:0:
296,183,75784,1,2,0:0:0:0:
357,212,75876,1,0,0:0:0:0:
357,212,76060,1,0,0:0:0:0:
357,212,76152,1,0,0:0:0:0:
357,212,76244,1,2,0:0:0:0:
357,212,76428,1,2,0:0:0:0:
296,183,76520,1,0,0:0:0:0:
236,154,76613,1,2,0:0:0:0:
357,212,76797,1,0,0:0:0:0:
357,212,76981,1,2,0:0:0:0:
297,181,77073,1,2,0:0:0:0:
357,212,77165,1,0,0:0:0:0:
357,212,77257,1,0,0:0:0:0:
357,212,77349,1,2,0:0:0:0:
357,212,77533,1,2,0:0:0:0:
296,183,77625,1,2,0:0:0:0:
357,212,77717,1,0,0:0:0:0:
238,150,77901,1,2,0:0:0:0:
296,180,77993,1,0,0:0:0:0:
236,150,78085,1,2,0:0:0:0:
295,179,78177,1,2,0:0:0:0:
234,150,78269,1,0,0:0:0:0:
350,205,78453,1,2,0:0:0:0:
289,177,78545,1,0,0:0:0:0:
229,148,78637,1,2,0:0:0:0:
318,279,78729,1,2,0:0:0:0:
349,204,78821,1,0,0:0:0:0:
318,279,79005,1,0,0:0:0:0:
346,341,79189,1,6,0:0:0:0:
292,219,79373,1,0,0:0:0:0:
318,279,79465,1,0,0:0:0:0:
227,73,79557,1,0,0:0:0:0:
281,194,79741,1,0,0:0:0:0:
346,341,79925,1,6,0:0:0:0:
318,279,80109,1,2,0:0:0:0:
318,279,80201,1,2,0:0:0:0:
318,279,80293,1,0,0:0:0:0:
318,279,80386,1,0,0:0:0:0:
318,279,80478,1,2,0:0:0:0:
318,279,80662,1,2,0:0:0:0:
259,246,80754,1,2,0:0:0:0:
318,279,80846,1,0,0:0:0:0:
207,352,81030,1,0,0:0:0:0:
262,315,81122,1,0,0:0:0:0:
318,279,81214,1,2,0:0:0:0:
259,246,81306,1,0,0:0:0:0:
318,279,81398,1,0,0:0:0:0:
318,279,81582,1,2,0:0:0:0:
262,315,81674,1,2,0:0:0:0:
318,279,81766,1,0,0:0:0:0:
207,352,81950,1,0,0:0:0:0:
262,315,82042,1,0,0:0:0:0:
318,279,82134,1,2,0:0:0:0:
397,266,82318,1,4,0:0:0:0:
268,300,82502,1,2,0:0:0:0:
255,234,82594,1,2,0:0:0:0:
244,168,82686,1,0,0:0:0:0:
219,38,82870,1,0,0:0:0:0:
231,103,82962,1,2,0:0:0:0:
243,168,83054,1,0,0:0:0:0:
256,233,83146,1,0,0:0:0:0:
244,177,83238,1,2,0:0:0:0:
274,306,83422,1,0,0:0:0:0:
259,241,83514,1,0,0:0:0:0:
243,176,83606,1,2,0:0:0:0:
397,266,83790,1,4,0:0:0:0:
276,210,83974,1,2,0:0:0:0:
215,182,84066,1,0,0:0:0:0:
275,210,84159,1,0,0:0:0:0:
158,156,84343,1,2,0:0:0:0:
218,183,84435,1,2,0:0:0:0:
277,211,84527,1,0,0:0:0:0:
216,183,84619,1,0,0:0:0:0:
304,279,84711,1,2,0:0:0:0:
304,279,84895,1,0,0:0:0:0:
266,223,84987,1,0,0:0:0:0:
204,198,85079,1,2,0:0:0:0:
304,279,85263,1,2,0:0:0:0:
250,238,85355,1,2,0:0:0:0:
304,279,85447,1,0,0:0:0:0:
304,279,85539,1,0,0:0:0:0:
204,198,85631,1,2,0:0:0:0:
204,198,85723,1,0,0:0:0:0:
304,279,85815,1,2,0:0:0:0:
397,266,85999,1,4,0:0:0:0:
304,279,86367,1,0,0:0:0:0:
304,279,86551,1,0,0:0:0:0:
304,279,86735,1,0,0:0:0:0:
304,279,86919,1,2,0:0:0:0:
304,279,87103,1,2,0:0:0:0:
304,279,87287,1,2,0:0:0:0:
307,245,87333,1,2,0:0:0:0:
304,279,87471,1,2,0:0:0:0:
307,245,87517,1,2,0:0:0:0:
304,279,87840,1,0,0:0:0:0:
433,293,88024,1,2,0:0:0:0:
433,293,88116,1,2,0:0:0:0:
433,293,88208,1,2,0:0:0:0:
433,293,88392,1,4,0:0:0:0:
