osu file format v14

[General]
AudioFilename: audio.mp3
AudioLeadIn: 0
PreviewTime: -1
Countdown: 1
SampleSet: None
StackLeniency: 0.7
Mode: 1
LetterboxInBreaks: 0
WidescreenStoryboard: 1

[Editor]
Bookmarks: 2164,2348,2716,12839
DistanceSpacing: 1.9
BeatDivisor: 8
GridSize: 8
TimelineZoom: 2.296288

[Metadata]
Title:Foul Play ni Kurari (TV Size)
TitleUnicode:ファールプレーにくらり (TV Size)
Artist:Wakeshima Kanon
ArtistUnicode:分島花音
Creator:tokimu
Version:Crazy
Source:To LOVEる-とらぶる-ダークネス
Tags:ToLoveる ending trouble to love ru darkness lala satalin deviluke uta waifuiscute fluffy hair ancul yahuri
BeatmapID:1882684
BeatmapSetID:901692

[Difficulty]
HPDrainRate:5
CircleSize:5
OverallDifficulty:5
ApproachRate:5
SliderMultiplier:1.4
SliderTickRate:1

[Events]
//Background and Video events
0,0,"darkness.jpg",0,0
//Break Periods
//Storyboard Layer 0 (Background)
//Storyboard Layer 1 (Fail)
//Storyboard Layer 2 (Pass)
//Storyboard Layer 3 (Foreground)
//Storyboard Sound Samples

[TimingPoints]
694,368.098159509202,4,2,0,100,1,0
694,-100,4,2,0,100,0,1
5295,-76.9230769230769,4,2,0,100,0,0
6583,-100,4,2,0,100,0,0
17074,-76.9230769230769,4,2,0,100,0,0
18362,-100,4,2,0,100,0,0
29773,-125,4,2,0,100,0,0
29957,-125,4,2,0,100,0,0
30233,368.098159509202,3,2,0,100,1,0
30233,-125,3,2,0,100,0,0
30417,-125,3,2,0,100,0,0
30601,-117.647058823529,3,2,0,100,0,0
30785,-111.111111111111,3,2,0,100,0,0
30969,-105.263157894737,3,2,0,100,0,0
31153,-100,3,2,0,100,0,0
31337,-105.263157894737,3,2,0,100,0,0
31521,-111.111111111111,3,2,0,100,0,0
31705,-117.647058823529,3,2,0,100,0,0
31889,-125,3,2,0,100,0,0
32073,-133.333333333333,3,2,0,100,0,0
32257,-142.857142857143,3,2,0,100,0,0
32441,-90.9090909090909,3,2,0,100,0,0
32625,-95.2380952380952,3,2,0,100,0,0
32809,-100,3,2,0,100,0,0
32993,-105.263157894737,3,2,0,100,0,0
33177,-111.111111111111,3,2,0,100,0,0
33361,-117.647058823529,3,2,0,100,0,0
33545,-125,3,2,0,100,0,0
33729,-133.333333333333,3,2,0,100,0,0
33913,-142.857142857143,3,2,0,100,0,0
34098,-153.846153846154,3,2,0,100,0,0
34282,-166.666666666667,3,2,0,100,0,0
34466,-181.818181818182,3,2,0,100,0,0
34650,-200,3,2,0,100,0,0
34834,-166.666666666667,3,2,0,100,0,0
35018,-142.857142857143,3,2,0,100,0,0
35202,-125,3,2,0,100,0,0
35386,-111.111111111111,3,2,0,100,0,0
35570,-100,3,2,0,100,0,0
35754,-90.9090909090909,3,2,0,100,0,0
35938,-83.3333333333333,3,2,0,100,0,0
36122,-76.9230769230769,3,2,0,100,0,0
38699,-100,3,2,0,100,0,0
39067,368.098159509202,4,2,0,100,1,0
49373,-100,4,2,0,100,0,1
69987,-100,4,2,0,100,0,0
72932,-100,4,2,0,100,0,1
85678,-100,4,2,0,100,0,1
85815,-90.9090909090909,4,2,0,100,0,1
85999,-83.3333333333333,4,2,0,100,0,0
86183,-76.9230769230769,4,2,0,100,0,0
87840,-83.3333333333333,4,2,0,100,0,0
88392,-66.6666666666667,4,2,0,100,0,0

[HitObjects]
256,203,141,5,0,0:0:0:0:
256,203,233,1,0,0:0:0:0:
256,203,325,1,2,0:0:0:0:
256,203,417,1,0,0:0:0:0:
237,175,509,1,0,0:0:0:0:
237,175,601,1,0,0:0:0:0:
237,175,694,1,2,0:0:0:0:
219,127,878,1,0,0:0:0:0:
237,175,970,1,0,0:0:0:0:
219,127,1062,1,2,0:0:0:0:
219,127,1246,1,0,0:0:0:0:
237,175,1338,1,2,0:0:0:0:
219,127,1430,1,2,0:0:0:0:
219,127,1614,1,0,0:0:0:0:
218,147,1706,1,0,0:0:0:0:
219,127,1798,1,2,0:0:0:0:
149,150,1890,1,0,0:0:0:0:
219,127,1982,1,2,0:0:0:0:
129,225,2166,1,4,0:0:0:0:
129,225,2350,1,4,0:0:0:0:
129,225,2718,1,4,0:0:0:0:
219,127,2902,1,2,0:0:0:0:
218,147,3086,1,0,0:0:0:0:
218,147,3178,1,0,0:0:0:0:
218,147,3270,1,2,0:0:0:0:
145,160,3362,1,0,0:0:0:0:
96,92,3454,1,2,0:0:0:0:
84,157,3546,1,2,0:0:0:0:
217,146,3638,1,0,0:0:0:0:
219,127,3730,1,0,0:0:0:0:
95,92,3822,1,0,0:0:0:0:
216,146,4006,1,2,0:0:0:0:
94,91,4190,1,0,0:0:0:0:
215,146,4374,1,2,0:0:0:0:
93,90,4467,1,2,0:0:0:0:
287,201,4559,1,2,0:0:0:0:
213,145,4743,1,0,0:0:0:0:
91,90,4927,1,2,0:0:0:0:
215,146,5295,1,2,0:0:0:0:
234,172,5341,1,0,0:0:0:0:
213,145,5479,1,0,0:0:0:0:
234,172,5525,1,2,0:0:0:0:
213,145,5663,1,0,0:0:0:0:
234,172,5709,1,0,0:0:0:0:
215,146,5847,1,2,0:0:0:0:
234,172,5893,1,0,0:0:0:0:
215,146,6031,1,0,0:0:0:0:
215,146,6123,1,2,0:0:0:0:
275,172,6215,1,2,0:0:0:0:
389,187,6583,1,0,0:0:0:0:
389,187,6767,1,0,0:0:0:0:
389,187,6951,1,2,0:0:0:0:
389,187,7135,1,0,0:0:0:0:
389,187,7319,1,2,0:0:0:0:
389,187,7411,1,0,0:0:0:0:
389,187,7503,1,2,0:0:0:0:
323,178,7595,1,2,0:0:0:0:
389,187,7687,1,0,0:0:0:0:
258,160,7871,1,2,0:0:0:0:
126,141,8055,1,0,0:0:0:0:
389,187,8424,1,2,0:0:0:0:
389,187,8608,1,0,0:0:0:0:
389,187,8976,1,2,0:0:0:0:
389,187,9160,1,0,0:0:0:0:
389,187,9344,1,2,0:0:0:0:
389,187,9528,1,0,0:0:0:0:
389,187,9620,1,0,0:0:0:0:
389,187,9712,1,2,0:0:0:0:
389,187,9804,1,2,0:0:0:0:
389,187,9896,1,0,0:0:0:0:
323,176,9988,1,0,0:0:0:0:
389,187,10080,1,2,0:0:0:0:
257,207,10264,1,0,0:0:0:0:
257,207,10448,1,0,0:0:0:0:
257,207,10632,1,2,0:0:0:0:
257,207,10816,1,2,0:0:0:0:
257,207,11000,1,0,0:0:0:0:
257,207,11184,1,2,0:0:0:0:
257,207,11552,1,2,0:0:0:0:
257,207,11736,1,2,0:0:0:0:
257,207,11920,1,0,0:0:0:0:
213,156,12013,1,0,0:0:0:0:
257,207,12105,1,2,0:0:0:0:
249,168,12166,1,0,0:0:0:0:
249,168,12227,1,0,0:0:0:0:
213,156,12289,1,2,0:0:0:0:
213,200,12381,1,0,0:0:0:0:
249,168,12473,1,2,0:0:0:0:
213,156,12565,1,2,0:0:0:0:
249,168,12657,1,0,0:0:0:0:
7,280,12841,1,6,0:0:0:0:
125,218,13025,1,2,0:0:0:0:
213,156,13117,1,2,0:0:0:0:
249,168,13209,1,0,0:0:0:0:
249,168,13301,1,0,0:0:0:0:
249,168,13393,1,0,0:0:0:0:
491,60,13577,1,6,0:0:0:0:
213,156,13761,1,0,0:0:0:0:
249,168,13945,1,0,0:0:0:0:
249,168,14037,1,0,0:0:0:0:
231,36,14129,1,2,0:0:0:0:
213,156,14221,1,2,0:0:0:0:
249,168,14313,1,0,0:0:0:0:
249,168,14405,1,2,0:0:0:0:
201,67,14497,1,2,0:0:0:0:
210,132,14589,1,2,0:0:0:0:
249,168,14681,1,0,0:0:0:0:
249,168,14773,1,0,0:0:0:0:
244,132,14865,1,2,0:0:0:0:
249,168,14957,1,2,0:0:0:0:
249,168,15049,1,0,0:0:0:0:
168,77,15233,1,0,0:0:0:0:
201,134,15325,1,0,0:0:0:0:
249,168,15417,1,2,0:0:0:0:
138,242,15601,1,2,0:0:0:0:
249,168,15693,1,0,0:0:0:0:
249,168,15786,1,2,0:0:0:0:
249,168,15970,1,0,0:0:0:0:
249,168,16154,1,0,0:0:0:0:
249,168,16246,1,0,0:0:0:0:
249,168,16338,1,2,0:0:0:0:
249,168,16522,1,0,0:0:0:0:
249,168,16706,1,2,0:0:0:0:
249,168,16798,1,2,0:0:0:0:
249,168,16890,1,0,0:0:0:0:
249,168,17074,1,0,0:0:0:0:
254,189,17120,1,2,0:0:0:0:
249,168,17258,1,2,0:0:0:0:
254,189,17304,1,0,0:0:0:0:
249,168,17442,1,2,0:0:0:0:
254,189,17488,1,2,0:0:0:0:
249,168,17626,1,0,0:0:0:0:
254,189,17672,1,2,0:0:0:0:
249,168,17810,1,2,0:0:0:0:
288,221,17902,1,0,0:0:0:0:
249,168,17994,1,2,0:0:0:0:
249,168,18362,1,0,0:0:0:0:
249,168,18454,1,0,0:0:0:0:
249,168,18546,1,0,0:0:0:0:
249,168,18638,1,2,0:0:0:0:
249,168,18730,1,0,0:0:0:0:
249,168,18822,1,0,0:0:0:0:
249,168,18914,1,2,0:0:0:0:
249,168,19006,1,2,0:0:0:0:
249,168,19098,1,0,0:0:0:0:
249,168,19190,1,0,0:0:0:0:
249,168,19282,1,2,0:0:0:0:
193,204,19374,1,0,0:0:0:0:
249,168,19467,1,0,0:0:0:0:
249,168,19651,1,2,0:0:0:0:
217,226,19743,1,0,0:0:0:0:
249,168,19835,1,0,0:0:0:0:
217,226,20019,1,0,0:0:0:0:
249,168,20203,1,2,0:0:0:0:
186,285,20387,1,0,0:0:0:0:
217,226,20479,1,0,0:0:0:0:
249,168,20571,1,0,0:0:0:0:
186,287,20755,1,0,0:0:0:0:
249,168,20939,1,2,0:0:0:0:
316,283,21123,1,0,0:0:0:0:
249,168,21307,1,2,0:0:0:0:
249,168,21399,1,2,0:0:0:0:
249,168,21491,1,2,0:0:0:0:
249,168,21583,1,0,0:0:0:0:
249,168,21675,1,2,0:0:0:0:
249,168,21767,1,2,0:0:0:0:
249,168,21859,1,0,0:0:0:0:
249,168,21951,1,0,0:0:0:0:
249,168,22043,1,2,0:0:0:0:
249,168,22135,1,2,0:0:0:0:
249,168,22227,1,2,0:0:0:0:
240,102,22319,1,0,0:0:0:0:
249,168,22411,1,2,0:0:0:0:
249,168,22503,1,2,0:0:0:0:
249,168,22595,1,0,0:0:0:0:
249,168,22687,1,2,0:0:0:0:
249,168,22779,1,2,0:0:0:0:
186,285,22963,1,0,0:0:0:0:
249,168,23147,1,0,0:0:0:0:
217,226,23240,1,0,0:0:0:0:
217,226,23332,1,0,0:0:0:0:
249,168,23516,1,2,0:0:0:0:
249,168,23700,1,0,0:0:0:0:
249,168,23884,1,0,0:0:0:0:
217,226,23976,1,0,0:0:0:0:
249,168,24068,1,0,0:0:0:0:
217,226,24160,1,0,0:0:0:0:
249,168,24252,1,2,0:0:0:0:
249,168,24436,1,0,0:0:0:0:
249,168,24528,1,0,0:0:0:0:
249,168,24620,1,2,0:0:0:0:
217,226,24804,1,0,0:0:0:0:
277,274,24988,1,2,0:0:0:0:
278,275,25172,1,0,0:0:0:0:
278,275,25264,1,0,0:0:0:0:
249,168,25356,1,2,0:0:0:0:
278,275,25540,1,0,0:0:0:0:
266,163,25724,1,2,0:0:0:0:
278,275,25908,1,0,0:0:0:0:
278,275,26000,1,0,0:0:0:0:
249,168,26092,1,2,0:0:0:0:
278,275,26276,1,0,0:0:0:0:
278,275,26460,1,0,0:0:0:0:
278,275,26552,1,0,0:0:0:0:
278,275,26644,1,0,0:0:0:0:
278,275,26736,1,0,0:0:0:0:
249,168,26828,1,2,0:0:0:0:
278,275,27013,1,0,0:0:0:0:
278,275,27197,1,2,0:0:0:0:
278,275,27289,1,2,0:0:0:0:
278,275,27381,1,0,0:0:0:0:
244,226,27473,1,0,0:0:0:0:
278,275,27565,1,2,0:0:0:0:
244,226,27657,1,2,0:0:0:0:
278,275,27749,1,0,0:0:0:0:
244,226,27841,1,2,0:0:0:0:
278,275,27933,1,0,0:0:0:0:
172,193,28117,1,0,0:0:0:0:
278,275,28301,1,2,0:0:0:0:
225,234,28393,1,0,0:0:0:0:
225,234,28485,1,0,0:0:0:0:
249,168,28669,1,0,0:0:0:0:
249,168,28853,1,2,0:0:0:0:
249,168,29037,1,0,0:0:0:0:
225,234,29129,1,0,0:0:0:0:
249,168,29221,1,2,0:0:0:0:
215,226,29313,1,2,0:0:0:0:
249,168,29405,1,0,0:0:0:0:
249,168,29773,1,2,0:0:0:0:
283,296,29957,1,2,0:0:0:0:
256,188,30233,1,0,0:0:0:0:
130,257,30417,1,0,0:0:0:0:
256,188,30601,1,2,0:0:0:0:
174,292,30785,1,0,0:0:0:0:
256,188,30969,1,2,0:0:0:0:
144,260,31153,1,2,0:0:0:0:
256,188,31337,1,0,0:0:0:0:
139,252,31521,1,0,0:0:0:0:
256,188,31705,1,2,0:0:0:0:
173,294,31889,1,2,0:0:0:0:
256,188,32073,1,2,0:0:0:0:
172,295,32257,1,0,0:0:0:0:
256,188,32441,1,0,0:0:0:0:
139,252,32625,1,0,0:0:0:0:
256,188,32809,1,2,0:0:0:0:
178,287,32993,1,0,0:0:0:0:
256,188,33177,1,2,0:0:0:0:
139,252,33361,1,2,0:0:0:0:
256,188,33545,1,0,0:0:0:0:
139,252,33729,1,0,0:0:0:0:
259,217,33913,1,2,0:0:0:0:
141,162,34098,1,0,0:0:0:0:
259,217,34282,1,2,0:0:0:0:
139,207,34466,1,0,0:0:0:0:
259,217,34650,1,0,0:0:0:0:
138,160,34834,1,0,0:0:0:0:
259,217,35018,1,2,0:0:0:0:
138,160,35202,1,0,0:0:0:0:
259,217,35386,1,2,0:0:0:0:
129,156,35570,1,2,0:0:0:0:
259,217,35754,1,0,0:0:0:0:
138,161,35938,1,0,0:0:0:0:
259,217,36122,1,2,0:0:0:0:
251,195,36168,1,2,0:0:0:0:
259,217,36490,1,0,0:0:0:0:
251,195,36536,1,2,0:0:0:0:
259,217,36858,1,2,0:0:0:0:
251,195,36904,1,0,0:0:0:0:
17,105,37226,1,2,0:0:0:0:
39,104,37272,1,2,0:0:0:0:
258,216,37594,1,0,0:0:0:0:
251,194,37640,1,2,0:0:0:0:
278,275,37963,1,2,0:0:0:0:
269,231,38024,1,0,0:0:0:0:
257,194,38085,1,2,0:0:0:0:
257,149,38147,1,0,0:0:0:0:
257,149,38208,1,2,0:0:0:0:
257,149,38269,1,0,0:0:0:0:
278,275,38331,1,2,0:0:0:0:
288,239,38699,1,2,0:0:0:0:
502,358,39067,1,2,0:0:0:0:
502,358,39159,1,2,0:0:0:0:
502,358,39251,1,0,0:0:0:0:
502,358,39435,1,2,0:0:0:0:
502,358,39619,1,0,0:0:0:0:
502,358,39803,1,2,0:0:0:0:
502,358,39895,1,2,0:0:0:0:
444,325,39987,1,0,0:0:0:0:
386,292,40079,1,0,0:0:0:0:
328,259,40171,1,2,0:0:0:0:
270,226,40263,1,0,0:0:0:0:
212,193,40355,1,2,0:0:0:0:
270,226,40447,1,2,0:0:0:0:
328,257,40539,1,0,0:0:0:0:
213,190,40723,1,2,0:0:0:0:
270,223,40815,1,0,0:0:0:0:
327,257,40907,1,2,0:0:0:0:
257,201,40999,1,2,0:0:0:0:
212,189,41091,1,0,0:0:0:0:
326,256,41275,1,2,0:0:0:0:
211,189,41459,1,0,0:0:0:0:
266,223,41551,1,0,0:0:0:0:
325,255,41643,1,2,0:0:0:0:
200,185,41827,1,2,0:0:0:0:
316,249,42011,1,0,0:0:0:0:
199,184,42195,1,2,0:0:0:0:
257,216,42287,1,0,0:0:0:0:
81,124,42379,1,0,0:0:0:0:
198,185,42563,1,0,0:0:0:0:
315,249,42747,1,2,0:0:0:0:
198,183,42932,1,2,0:0:0:0:
255,215,43024,1,0,0:0:0:0:
69,111,43116,1,0,0:0:0:0:
185,175,43300,1,0,0:0:0:0:
300,241,43484,1,2,0:0:0:0:
198,183,43668,1,0,0:0:0:0:
220,245,43760,1,0,0:0:0:0:
220,245,43852,1,2,0:0:0:0:
220,245,43944,1,0,0:0:0:0:
174,188,44036,1,2,0:0:0:0:
226,228,44128,1,2,0:0:0:0:
279,267,44220,1,0,0:0:0:0:
279,267,44312,1,2,0:0:0:0:
279,267,44404,1,2,0:0:0:0:
279,267,44496,1,0,0:0:0:0:
279,267,44588,1,2,0:0:0:0:
279,267,44680,1,2,0:0:0:0:
279,267,44772,1,0,0:0:0:0:
279,267,44864,1,2,0:0:0:0:
279,267,44956,1,0,0:0:0:0:
185,172,45140,1,0,0:0:0:0:
163,235,45232,1,0,0:0:0:0:
185,172,45324,1,2,0:0:0:0:
163,235,45416,1,2,0:0:0:0:
272,241,45508,1,0,0:0:0:0:
272,241,45600,1,0,0:0:0:0:
272,241,45692,1,2,0:0:0:0:
272,241,45784,1,0,0:0:0:0:
272,241,45876,1,0,0:0:0:0:
272,241,45968,1,2,0:0:0:0:
272,241,46060,1,0,0:0:0:0:
272,241,46152,1,0,0:0:0:0:
272,241,46244,1,2,0:0:0:0:
272,241,46336,1,2,0:0:0:0:
272,241,46428,1,0,0:0:0:0:
177,146,46613,1,2,0:0:0:0:
276,220,46797,1,0,0:0:0:0:
209,220,46889,1,0,0:0:0:0:
143,221,46981,1,2,0:0:0:0:
177,146,47073,1,0,0:0:0:0:
149,176,47165,1,0,0:0:0:0:
305,279,47257,1,2,0:0:0:0:
276,220,47349,1,0,0:0:0:0:
213,198,47441,1,0,0:0:0:0:
149,176,47533,1,2,0:0:0:0:
209,220,47625,1,2,0:0:0:0:
276,220,47717,1,0,0:0:0:0:
209,220,47809,1,2,0:0:0:0:
396,276,47901,1,2,0:0:0:0:
276,220,48269,1,0,0:0:0:0:
295,229,48637,1,0,0:0:0:0:
232,206,48729,1,0,0:0:0:0:
285,151,48821,1,2,0:0:0:0:
245,97,48913,1,2,0:0:0:0:
295,229,49005,1,0,0:0:0:0:
285,151,49097,1,2,0:0:0:0:
285,151,49189,1,2,0:0:0:0:
224,162,49373,1,4,0:0:0:0:
182,112,49557,1,0,0:0:0:0:
224,162,49649,1,0,0:0:0:0:
268,215,49741,1,2,0:0:0:0:
204,194,49833,1,0,0:0:0:0:
268,215,49925,1,2,0:0:0:0:
182,112,50017,1,0,0:0:0:0:
268,215,50109,1,2,0:0:0:0:
197,192,50201,1,2,0:0:0:0:
268,215,50293,1,0,0:0:0:0:
182,112,50386,1,0,0:0:0:0:
268,215,50478,1,2,0:0:0:0:
295,84,50662,1,2,0:0:0:0:
266,143,50754,1,0,0:0:0:0:
268,215,50846,1,0,0:0:0:0:
141,174,51030,1,2,0:0:0:0:
268,215,51214,1,0,0:0:0:0:
204,235,51306,1,2,0:0:0:0:
133,136,51398,1,2,0:0:0:0:
191,104,51490,1,2,0:0:0:0:
268,215,51582,1,0,0:0:0:0:
268,215,51766,1,2,0:0:0:0:
223,165,51858,1,2,0:0:0:0:
268,215,51950,1,0,0:0:0:0:
204,194,52042,1,0,0:0:0:0:
210,121,52134,1,2,0:0:0:0:
145,103,52226,1,0,0:0:0:0:
296,222,52318,1,2,0:0:0:0:
232,202,52410,1,2,0:0:0:0:
278,353,52502,1,0,0:0:0:0:
146,1,52686,1,2,0:0:0:0:
212,115,52870,1,0,0:0:0:0:
245,172,52962,1,0,0:0:0:0:
300,228,53054,1,0,0:0:0:0:
257,354,53238,1,0,0:0:0:0:
151,7,53422,1,2,0:0:0:0:
217,122,53606,1,2,0:0:0:0:
250,179,53698,1,2,0:0:0:0:
299,227,53790,1,0,0:0:0:0:
232,229,53882,1,0,0:0:0:0:
226,118,53974,1,2,0:0:0:0:
223,184,54066,1,2,0:0:0:0:
232,229,54159,1,2,0:0:0:0:
232,229,54251,1,0,0:0:0:0:
225,117,54343,1,2,0:0:0:0:
232,229,54435,1,2,0:0:0:0:
299,227,54527,1,0,0:0:0:0:
281,291,54619,1,0,0:0:0:0:
232,229,54711,1,0,0:0:0:0:
172,173,54803,1,2,0:0:0:0:
298,226,54895,1,0,0:0:0:0:
232,229,54987,1,0,0:0:0:0:
268,355,55079,1,2,0:0:0:0:
283,290,55171,1,2,0:0:0:0:
304,236,55263,1,0,0:0:0:0:
276,195,55447,1,2,0:0:0:0:
232,229,55539,1,2,0:0:0:0:
276,195,55631,1,0,0:0:0:0:
276,195,55815,1,2,0:0:0:0:
276,195,55999,1,0,0:0:0:0:
197,87,56183,1,2,0:0:0:0:
210,170,56275,1,0,0:0:0:0:
50,52,56367,1,2,0:0:0:0:
85,88,56459,1,2,0:0:0:0:
152,136,56551,1,0,0:0:0:0:
276,195,56735,1,2,0:0:0:0:
293,259,56827,1,2,0:0:0:0:
231,233,56919,1,2,0:0:0:0:
231,233,57011,1,0,0:0:0:0:
44,69,57103,1,2,0:0:0:0:
93,113,57195,1,2,0:0:0:0:
169,112,57287,1,0,0:0:0:0:
293,259,57471,1,0,0:0:0:0:
164,121,57655,1,0,0:0:0:0:
293,259,57747,1,0,0:0:0:0:
294,157,57840,1,2,0:0:0:0:
293,259,58024,1,0,0:0:0:0:
56,275,58208,1,2,0:0:0:0:
105,231,58300,1,2,0:0:0:0:
186,247,58392,1,0,0:0:0:0:
293,259,58484,1,0,0:0:0:0:
302,153,58576,1,0,0:0:0:0:
293,259,58760,1,0,0:0:0:0:
64,271,58944,1,2,0:0:0:0:
113,226,59036,1,0,0:0:0:0:
293,259,59128,1,0,0:0:0:0:
293,259,59220,1,0,0:0:0:0:
302,153,59312,1,0,0:0:0:0:
293,259,59496,1,2,0:0:0:0:
64,271,59680,1,0,0:0:0:0:
183,212,59864,1,2,0:0:0:0:
249,218,59956,1,0,0:0:0:0:
302,153,60048,1,0,0:0:0:0:
229,127,60140,1,2,0:0:0:0:
183,212,60232,1,0,0:0:0:0:
229,127,60324,1,0,0:0:0:0:
302,153,60416,1,2,0:0:0:0:
250,178,60478,1,0,0:0:0:0:
191,210,60539,1,0,0:0:0:0:
249,178,60600,1,2,0:0:0:0:
185,197,60692,1,0,0:0:0:0:
191,211,60784,1,0,0:0:0:0:
248,178,60876,1,0,0:0:0:0:
191,211,60968,1,2,0:0:0:0:
248,178,61060,1,2,0:0:0:0:
268,215,61152,1,0,0:0:0:0:
211,94,61336,1,0,0:0:0:0:
268,215,61520,1,2,0:0:0:0:
333,244,61613,1,2,0:0:0:0:
268,215,61704,1,0,0:0:0:0:
268,215,61888,1,2,0:0:0:0:
321,239,61981,1,2,0:0:0:0:
268,215,62072,1,0,0:0:0:0:
203,195,62165,1,0,0:0:0:0:
268,215,62257,1,2,0:0:0:0:
205,192,62349,1,0,0:0:0:0:
295,84,62441,1,2,0:0:0:0:
293,139,62533,1,2,0:0:0:0:
268,215,62625,1,0,0:0:0:0:
202,223,62809,1,2,0:0:0:0:
268,215,62993,1,0,0:0:0:0:
202,223,63085,1,0,0:0:0:0:
133,136,63177,1,2,0:0:0:0:
268,215,63361,1,0,0:0:0:0:
202,223,63453,1,0,0:0:0:0:
268,215,63545,1,2,0:0:0:0:
205,192,63637,1,0,0:0:0:0:
268,215,63729,1,0,0:0:0:0:
205,192,63821,1,2,0:0:0:0:
210,121,63913,1,2,0:0:0:0:
202,223,64005,1,2,0:0:0:0:
296,222,64097,1,0,0:0:0:0:
202,223,64281,1,0,0:0:0:0:
202,223,64373,1,0,0:0:0:0:
146,1,64465,1,2,0:0:0:0:
202,223,64557,1,2,0:0:0:0:
202,223,64649,1,0,0:0:0:0:
300,228,64833,1,0,0:0:0:0:
202,223,65017,1,0,0:0:0:0:
202,223,65109,1,0,0:0:0:0:
151,7,65201,1,2,0:0:0:0:
202,223,65293,1,2,0:0:0:0:
202,223,65386,1,0,0:0:0:0:
299,227,65569,1,0,0:0:0:0:
202,223,65662,1,0,0:0:0:0:
226,118,65753,1,0,0:0:0:0:
226,118,65846,1,2,0:0:0:0:
300,228,65938,1,0,0:0:0:0:
202,223,66030,1,0,0:0:0:0:
225,117,66122,1,2,0:0:0:0:
226,118,66214,1,2,0:0:0:0:
299,227,66306,1,0,0:0:0:0:
202,223,66398,1,0,0:0:0:0:
225,116,66490,1,2,0:0:0:0:
202,223,66582,1,2,0:0:0:0:
298,226,66674,1,2,0:0:0:0:
225,117,66766,1,0,0:0:0:0:
202,223,66858,1,2,0:0:0:0:
202,223,66950,1,2,0:0:0:0:
304,236,67042,1,0,0:0:0:0:
276,195,67226,1,2,0:0:0:0:
276,195,67410,1,0,0:0:0:0:
202,223,67502,1,0,0:0:0:0:
276,195,67594,1,2,0:0:0:0:
276,195,67778,1,0,0:0:0:0:
163,124,67962,1,2,0:0:0:0:
202,223,68054,1,0,0:0:0:0:
50,52,68146,1,2,0:0:0:0:
85,108,68238,1,2,0:0:0:0:
202,223,68330,1,0,0:0:0:0:
184,158,68422,1,0,0:0:0:0:
276,195,68514,1,2,0:0:0:0:
202,223,68606,1,0,0:0:0:0:
171,112,68698,1,2,0:0:0:0:
44,69,68882,1,2,0:0:0:0:
202,223,68974,1,2,0:0:0:0:
169,112,69066,1,0,0:0:0:0:
43,68,69250,1,2,0:0:0:0:
164,121,69434,1,0,0:0:0:0:
202,223,69527,1,0,0:0:0:0:
294,157,69619,1,2,0:0:0:0:
202,223,69803,1,0,0:0:0:0:
202,223,69895,1,0,0:0:0:0:
56,275,69987,1,2,0:0:0:0:
173,212,70171,1,2,0:0:0:0:
302,153,70355,1,0,0:0:0:0:
180,207,70539,1,2,0:0:0:0:
64,271,70723,1,2,0:0:0:0:
202,223,70815,1,2,0:0:0:0:
181,208,70907,1,2,0:0:0:0:
299,148,71091,1,2,0:0:0:0:
181,209,71275,1,0,0:0:0:0:
202,223,71367,1,0,0:0:0:0:
64,271,71459,1,2,0:0:0:0:
183,212,71643,1,0,0:0:0:0:
302,153,71827,1,0,0:0:0:0:
183,212,72011,1,0,0:0:0:0:
302,153,72195,1,2,0:0:0:0:
250,178,72257,1,2,0:0:0:0:
191,210,72318,1,2,0:0:0:0:
249,178,72379,1,0,0:0:0:0:
210,232,72471,1,0,0:0:0:0:
191,211,72563,1,2,0:0:0:0:
248,178,72625,1,0,0:0:0:0:
204,184,72686,1,0,0:0:0:0:
191,211,72747,1,2,0:0:0:0:
248,178,72839,1,2,0:0:0:0:
191,212,72931,1,0,0:0:0:0:
323,230,73116,1,0,0:0:0:0:
395,382,73300,1,6,0:0:0:0:
409,233,73484,1,0,0:0:0:0:
353,269,73576,1,0,0:0:0:0:
409,233,73668,1,0,0:0:0:0:
409,233,73852,1,0,0:0:0:0:
346,341,74036,1,6,0:0:0:0:
357,212,74220,1,0,0:0:0:0:
295,238,74312,1,0,0:0:0:0:
295,238,74404,1,2,0:0:0:0:
357,212,74496,1,0,0:0:0:0:
192,322,74588,1,2,0:0:0:0:
295,238,74772,1,2,0:0:0:0:
355,213,74956,1,0,0:0:0:0:
357,212,75140,1,2,0:0:0:0:
357,212,75232,1,0,0:0:0:0:
357,212,75324,1,0,0:0:0:0:
357,212,75508,1,2,0:0:0:0:
357,212,75692,1,2,0:0:0:0:
357,212,75876,1,0,0:0:0:0:
357,212,75968,1,2,0:0:0:0:
357,212,76060,1,0,0:0:0:0:
357,212,76152,1,0,0:0:0:0:
357,212,76244,1,2,0:0:0:0:
357,212,76428,1,2,0:0:0:0:
357,212,76613,1,0,0:0:0:0:
357,212,76797,1,2,0:0:0:0:
357,212,76889,1,0,0:0:0:0:
357,212,76981,1,2,0:0:0:0:
297,181,77073,1,2,0:0:0:0:
357,212,77165,1,0,0:0:0:0:
357,212,77257,1,0,0:0:0:0:
357,212,77349,1,2,0:0:0:0:
335,200,77441,1,0,0:0:0:0:
357,212,77533,1,0,0:0:0:0:
290,214,77625,1,2,0:0:0:0:
357,212,77717,1,0,0:0:0:0:
290,214,77809,1,0,0:0:0:0:
238,150,77901,1,2,0:0:0:0:
296,180,77993,1,0,0:0:0:0:
236,150,78085,1,2,0:0:0:0:
295,179,78177,1,2,0:0:0:0:
234,150,78269,1,0,0:0:0:0:
250,214,78330,1,0,0:0:0:0:
286,240,78392,1,0,0:0:0:0:
350,205,78453,1,2,0:0:0:0:
229,148,78637,1,2,0:0:0:0:
318,279,78729,1,2,0:0:0:0:
349,204,78821,1,0,0:0:0:0:
318,279,79005,1,0,0:0:0:0:
346,341,79189,1,6,0:0:0:0:
292,219,79373,1,0,0:0:0:0:
318,279,79465,1,0,0:0:0:0:
227,73,79557,1,0,0:0:0:0:
281,194,79741,1,0,0:0:0:0:
346,341,79925,1,6,0:0:0:0:
318,279,80109,1,2,0:0:0:0:
318,279,80201,1,2,0:0:0:0:
318,279,80293,1,0,0:0:0:0:
318,279,80386,1,0,0:0:0:0:
318,279,80478,1,2,0:0:0:0:
318,279,80662,1,2,0:0:0:0:
318,279,80846,1,0,0:0:0:0:
207,352,81030,1,0,0:0:0:0:
262,315,81122,1,0,0:0:0:0:
318,279,81214,1,2,0:0:0:0:
318,279,81398,1,0,0:0:0:0:
318,279,81582,1,2,0:0:0:0:
262,315,81643,1,2,0:0:0:0:
260,245,81705,1,2,0:0:0:0:
318,279,81766,1,0,0:0:0:0:
260,245,81858,1,0,0:0:0:0:
207,352,81950,1,2,0:0:0:0:
262,315,82042,1,0,0:0:0:0:
318,279,82134,1,2,0:0:0:0:
397,266,82318,1,4,0:0:0:0:
268,300,82502,1,2,0:0:0:0:
255,234,82594,1,0,0:0:0:0:
244,168,82686,1,0,0:0:0:0:
182,193,82778,1,2,0:0:0:0:
219,38,82870,1,2,0:0:0:0:
231,103,82962,1,0,0:0:0:0:
243,168,83054,1,2,0:0:0:0:
256,233,83116,1,0,0:0:0:0:
212,236,83177,1,0,0:0:0:0:
244,177,83238,1,2,0:0:0:0:
274,306,83422,1,0,0:0:0:0:
259,241,83514,1,0,0:0:0:0:
243,176,83606,1,2,0:0:0:0:
397,266,83790,1,4,0:0:0:0:
276,210,83974,1,2,0:0:0:0:
215,182,84066,1,0,0:0:0:0:
275,210,84159,1,0,0:0:0:0:
158,156,84343,1,2,0:0:0:0:
218,183,84404,1,0,0:0:0:0:
233,224,84465,1,0,0:0:0:0:
277,211,84527,1,2,0:0:0:0:
216,183,84619,1,0,0:0:0:0:
304,279,84711,1,2,0:0:0:0:
243,251,84803,1,2,0:0:0:0:
304,279,84895,1,0,0:0:0:0:
225,238,84987,1,2,0:0:0:0:
304,279,85079,1,2,0:0:0:0:
260,228,85171,1,0,0:0:0:0:
304,279,85263,1,2,0:0:0:0:
291,213,85355,1,0,0:0:0:0:
258,230,85447,1,2,0:0:0:0:
304,279,85508,1,2,0:0:0:0:
304,279,85570,1,2,0:0:0:0:
267,225,85631,1,0,0:0:0:0:
304,279,85815,1,2,0:0:0:0:
397,266,85999,1,4,0:0:0:0:
304,279,86367,1,0,0:0:0:0:
262,268,86413,1,2,0:0:0:0:
304,279,86551,1,0,0:0:0:0:
304,279,86597,1,0,0:0:0:0:
304,279,86735,1,2,0:0:0:0:
304,279,86781,1,0,0:0:0:0:
304,279,86919,1,0,0:0:0:0:
304,279,86965,1,2,0:0:0:0:
304,279,87103,1,0,0:0:0:0:
304,279,87149,1,0,0:0:0:0:
304,279,87287,1,2,0:0:0:0:
304,279,87333,1,0,0:0:0:0:
304,279,87471,1,0,0:0:0:0:
304,279,87517,1,2,0:0:0:0:
304,279,87840,1,0,0:0:0:0:
433,293,88024,1,2,0:0:0:0:
433,293,88085,1,0,0:0:0:0:
382,276,88146,1,0,0:0:0:0:
433,293,88208,1,2,0:0:0:0:
433,293,88392,1,4,0:0:0:0:
