osu file format v14

[General]
AudioFilename: Foul Play ni Kurari (TV Size).mp3
AudioLeadIn: 1500
PreviewTime: 48269
Countdown: 0
SampleSet: Soft
StackLeniency: 0.7
Mode: 0
LetterboxInBreaks: 0
WidescreenStoryboard: 1

[Editor]
Bookmarks: 4947,43504,44608,76264
DistanceSpacing: 1.4
BeatDivisor: 4
GridSize: 8
TimelineZoom: 3.799998

[Metadata]
Title:Foul Play ni Kurari (TV Size)
TitleUnicode:ファールプレーにくらり (TV Size)
Artist:Wakeshima Kanon
ArtistUnicode:分島花音
Creator:Uta
Version:Hard
Source:To LOVEる-とらぶる-ダークネス
Tags:ending trouble to love ru darkness lala satalin deviluke uta waifuiscute fluffy hair ancul yahuri
BeatmapID:1777847
BeatmapSetID:849022

[Difficulty]
HPDrainRate:5
CircleSize:4
OverallDifficulty:7
ApproachRate:8
SliderMultiplier:1.40000000596046
SliderTickRate:1

[Events]
//Background and Video events
0,0,"bg for this anime is hard to find.jpg",0,0
//Break Periods
//Storyboard Layer 0 (Background)
//Storyboard Layer 1 (Fail)
//Storyboard Layer 2 (Pass)
//Storyboard Layer 3 (Foreground)
//Storyboard Sound Samples

[TimingPoints]
694,368.098159509202,4,2,1,50,1,0
6583,-111.111111111111,4,2,1,35,0,0
8240,-111.111111111111,4,2,1,25,0,0
9528,-111.111111111111,4,2,1,35,0,0
12473,-83.3333333333333,4,2,1,50,0,0
13945,-100,4,2,1,50,0,0
17074,-100,4,2,1,30,0,0
17810,-100,4,2,1,45,0,0
24252,-83.3333333333333,4,2,1,45,0,0
24988,-71.4285714285714,4,2,1,45,0,0
27197,-100,4,2,1,45,0,0
29773,-100,4,2,1,30,0,0
30233,368.098159509202,3,2,1,30,1,0
30233,-142.857142857143,3,2,1,30,0,0
39067,368.098159509202,4,2,1,50,1,0
39067,-100,4,2,1,50,0,0
49373,-90.9090909090909,4,2,1,45,0,1
69987,-100,4,2,1,55,0,0
70079,-100,4,2,1,35,0,0
72195,-142.857142857143,4,2,1,45,0,0
72932,-100,4,2,1,50,0,0
78821,-83.3333333333333,4,2,1,50,0,0
80478,-100,4,2,1,50,0,0
86367,-111.111111111111,4,2,1,50,0,0
88392,-111.111111111111,4,2,69,50,0,0

[Colours]
Combo1 : 128,128,255
Combo2 : 255,170,213
Combo3 : 255,179,102

[HitObjects]
67,82,325,6,0,L|59:35,3,35.0000001490115
81,103,694,6,0,P|113:98|153:95,1,70.000000298023,4|0,3:0|0:0,0:0:0:0:
228,38,1062,2,0,P|209:93|219:150,1,105.000000447034,4|0,0:0|0:0,0:0:0:0:
229,158,1430,2,0,P|263:161|298:165,1,70.000000298023,4|0,3:0|0:0,0:0:0:0:
382,216,1798,2,0,L|389:102,1,105.000000447034,4|0,0:0|0:0,0:0:0:0:
394,87,2166,5,2,0:0:0:0:
394,87,2350,1,2,0:0:0:0:
420,293,2718,6,0,B|381:304|346:292|346:292|309:280|260:297,1,140.000000596046,4|2,0:0|0:0,0:0:0:0:
281,290,3270,1,4,0:0:0:0:
214,340,3454,1,0,0:0:0:0:
154,280,3638,6,0,L|153:203,1,70.000000298023,2|0,3:0|0:0,0:0:0:0:
240,165,4006,2,0,L|241:242,1,70.000000298023,2|0,3:0|0:0,0:0:0:0:
153,210,4374,2,0,L|152:133,1,70.000000298023,2|0,3:0|0:0,0:0:0:0:
215,71,4743,1,8,0:0:0:0:
154,0,4927,1,4,3:0:0:0:
13,143,5295,6,0,P|6:174|8:222,3,70.000000298023,2|2|2|2,0:0|0:0|0:0|0:0,0:0:0:0:
98,186,6031,1,8,3:0:0:0:
98,186,6215,1,4,3:0:0:0:
135,317,6583,6,0,B|175:327|175:327|214:306|278:320,1,125.999996691227,4|4,3:0|3:0,0:0:0:0:
330,336,7135,1,0,0:0:0:0:
389,289,7319,2,0,B|399:249|399:249|378:210|392:146,2,125.999996691227,4|4|4,3:0|3:0|3:0,0:0:0:0:
389,289,9528,6,0,B|399:249|399:249|378:210|392:146,1,125.999996691227,4|4,3:0|3:0,0:0:0:0:
366,94,10080,1,0,0:0:0:0:
440,108,10264,2,0,L|512:102,1,62.9999983456133,4|0,3:0|0:0,0:0:0:0:
459,17,10632,2,0,L|387:11,1,62.9999983456133,4|0,3:0|0:0,0:0:0:0:
320,16,11000,5,4,3:0:0:0:
320,16,11184,2,0,P|254:48|223:112,1,125.999996691227,2|0,0:0|0:0,0:0:0:0:
198,161,11736,2,0,L|110:154,1,62.9999983456133,2|8,0:0|0:0,0:0:0:0:
123,166,12013,1,8,0:0:0:0:
123,166,12105,1,8,0:0:0:0:
37,46,12473,6,0,B|43:84|44:111|44:111|26:165|37:197|56:235,1,167.999995588302,0|4,0:0|3:0,0:0:0:0:
147,317,13209,2,0,P|86:264|-10:289,1,167.999995588302,0|4,0:0|3:0,0:0:0:0:
66,357,13761,1,0,0:0:0:0:
66,357,13853,1,0,0:0:0:0:
66,357,13945,6,0,L|222:364,1,140.000000596046,4|2,0:0|0:0,0:0:0:0:
279,322,14497,2,0,P|311:331|361:333,1,70.000000298023,2|0,0:0|0:0,0:0:0:0:
431,332,14865,1,2,0:0:0:0:
472,182,15233,1,2,0:0:0:0:
399,224,15417,6,0,P|388:177|407:78,1,140.000000596046,2|2,0:0|0:0,0:0:0:0:
347,25,15970,2,0,P|312:29|277:31,1,70.000000298023,2|0,0:0|0:0,0:0:0:0:
136,72,16338,2,0,P|171:76|206:78,1,70.000000298023,2|0,0:0|0:0,0:0:0:0:
243,159,16706,1,0,0:0:0:0:
243,159,16890,1,0,0:0:0:0:
243,159,17074,6,0,P|249:198|246:247,3,70.000000298023,2|2|2|2,0:0|0:0|0:0|0:0,0:0:0:0:
161,181,17810,2,0,B|109:172|109:172|71:181|71:181|1:171,1,140.000000596046,2|0,0:0|0:0,0:0:0:0:
11,257,18362,5,8,0:0:0:0:
89,316,18546,1,8,0:0:0:0:
89,316,18638,1,8,0:0:0:0:
89,316,18730,1,8,0:0:0:0:
172,277,18914,1,8,0:0:0:0:
172,277,19006,1,8,0:0:0:0:
172,277,19098,2,0,P|206:283|241:295,1,70.000000298023,2|0,0:0|0:0,0:0:0:0:
309,340,19467,2,0,P|342:328|376:322,1,70.000000298023,2|0,0:0|0:0,0:0:0:0:
452,358,19835,6,0,P|469:292|456:213,1,140.000000596046,2|2,0:0|0:0,0:0:0:0:
324,169,20571,2,0,P|307:235|320:314,1,140.000000596046,2|2,0:0|0:0,0:0:0:0:
422,138,21307,6,0,L|415:48,1,70.000000298023,8|8,0:0|0:0,0:0:0:0:
348,19,21675,1,8,0:0:0:0:
348,19,21859,1,8,0:0:0:0:
281,70,22043,2,0,P|245:68|205:66,1,70.000000298023,8|8,0:0|0:0,0:0:0:0:
131,40,22411,2,0,P|96:42|61:43,1,70.000000298023,8|8,0:0|0:0,0:0:0:0:
18,115,22779,6,0,P|5:195|37:262,2,140.000000596046,4|4|2,3:0|3:0|3:0,0:0:0:0:
109,140,23700,1,8,3:0:0:0:
109,140,23884,2,0,L|117:220,1,70.000000298023,8|8,3:0|3:0,0:0:0:0:
127,306,24252,6,0,P|213:256|308:280,1,167.999995588302,2|4,0:0|0:0,0:0:0:0:
312,291,24988,2,0,B|349:321|349:321|397:258|500:264,1,195.999994853019,0|4,0:0|0:0,0:0:0:0:
489,246,25724,2,0,B|466:210|466:210|457:377,1,195.999994853019,0|4,0:0|0:0,0:0:0:0:
447,344,26460,2,0,B|394:318|341:331|341:331|286:344|235:318,1,195.999994853019,0|4,0:0|0:0,0:0:0:0:
243,340,27197,6,0,P|241:296|232:264,1,70.000000298023,2|2,0:0|0:0,0:0:0:0:
212,189,27565,2,0,P|188:151|164:128,1,70.000000298023,2|2,0:0|0:0,0:0:0:0:
89,106,27933,2,0,P|156:113|221:60,2,140.000000596046,4|4|2,3:0|3:0|0:0,0:0:0:0:
12,140,28853,1,2,0:0:0:0:
12,140,29037,2,0,P|19:181|20:222,1,70.000000298023,2|2,0:0|0:0,0:0:0:0:
4,291,29405,1,2,0:0:0:0:
198,210,29773,5,2,3:0:0:0:
317,338,30233,6,0,P|336:277|335:242,1,97.9999974265096,4|2,3:0|0:0,0:0:0:0:
289,179,30969,1,2,0:0:0:0:
318,106,31337,2,0,L|420:102,1,97.9999974265096,4|2,3:0|0:0,0:0:0:0:
478,148,32073,2,0,L|470:213,1,48.9999987132548,2|0,0:0|0:0,0:0:0:0:
464,217,32441,6,0,P|480:273|472:317,1,97.9999974265096,4|2,3:0|0:0,0:0:0:0:
410,357,33177,1,2,0:0:0:0:
352,303,33545,2,0,P|296:298|244:300,1,97.9999974265096,4|2,3:0|0:0,0:0:0:0:
179,275,34282,2,0,P|153:280|119:286,1,48.9999987132548,2|0,0:0|0:0,0:0:0:0:
112,296,34650,6,0,P|98:211|103:183,1,97.9999974265096,4|2,3:0|0:0,0:0:0:0:
121,125,35386,1,2,0:0:0:0:
192,156,35754,2,0,L|297:165,1,97.9999974265096,4|0,3:0|0:0,0:0:0:0:
356,123,36490,1,2,0:0:0:0:
295,72,36858,6,0,L|197:63,2,97.9999974265096,2|2|2,0:0|0:0|0:0,0:0:0:0:
356,123,37963,2,0,L|453:114,2,97.9999974265096,2|2|2,0:0|0:0|0:0,0:0:0:0:
295,72,39067,5,0,0:0:0:0:
214,46,39251,2,0,P|192:74|176:116,1,70.000000298023,0|2,0:0|0:0,0:0:0:0:
154,180,39619,1,0,0:0:0:0:
154,180,39803,2,0,P|58:203|26:186,1,140.000000596046,2|2,0:0|0:0,0:0:0:0:
70,328,40539,1,2,0:0:0:0:
148,298,40723,1,2,0:0:0:0:
219,342,40907,1,2,0:0:0:0:
286,291,41091,6,0,P|305:204|295:142,1,140.000000596046,2|2,0:0|0:0,0:0:0:0:
281,72,41643,1,2,0:0:0:0:
281,72,41827,1,2,0:0:0:0:
362,93,42011,6,0,L|449:89,1,70.000000298023,4|0,0:0|0:0,0:0:0:0:
494,145,42379,1,0,0:0:0:0:
449,216,42563,1,0,0:0:0:0:
486,291,42747,2,0,P|425:263|334:269,1,140.000000596046,4|0,0:0|0:0,0:0:0:0:
281,218,43300,1,0,0:0:0:0:
203,265,43484,6,0,P|192:224|202:123,1,140.000000596046,4|0,0:0|0:0,0:0:0:0:
244,48,44036,1,0,0:0:0:0:
254,52,44128,1,0,0:0:0:0:
264,56,44220,2,0,P|304:49|354:55,1,70.000000298023,0|0,0:0|0:0,0:0:0:0:
305,138,44588,2,0,L|299:219,1,70.000000298023,0|0,0:0|0:0,0:0:0:0:
298,219,44864,1,0,0:0:0:0:
294,231,44956,6,0,P|228:251|147:218,1,140.000000596046,4|0,0:0|0:0,0:0:0:0:
95,168,45508,1,0,0:0:0:0:
85,172,45600,1,0,0:0:0:0:
75,176,45692,2,0,P|35:169|-15:175,1,70.000000298023,0|0,0:0|0:0,0:0:0:0:
92,81,46060,2,0,P|127:74|162:76,1,70.000000298023,0|0,0:0|0:0,0:0:0:0:
244,36,46428,5,4,0:0:0:0:
244,36,46613,1,0,0:0:0:0:
325,75,46797,2,0,P|359:73|394:80,1,70.000000298023,0|0,0:0|0:0,0:0:0:0:
448,144,47165,2,0,L|451:215,1,70.000000298023,4|0,0:0|0:0,0:0:0:0:
509,274,47533,2,0,L|469:333,1,70.000000298023,0|0,0:0|0:0,0:0:0:0:
386,332,47901,1,4,0:0:0:0:
386,332,48269,2,0,P|290:333|230:348,2,140.000000596046,4|4|4,0:0|0:0|0:0,0:0:0:0:
157,298,49373,6,0,P|147:333|152:376,1,77.0000026776789,4|0,0:0|0:0,0:0:0:0:
246,340,49741,1,2,0:0:0:0:
246,340,49925,2,0,L|252:176,1,154.000005355358,2|2,0:0|0:0,0:0:0:0:
180,114,50478,1,2,0:0:0:0:
94,166,50662,1,2,0:0:0:0:
43,79,50846,6,0,P|2:145|10:219,1,154.000005355358,4|2,0:0|0:0,0:0:0:0:
68,299,51398,2,0,P|106:293|146:290,1,77.0000026776789,2|0,0:0|0:0,0:0:0:0:
240,262,51766,1,2,0:0:0:0:
253,361,51950,1,2,0:0:0:0:
344,320,52134,1,2,0:0:0:0:
443,333,52318,6,0,P|422:259|449:164,1,154.000005355358,4|0,0:0|0:0,0:0:0:0:
479,94,52870,1,8,0:0:0:0:
392,37,53054,2,0,B|344:31|344:31|292:51|292:51|224:40,1,154.000005355358,4|0,0:0|0:0,0:0:0:0:
176,123,53606,1,8,0:0:0:0:
242,197,53790,6,0,P|268:147|270:111,1,77.0000026776789,4|0,0:0|0:0,0:0:0:0:
176,123,54159,2,0,P|149:172|148:209,1,77.0000026776789,4|0,0:0|0:0,0:0:0:0:
154,292,54527,1,4,0:0:0:0:
65,338,54711,1,0,0:0:0:0:
19,248,54895,1,4,0:0:0:0:
65,159,55079,1,0,0:0:0:0:
49,60,55263,6,0,B|83:51|118:47|118:47|150:56|150:56|208:53,1,154.000005355358,4|2,0:0|0:0,0:0:0:0:
295,20,55815,2,0,P|337:20|389:36,1,77.0000026776789,2|0,0:0|0:0,0:0:0:0:
434,105,56183,1,2,0:0:0:0:
434,105,56367,2,0,L|444:193,1,77.0000026776789,2|2,0:0|0:0,0:0:0:0:
438,275,56735,6,0,P|360:254|284:249,1,154.000005355358,6|2,0:0|0:0,0:0:0:0:
198,296,57287,2,0,P|190:251|192:215,1,77.0000026776789,2|0,0:0|0:0,0:0:0:0:
207,122,57655,2,0,P|215:85|214:46,2,77.0000026776789,2|2|2,0:0|0:0|0:0,0:0:0:0:
117,75,58208,6,0,P|54:105|41:204,1,154.000005355358,4|0,3:0|0:0,0:0:0:0:
118,234,58760,1,0,0:0:0:0:
118,234,58944,2,0,L|113:151,1,77.0000026776789,4|0,3:0|0:0,0:0:0:0:
24,203,59312,2,0,L|29:286,1,77.0000026776789,0|0,0:0|0:0,0:0:0:0:
66,372,59680,6,0,P|146:339|229:355,1,154.000005355358,2|2,0:0|0:0,0:0:0:0:
299,299,60232,1,2,0:0:0:0:
368,370,60416,2,0,B|305:264|368:197|368:197|413:215,1,231.000008033037,2|0,0:0|0:0,0:0:0:0:
501,213,61152,6,0,P|503:167|494:125,1,77.0000026776789,4|0,0:0|0:0,0:0:0:0:
477,45,61520,1,2,0:0:0:0:
477,45,61705,2,0,P|405:38|319:34,1,154.000005355358,2|2,0:0|0:0,0:0:0:0:
241,92,62257,1,2,0:0:0:0:
305,168,62441,1,2,0:0:0:0:
224,108,62625,6,0,P|152:157|141:235,1,154.000005355358,4|2,0:0|0:0,0:0:0:0:
211,286,63177,2,0,L|215:364,1,77.0000026776789,2|0,0:0|0:0,0:0:0:0:
310,333,63545,1,2,0:0:0:0:
401,373,63729,1,2,0:0:0:0:
474,305,63913,1,2,0:0:0:0:
474,305,64097,6,0,P|492:228|443:147,1,154.000005355358,4|0,0:0|0:0,0:0:0:0:
371,119,64649,1,8,0:0:0:0:
297,187,64833,2,0,B|238:154|210:212|139:172,1,154.000005355358,4|0,0:0|0:0,0:0:0:0:
90,93,65386,1,8,0:0:0:0:
189,105,65570,6,0,L|183:28,1,77.0000026776789,4|0,0:0|0:0,0:0:0:0:
290,86,65938,2,0,L|284:162,1,77.0000026776789,4|0,0:0|0:0,0:0:0:0:
229,246,66306,1,4,0:0:0:0:
326,266,66490,1,0,0:0:0:0:
284,357,66674,1,4,0:0:0:0:
184,366,66858,1,0,0:0:0:0:
116,291,67042,6,0,P|95:214|122:118,1,154.000005355358,4|2,0:0|0:0,0:0:0:0:
171,64,67594,2,0,P|205:71|254:75,1,77.0000026776789,2|0,0:0|0:0,0:0:0:0:
307,163,67962,1,2,0:0:0:0:
307,163,68146,2,0,P|273:170|224:174,1,77.0000026776789,2|2,0:0|0:0,0:0:0:0:
174,261,68514,6,0,B|206:275|206:275|235:266|235:266|272:282|330:280,1,154.000005355358,6|2,0:0|0:0,0:0:0:0:
416,313,69066,2,0,P|415:272|411:232,1,77.0000026776789,2|0,0:0|0:0,0:0:0:0:
404,136,69435,1,2,0:0:0:0:
307,163,69619,2,0,P|273:170|224:174,1,77.0000026776789,2|2,0:0|0:0,0:0:0:0:
220,69,69987,5,4,0:0:0:0:
256,192,70079,12,2,71459,3:0:0:0:
220,284,72195,6,0,L|184:291,3,24.4999993566274,8|0|0|0,0:0|0:0|0:0|0:0,0:0:0:0:
136,235,72563,2,0,L|111:230,3,24.4999993566274,8|0|0|0,0:0|0:0|0:0|0:0,0:0:0:0:
35,261,72932,6,0,P|30:229|27:189,1,70.000000298023,4|0,3:0|0:0,0:0:0:0:
54,112,73300,2,0,P|105:116|154:98,1,105.000000447034,4|0,0:0|0:0,0:0:0:0:
174,84,73668,2,0,P|208:87|243:91,1,70.000000298023,4|0,3:0|0:0,0:0:0:0:
311,41,74036,2,0,L|415:34,1,105.000000447034,4|0,0:0|0:0,0:0:0:0:
444,36,74404,5,2,0:0:0:0:
444,36,74588,1,2,0:0:0:0:
492,174,74956,6,0,P|471:245|419:284,1,140.000000596046,4|0,0:0|0:0,0:0:0:0:
420,283,75508,1,4,0:0:0:0:
348,238,75692,1,2,0:0:0:0:
281,289,75876,6,0,L|210:293,2,70.000000298023,2|2|2,0:0|0:0|0:0,0:0:0:0:
348,238,76428,2,0,P|363:152|339:88,1,140.000000596046,4|0,0:0|0:0,0:0:0:0:
281,50,76981,2,0,L|294:6,3,35.0000001490115,2|2|2|2,0:0|0:0|0:0|0:0,0:0:0:0:
268,69,77349,6,0,P|214:71|172:62,1,70.000000298023,2|0,0:0|0:0,0:0:0:0:
127,24,77717,1,2,0:0:0:0:
127,24,77901,1,0,0:0:0:0:
60,75,78085,2,0,L|59:155,1,70.000000298023,2|0,0:0|0:0,0:0:0:0:
153,209,78453,2,0,L|152:139,1,70.000000298023,2|0,0:0|0:0,0:0:0:0:
83,255,78821,6,0,P|142:220|247:237,1,167.999995588302,4|4,3:0|0:0,0:0:0:0:
329,307,79557,2,0,P|270:342|164:324,1,167.999995588302,4|4,3:0|0:0,0:0:0:0:
237,231,80293,5,2,0:0:0:0:
237,231,80478,2,0,B|238:173|242:118|242:118|257:86,1,140.000000596046,2|4,0:0|0:0,0:0:0:0:
355,214,81214,1,0,0:0:0:0:
355,214,81398,2,0,L|351:283,1,70.000000298023,4|2,0:0|0:0,0:0:0:0:
304,353,81766,6,0,P|206:328|144:339,1,140.000000596046,2|2,0:0|0:0,0:0:0:0:
77,346,82318,1,4,0:0:0:0:
130,188,82686,1,0,0:0:0:0:
130,188,82870,2,0,L|124:144,3,35.0000001490115,2|2|2|2,0:0|0:0|0:0|0:0,0:0:0:0:
147,205,83238,6,0,P|245:180|307:191,1,140.000000596046,2|2,0:0|0:0,0:0:0:0:
414,204,83790,1,4,0:0:0:0:
326,46,84159,1,0,0:0:0:0:
326,46,84343,2,0,L|332:2,3,35.0000001490115,2|2|2|2,0:0|0:0|0:0|0:0,0:0:0:0:
309,63,84711,6,0,P|251:55|217:55,1,70.000000298023,2|0,3:0|0:0,0:0:0:0:
175,108,85079,1,0,0:0:0:0:
213,182,85263,2,0,P|271:174|305:174,1,70.000000298023,2|0,3:0|0:0,0:0:0:0:
344,229,85631,1,0,0:0:0:0:
311,306,85815,1,8,0:0:0:0:
311,306,85999,1,4,3:0:0:0:
177,344,86367,6,0,P|177:308|169:278,1,62.9999983456133,2|2,0:0|0:0,0:0:0:0:
107,239,86735,2,0,P|106:203|115:173,1,62.9999983456133,2|2,0:0|0:0,0:0:0:0:
163,120,87103,1,2,0:0:0:0:
237,134,87287,1,2,0:0:0:0:
309,105,87471,1,2,3:0:0:0:
309,105,87840,5,2,0:0:0:0:
237,134,88024,1,2,0:0:0:0:
163,120,88208,1,2,0:0:0:0:
113,177,88392,1,6,0:0:0:0:
