osu file format v14

[General]
AudioFilename: audio.mp3
AudioLeadIn: 0
PreviewTime: 61856
Countdown: 1
SampleSet: Soft
StackLeniency: 0.4
Mode: 0
LetterboxInBreaks: 0
WidescreenStoryboard: 1

[Editor]
DistanceSpacing: 1.2
BeatDivisor: 4
GridSize: 32
TimelineZoom: 1.4

[Metadata]
Title:Koi? De ai? De Boukun desu! (TV Size)
TitleUnicode:Koi? De ai? De Boukun desu! (TV Size)
Artist:Wake up Girls!
ArtistUnicode:Wake up Girls!
Creator:N1czt3r
Version:Kiss Note
Source:暴君を愛する
Tags:anime renai boukun guri angel demon love tyrant
BeatmapID:1929355
BeatmapSetID:923208

[Difficulty]
HPDrainRate:6
CircleSize:4
OverallDifficulty:7
ApproachRate:9
SliderMultiplier:1.8
SliderTickRate:1

[Events]
//Background and Video events
0,0,"unknown.png",0,0
//Break Periods
2,57158,58042
2,84097,86040
//Storyboard Layer 0 (Background)
//Storyboard Layer 1 (Fail)
//Storyboard Layer 2 (Pass)
//Storyboard Layer 3 (Foreground)
//Storyboard Sound Samples

[TimingPoints]
632,306.122448979592,4,2,0,40,1,0
632,-117.647058823529,4,2,0,40,0,0
861,-117.647058823529,4,2,0,5,0,0
938,-117.647058823529,4,2,0,40,0,0
1320,-117.647058823529,4,2,0,5,0,0
1397,-117.647058823529,4,2,0,40,0,0
1933,-117.647058823529,4,2,0,5,0,0
2009,-117.647058823529,4,2,0,40,0,0
3310,-117.647058823529,4,2,0,5,0,0
3387,-117.647058823529,4,2,0,40,0,0
3769,-117.647058823529,4,2,0,5,0,0
3846,-117.647058823529,4,2,0,40,0,0
5759,-117.647058823529,4,2,0,5,0,0
5836,-117.647058823529,4,2,0,40,0,0
6218,-117.647058823529,4,2,0,5,0,0
6295,-117.647058823529,4,2,0,40,0,0
6830,-117.647058823529,4,2,0,5,0,0
6907,-117.647058823529,4,2,0,40,0,0
10427,-105.263157894737,4,2,0,40,0,0
49611,-117.647058823529,4,2,0,40,0,0
54509,-100,4,2,0,40,0,0
59101,-100,4,2,0,40,0,0
59330,-100,4,2,0,5,0,0
59407,-90.9090909090909,4,2,0,40,0,0
61856,-90.9090909090909,4,2,0,40,0,1
66984,-90.9090909090909,4,2,0,5,0,1
67060,-90.9090909090909,4,2,0,40,0,1
69126,-90.9090909090909,4,2,0,5,0,1
69203,-90.9090909090909,4,2,0,40,0,1
71040,-90.9090909090909,4,2,0,40,0,0
71652,-90.9090909090909,4,2,0,40,0,1
74330,-90.9090909090909,4,2,0,5,0,1
74407,-90.9090909090909,4,2,0,40,0,1
76779,-90.9090909090909,4,2,0,5,0,1
76856,-90.9090909090909,4,2,0,40,0,1
78004,-90.9090909090909,4,2,0,5,0,1
78080,-90.9090909090909,4,2,0,40,0,1
81448,-100,4,2,0,40,0,0
89713,-100,4,2,0,5,0,0

[Colours]
Combo1 : 255,255,155
Combo2 : 94,94,255
Combo3 : 205,205,205
Combo4 : 159,255,159

[HitObjects]
173,338,632,6,0,B|131:351|131:351|45:328,1,114.750002188683
34,323,938,1,0,0:0:0:0:
88,138,1091,2,0,P|125:167|131:253,1,114.750002188683
133,261,1397,2,0,L|228:253,1,76.5000014591217
367,144,1703,6,0,L|240:135,1,114.750002188683
222,130,2009,2,0,P|213:85|228:46,1,76.5000014591217
438,106,2315,2,0,P|447:151|432:190,1,76.5000014591217
303,260,2621,1,0,0:0:0:0:
367,144,2774,1,0,0:0:0:0:
431,258,2927,1,0,0:0:0:0:
234,205,3080,6,0,B|215:249|215:249|234:342,1,114.750002188683
239,343,3387,1,0,0:0:0:0:
149,195,3540,2,0,P|115:175|31:191,1,114.750002188683
16,199,3846,2,0,L|20:111,1,76.5000014591217
234,204,4152,6,0,P|209:258|170:274,1,76.5000014591217
354,146,4458,2,0,P|413:140|446:166,1,76.5000014591217
243,77,4764,2,0,P|208:28|214:-13,1,76.5000014591217
388,220,5070,1,0,0:0:0:0:
149,195,5223,1,0,0:0:0:0:
406,113,5529,6,0,P|411:177|374:232,1,114.750002188683
359,234,5836,1,0,0:0:0:0:
195,152,5989,2,0,B|265:140|265:140|307:156,1,114.750002188683
336,157,6295,2,0,P|348:98|337:63,1,76.5000014591217
127,96,6601,6,0,P|111:139|136:222,1,114.750002188683
145,227,6907,2,0,P|106:213|67:219,1,76.5000014591217
229,377,7213,2,0,P|266:380|302:367,1,76.5000014591217
424,201,7519,2,0,P|469:222|489:339,1,153.000002918243
491,344,7902,1,0,0:0:0:0:
491,344,7978,5,0,0:0:0:0:
256,192,8132,12,0,9050,0:0:0:0:
99,282,9203,6,0,P|84:236|100:187,1,76.5000014591217
230,346,9509,2,0,P|245:300|229:251,1,76.5000014591217
39,339,9815,1,0,0:0:0:0:
133,144,9968,1,0,0:0:0:0:
230,346,10121,1,0,0:0:0:0:
230,346,10427,6,0,B|330:308|302:378|420:338,1,170.999995433807
500,265,10887,1,0,0:0:0:0:
357,162,11040,2,0,L|362:279,1,85.4999977169037
446,40,11346,1,0,0:0:0:0:
264,37,11499,1,0,0:0:0:0:
431,128,11652,6,0,P|386:92|267:145,1,170.999995433807
206,276,12111,1,0,0:0:0:0:
354,308,12264,2,0,P|365:256|352:215,1,85.4999977169037
206,382,12570,1,0,0:0:0:0:
206,382,12876,6,0,L|317:384,1,85.4999977169037
175,262,13183,2,0,L|64:264,1,85.4999977169037
253,152,13489,2,0,P|299:193|296:310,1,170.999995433807
175,262,13948,1,0,0:0:0:0:
200,58,14101,6,0,P|252:42|307:63,1,85.4999977169037
402,240,14407,1,0,0:0:0:0:
253,152,14560,1,0,0:0:0:0:
467,177,14713,2,0,P|490:229|476:287,1,85.4999977169037
305,377,15019,1,0,0:0:0:0:
305,377,15325,6,0,P|245:321|134:346,1,170.999995433807
63,259,15785,1,0,0:0:0:0:
201,135,15938,2,0,P|220:192|205:249,1,85.4999977169037
84,31,16244,1,0,0:0:0:0:
275,8,16397,1,0,0:0:0:0:
134,195,16550,6,0,B|197:155|197:155|324:173,1,170.999995433807
358,330,17009,1,0,0:0:0:0:
230,384,17162,2,0,P|215:331|235:283,1,85.4999977169037
415,209,17468,1,0,0:0:0:0:
415,209,17774,5,0,0:0:0:0:
353,333,17927,1,0,0:0:0:0:
284,178,18080,1,0,0:0:0:0:
222,302,18233,1,0,0:0:0:0:
195,97,18387,2,0,P|266:54|349:86,1,170.999995433807
291,260,18846,1,0,0:0:0:0:
113,131,18999,6,0,P|110:70|138:23,1,85.4999977169037
371,170,19305,1,0,0:0:0:0:
157,255,19458,1,0,0:0:0:0:
265,47,19611,5,0,0:0:0:0:
376,254,19764,1,0,0:0:0:0:
475,45,19917,1,0,0:0:0:0:
326,164,20223,6,0,B|436:127|402:202|514:159,1,170.999995433807
376,15,20683,1,0,0:0:0:0:
226,137,20836,2,0,L|234:241,1,85.4999977169037
425,311,21142,1,0,0:0:0:0:
326,164,21295,1,0,0:0:0:0:
326,164,21601,5,0,0:0:0:0:
201,300,21754,2,0,P|146:293|112:250,1,85.4999977169037
132,38,22060,1,0,0:0:0:0:
191,219,22213,1,0,0:0:0:0:
1,168,22366,1,0,0:0:0:0:
227,113,22672,6,0,B|122:89|122:89|60:120,1,170.999995433807
188,263,23132,1,0,0:0:0:0:
317,128,23285,2,0,P|312:74|278:45,1,85.4999977169037
132,198,23591,1,0,0:0:0:0:
288,291,23744,1,0,0:0:0:0:
288,291,24050,5,0,0:0:0:0:
214,166,24203,1,0,0:0:0:0:
132,292,24356,1,0,0:0:0:0:
317,128,24509,5,0,0:0:0:0:
209,372,24662,1,0,0:0:0:0:
122,120,24815,1,0,0:0:0:0:
362,31,25121,6,0,P|408:80|406:186,1,170.999995433807
257,300,25580,1,0,0:0:0:0:
170,143,25734,2,0,L|285:136,1,85.4999977169037
58,18,26040,1,0,0:0:0:0:
17,197,26193,1,0,0:0:0:0:
17,197,26499,5,0,0:0:0:0:
149,55,26652,2,0,L|264:48,1,85.4999977169037
320,310,26958,1,0,0:0:0:0:
205,141,27111,1,0,0:0:0:0:
405,143,27264,1,0,0:0:0:0:
238,280,27570,6,0,P|286:234|386:254,1,170.999995433807
511,125,28029,1,0,0:0:0:0:
342,46,28183,2,0,P|322:88|332:164,1,85.4999977169037
488,291,28489,1,0,0:0:0:0:
406,109,28642,1,0,0:0:0:0:
320,310,28795,5,0,0:0:0:0:
462,195,28948,1,0,0:0:0:0:
222,189,29101,1,0,0:0:0:0:
433,298,29254,5,0,0:0:0:0:
433,298,29330,1,0,0:0:0:0:
433,298,29407,1,0,0:0:0:0:
297,102,29560,1,0,0:0:0:0:
221,321,29713,1,0,0:0:0:0:
274,181,30019,6,0,B|317:178|340:204|340:204|379:151|455:175,1,170.999995433807
320,18,30478,1,0,0:0:0:0:
185,129,30632,2,0,P|166:179|185:237,1,85.4999977169037
350,346,30938,1,0,0:0:0:0:
274,181,31091,1,0,0:0:0:0:
143,304,31244,6,0,L|244:298,1,85.4999977169037
101,155,31550,2,0,L|0:149,1,85.4999977169037
233,41,31856,2,0,P|257:83|246:134,1,85.4999977169037
74,233,32162,1,0,0:0:0:0:
74,233,32468,6,0,L|65:130,1,85.4999977169037
225,283,32774,2,0,L|234:180,1,85.4999977169037
99,357,33080,2,0,B|192:324|176:399|279:352,1,170.999995433807
397,224,33540,1,0,0:0:0:0:
250,143,33693,6,0,P|227:189|235:238,1,85.4999977169037
433,344,33999,1,0,0:0:0:0:
310,206,34152,1,0,0:0:0:0:
471,102,34305,2,0,L|465:201,1,85.4999977169037
292,31,34611,1,0,0:0:0:0:
169,200,34917,6,0,B|67:166|106:245|-15:195,1,170.999995433807
80,60,35376,1,0,0:0:0:0:
245,143,35529,2,0,P|261:191|251:239,1,85.4999977169037
78,343,35836,1,0,0:0:0:0:
169,200,35989,1,0,0:0:0:0:
295,315,36142,6,0,B|363:309|363:309|398:332|398:332|467:327,1,170.999995433807
345,145,36601,1,0,0:0:0:0:
214,279,36754,2,0,P|204:325|231:381,1,85.4999977169037
435,253,37060,1,0,0:0:0:0:
435,253,37366,5,0,0:0:0:0:
345,145,37519,1,0,0:0:0:0:
476,74,37672,2,0,P|496:126|491:166,1,85.4999977169037
268,253,37978,2,0,B|365:218|345:286|446:248,1,170.999995433807
315,374,38438,1,0,0:0:0:0:
173,285,38591,6,0,L|181:181,1,85.4999977169037
389,75,38897,1,0,0:0:0:0:
268,253,39050,1,0,0:0:0:0:
182,55,39203,5,0,0:0:0:0:
398,167,39356,1,0,0:0:0:0:
173,285,39509,1,0,0:0:0:0:
17,64,39815,6,0,B|85:38|85:38|186:55,1,170.999995433807
242,216,40274,1,0,0:0:0:0:
92,261,40427,2,0,P|81:209|104:159,1,85.4999977169037
290,81,40734,1,0,0:0:0:0:
161,218,40887,1,0,0:0:0:0:
161,218,41193,5,0,0:0:0:0:
325,306,41346,2,0,L|433:296,1,85.4999977169037
212,136,41652,1,0,0:0:0:0:
201,357,41805,1,0,0:0:0:0:
379,222,41958,1,0,0:0:0:0:
379,222,42264,6,0,P|311:273|218:246,1,170.999995433807
128,72,42723,1,0,0:0:0:0:
298,50,42876,2,0,L|292:149,1,85.4999977169037
110,246,43183,1,0,0:0:0:0:
214,102,43336,1,0,0:0:0:0:
214,102,43642,5,0,0:0:0:0:
337,243,43795,2,0,P|400:244|440:212,1,85.4999977169037
367,36,44101,1,0,0:0:0:0:
257,238,44254,1,0,0:0:0:0:
483,185,44407,1,0,0:0:0:0:
483,185,44713,6,0,B|421:179|421:179|384:202|384:202|312:196,1,170.999995433807
200,65,45172,1,0,0:0:0:0:
77,164,45325,2,0,P|64:212|78:263,1,85.4999977169037
303,107,45632,1,0,0:0:0:0:
112,92,45785,1,0,0:0:0:0:
112,92,46091,5,0,0:0:0:0:
256,224,46244,2,0,P|269:272|255:323,1,85.4999977169037
46,348,46550,1,0,0:0:0:0:
52,139,46703,1,0,0:0:0:0:
182,273,46856,1,0,0:0:0:0:
182,273,47162,6,0,B|293:238|250:317|377:266,1,170.999995433807
468,131,47621,1,0,0:0:0:0:
328,81,47774,2,0,P|309:129|325:181,1,85.4999977169037
487,293,48080,1,0,0:0:0:0:
389,134,48234,1,0,0:0:0:0:
279,307,48387,5,0,0:0:0:0:
443,226,48540,1,0,0:0:0:0:
197,158,48693,1,0,0:0:0:0:
366,270,48846,1,0,0:0:0:0:
366,270,48922,1,0,0:0:0:0:
366,270,48999,1,0,0:0:0:0:
281,78,49152,1,0,0:0:0:0:
133,244,49305,2,0,P|129:292|161:344,1,85.4999977169037
58,144,49611,6,0,B|113:109|113:109|227:128,1,153.000002918243
318,221,50070,2,0,P|362:160|351:87,1,153.000002918243
232,301,50683,2,0,B|325:326|325:326|382:303,2,153.000002918243
232,301,51601,1,0,0:0:0:0:
152,347,51754,1,0,0:0:0:0:
72,300,51907,1,0,0:0:0:0:
164,122,52060,6,0,B|182:193|126:191|157:271,1,153.000002918243
373,250,52519,2,0,B|330:216|330:216|217:227,1,153.000002918243
376,34,53132,2,0,P|418:87|401:176,2,153.000002918243
376,34,54050,1,0,0:0:0:0:
345,263,54203,1,0,0:0:0:0:
127,110,54509,6,0,B|175:110|175:110|204:133|204:133|261:132,1,135
288,130,54815,1,0,0:0:0:0:
195,306,54968,2,0,P|152:264|152:179,1,135
117,182,55274,2,0,P|104:226|119:281,1,90
363,240,55580,6,0,L|224:222,1,135
223,195,55887,2,0,L|320:178,1,90
502,176,56193,1,0,0:0:0:0:
395,314,56346,1,0,0:0:0:0:
292,99,56499,2,0,B|194:58|218:139|105:91,1,180
102,84,56882,1,0,0:0:0:0:
102,84,56958,5,0,0:0:0:0:
356,150,58642,5,0,0:0:0:0:
356,150,58718,1,0,0:0:0:0:
356,150,58795,1,0,0:0:0:0:
273,270,58948,1,0,0:0:0:0:
283,83,59101,2,0,P|348:51|425:89,1,135
440,99,59407,5,0,0:0:0:0:
216,46,59560,1,0,0:0:0:0:
273,270,59713,1,0,0:0:0:0:
393,31,59866,5,0,0:0:0:0:
179,116,60019,1,0,0:0:0:0:
355,267,60172,1,0,0:0:0:0:
139,46,60325,5,0,0:0:0:0:
352,131,60478,1,0,0:0:0:0:
352,131,60555,1,0,0:0:0:0:
352,131,60632,1,0,0:0:0:0:
177,281,60785,1,0,0:0:0:0:
263,100,60938,1,0,0:0:0:0:
355,267,61091,1,0,0:0:0:0:
120,98,61244,6,0,L|194:90,1,49.5000015106202
283,216,61397,2,0,L|209:208,1,49.5000015106202
105,207,61550,1,0,0:0:0:0:
71,242,61626,1,0,0:0:0:0:
60,290,61703,1,0,0:0:0:0:
76,336,61779,1,0,0:0:0:0:
115,365,61856,6,0,B|223:397|212:315|334:363,1,198.000006042481
389,205,62315,1,0,0:0:0:0:
160,179,62468,2,0,L|169:305,1,99.0000030212403
401,362,62774,1,0,0:0:0:0:
268,236,62927,1,0,0:0:0:0:
377,58,63080,6,0,P|444:44|493:58,1,99.0000030212403
343,289,63387,1,0,0:0:0:0:
212,96,63540,2,0,P|145:82|96:96,1,99.0000030212403
109,334,63846,1,0,0:0:0:0:
343,289,63999,1,0,0:0:0:0:
159,164,64152,1,0,0:0:0:0:
354,32,64305,6,0,B|395:77|395:77|382:226,1,198.000006042481
216,292,64764,1,0,0:0:0:0:
58,202,64917,2,0,P|43:126|63:74,1,99.0000030212403
308,26,65223,1,0,0:0:0:0:
130,145,65376,1,0,0:0:0:0:
318,259,65529,6,0,P|322:307|307:354,1,99.0000030212403
218,115,65836,1,0,0:0:0:0:
58,202,65989,2,0,P|53:250|68:297,1,99.0000030212403
223,384,66295,1,0,0:0:0:0:
142,159,66448,1,0,0:0:0:0:
9,357,66601,1,0,0:0:0:0:
263,197,66754,6,0,B|320:194|320:194|355:220|355:220|424:218,1,148.50000453186
470,181,67060,1,0,0:0:0:0:
434,313,67213,1,0,0:0:0:0:
387,129,67366,1,0,0:0:0:0:
322,307,67519,1,0,0:0:0:0:
275,79,67672,2,0,P|199:59|147:84,1,99.0000030212403
156,307,67978,5,0,0:0:0:0:
219,137,68132,1,0,0:0:0:0:
249,372,68285,1,0,0:0:0:0:
334,139,68438,1,0,0:0:0:0:
382,358,68591,1,0,0:0:0:0:
236,227,68744,1,0,0:0:0:0:
495,253,68897,2,0,P|458:211|350:219,1,148.50000453186
311,258,69203,5,0,0:0:0:0:
223,125,69356,1,0,0:0:0:0:
415,278,69509,5,0,0:0:0:0:
174,220,69662,1,0,0:0:0:0:
497,212,69815,5,0,0:0:0:0:
194,339,69968,1,0,0:0:0:0:
512,90,70121,5,0,0:0:0:0:
322,383,70274,1,0,0:0:0:0:
272,35,70427,5,0,0:0:0:0:
436,352,70580,1,0,0:0:0:0:
418,15,70734,5,0,0:0:0:0:
254,332,70887,1,0,0:0:0:0:
27,211,71040,5,0,0:0:0:0:
34,162,71116,1,0,0:0:0:0:
41,113,71193,1,0,0:0:0:0:
48,64,71269,1,0,0:0:0:0:
55,15,71346,1,0,0:0:0:0:
266,132,71499,1,0,0:0:0:0:
23,313,71652,6,0,P|74:256|200:296,1,198.000006042481
396,198,72111,1,0,0:0:0:0:
190,64,72264,2,0,P|168:123|176:174,1,99.0000030212403
345,320,72570,1,0,0:0:0:0:
266,132,72723,1,0,0:0:0:0:
106,306,72876,6,0,L|-4:283,1,99.0000030212403
191,67,73183,1,0,0:0:0:0:
344,235,73336,2,0,L|454:212,1,99.0000030212403
287,30,73642,1,0,0:0:0:0:
98,211,73795,2,0,P|90:266|118:319,1,99.0000030212403
375,371,74101,6,0,B|360:335|334:325|334:325|226:328,1,148.50000453186
210,323,74407,2,0,P|202:268|230:215,1,99.0000030212403
423,76,74713,1,0,0:0:0:0:
185,39,74866,1,0,0:0:0:0:
399,193,75019,2,0,P|461:192|511:145,1,99.0000030212403
213,130,75325,6,0,L|219:249,1,99.0000030212403
349,374,75632,1,0,0:0:0:0:
98,344,75785,2,0,P|122:257|236:235,1,198.000006042481
480,117,76244,2,0,B|395:141|419:81|318:108,1,148.50000453186
287,116,76550,6,0,L|304:291,1,148.50000453186
305,311,76856,2,0,P|248:322|195:303,1,99.0000030212403
5,190,77162,1,0,0:0:0:0:
129,378,77315,1,0,0:0:0:0:
193,130,77468,2,0,P|249:109|312:131,1,99.0000030212403
421,381,77774,6,0,P|447:309|413:216,1,148.50000453186
405,201,78080,2,0,L|279:199,1,99.0000030212403
145,384,78387,1,0,0:0:0:0:
363,308,78540,1,0,0:0:0:0:
129,229,78693,1,0,0:0:0:0:
293,371,78846,1,0,0:0:0:0:
188,150,78999,5,0,0:0:0:0:
102,312,79152,1,0,0:0:0:0:
264,98,79305,5,0,0:0:0:0:
293,371,79458,1,0,0:0:0:0:
348,27,79611,5,0,0:0:0:0:
492,278,79764,1,0,0:0:0:0:
179,246,79917,1,0,0:0:0:0:
423,101,80070,1,0,0:0:0:0:
423,101,80147,1,0,0:0:0:0:
423,101,80223,6,0,P|443:162|424:220,1,99.0000030212403
97,310,80529,2,0,P|77:249|96:191,1,99.0000030212403
413,279,80836,1,0,0:0:0:0:
364,271,80912,1,0,0:0:0:0:
315,264,80989,1,0,0:0:0:0:
266,256,81065,1,0,0:0:0:0:
217,249,81142,1,0,0:0:0:0:
393,384,81295,1,0,0:0:0:0:
245,167,81448,6,0,P|219:212|224:273,1,90
217,49,81754,1,0,0:0:0:0:
336,91,81907,2,0,P|362:136|357:197,1,90
436,241,82213,2,0,P|461:195|517:169,1,90
511,78,82519,6,0,P|459:78|408:43,1,90
245,167,82825,2,0,L|257:278,1,90
113,136,83132,2,0,L|125:25,1,90
90,227,83438,1,0,0:0:0:0:
207,100,83591,2,0,B|293:72|265:135|367:91,1,135
371,90,83897,5,0,0:0:0:0:
256,192,86805,5,0,0:0:0:0:
256,192,86958,12,0,89713,0:0:0:0:
