osu file format v14

[General]
AudioFilename: audio.mp3
AudioLeadIn: 0
PreviewTime: 61856
Countdown: 1
SampleSet: Soft
StackLeniency: 0.4
Mode: 0
LetterboxInBreaks: 0
WidescreenStoryboard: 1

[Editor]
DistanceSpacing: 0.7
BeatDivisor: 4
GridSize: 32
TimelineZoom: 1.4

[Metadata]
Title:Koi? De ai? De Boukun desu! (TV Size)
TitleUnicode:Koi? De ai? De Boukun desu! (TV Size)
Artist:Wake up Girls!
ArtistUnicode:Wake up Girls!
Creator:N1czt3r
Version:Another
Source:暴君を愛する
Tags:anime renai boukun guri angel demon love tyrant
BeatmapID:1927896
BeatmapSetID:923208

[Difficulty]
HPDrainRate:6
CircleSize:3.7
OverallDifficulty:7
ApproachRate:9
SliderMultiplier:1.8
SliderTickRate:1

[Events]
//Background and Video events
0,0,"unknown.png",0,0
//Break Periods
2,57158,58042
2,84097,86040
//Storyboard Layer 0 (Background)
//Storyboard Layer 1 (Fail)
//Storyboard Layer 2 (Pass)
//Storyboard Layer 3 (Foreground)
//Storyboard Sound Samples

[TimingPoints]
632,306.122448979592,4,2,0,40,1,0
632,-133.333333333333,4,2,0,40,0,0
861,-133.333333333333,4,2,0,5,0,0
938,-133.333333333333,4,2,0,40,0,0
1320,-133.333333333333,4,2,0,5,0,0
1397,-133.333333333333,4,2,0,40,0,0
1933,-133.333333333333,4,2,0,5,0,0
2009,-133.333333333333,4,2,0,40,0,0
3310,-133.333333333333,4,2,0,5,0,0
3387,-133.333333333333,4,2,0,40,0,0
3769,-133.333333333333,4,2,0,5,0,0
3846,-133.333333333333,4,2,0,40,0,0
5759,-133.333333333333,4,2,0,5,0,0
5836,-133.333333333333,4,2,0,40,0,0
6218,-133.333333333333,4,2,0,5,0,0
6295,-133.333333333333,4,2,0,40,0,0
6830,-133.333333333333,4,2,0,5,0,0
6907,-133.333333333333,4,2,0,40,0,0
10427,-117.647058823529,4,2,0,40,0,0
49611,-133.333333333333,4,2,0,40,0,0
54509,-117.647058823529,4,2,0,40,0,0
59101,-100,4,2,0,40,0,0
59330,-100,4,2,0,5,0,0
59407,-100,4,2,0,40,0,0
61856,-100,4,2,0,40,0,1
66984,-100,4,2,0,5,0,1
67060,-100,4,2,0,40,0,1
69126,-100,4,2,0,5,0,1
69203,-100,4,2,0,40,0,1
71040,-100,4,2,0,40,0,0
71652,-100,4,2,0,40,0,1
74330,-100,4,2,0,5,0,1
74407,-100,4,2,0,40,0,1
76779,-100,4,2,0,5,0,1
76856,-100,4,2,0,40,0,1
78004,-100,4,2,0,5,0,1
78080,-100,4,2,0,40,0,1
81448,-111.111111111111,4,2,0,40,0,0
89713,-111.111111111111,4,2,0,5,0,0

[Colours]
Combo1 : 255,255,155
Combo2 : 94,94,255
Combo3 : 205,205,205
Combo4 : 159,255,159

[HitObjects]
294,100,632,6,0,B|332:85|332:85|400:98,1,101.250003862381
421,105,938,1,0,0:0:0:0:
354,280,1091,2,0,P|338:234|359:168,1,101.250003862381
341,167,1397,2,0,P|323:211|328:256,1,67.5000025749208
358,362,1703,6,0,L|230:353,1,101.250003862381
241,339,2009,2,0,L|324:344,1,67.5000025749208
139,327,2315,1,0,0:0:0:0:
139,327,2621,5,0,0:0:0:0:
203,255,2774,1,0,0:0:0:0:
241,339,2927,1,0,0:0:0:0:
102,241,3080,6,0,B|76:209|76:209|85:131,1,101.250003862381
86,124,3387,1,0,0:0:0:0:
276,187,3540,2,0,P|216:162|162:188,1,101.250003862381
170,158,3846,2,0,P|215:138|253:146,1,67.5000025749208
395,281,4152,6,0,P|355:252|343:215,1,67.5000025749208
465,112,4458,2,0,P|459:160|433:189,1,67.5000025749208
284,136,4764,2,0,P|329:116|367:123,1,67.5000025749208
196,245,5070,1,0,0:0:0:0:
149,87,5223,1,0,0:0:0:0:
149,87,5529,6,0,P|102:67|38:81,1,101.250003862381
26,91,5836,1,0,0:0:0:0:
73,271,5989,2,0,B|98:237|98:237|90:166,1,101.250003862381
111,159,6295,2,0,L|122:240,1,67.5000025749208
296,235,6601,6,0,P|266:195|201:189,1,101.250003862381
206,165,6907,2,0,P|241:162|290:192,1,67.5000025749208
390,66,7213,2,0,P|355:63|306:93,1,67.5000025749208
382,297,7519,2,0,B|401:219|345:236|380:149,1,135.000005149842
391,145,7902,1,0,0:0:0:0:
391,145,7978,5,0,0:0:0:0:
256,192,8055,12,0,9050,0:0:0:0:
179,247,9203,6,0,L|192:330,1,67.5000025749208
333,246,9509,2,0,L|320:329,1,67.5000025749208
256,219,9815,1,0,0:0:0:0:
256,359,9968,1,0,0:0:0:0:
255,139,10121,1,0,0:0:0:0:
255,139,10427,6,0,L|416:133,1,153.000002918243
476,216,10887,1,0,0:0:0:0:
434,340,11040,2,0,P|380:325|341:228,1,153.000002918243
326,115,11499,1,0,0:0:0:0:
194,223,11652,6,0,B|250:219|250:219|285:245|285:245|350:242,1,153.000002918243
164,142,12111,1,0,0:0:0:0:
169,310,12264,1,0,0:0:0:0:
412,245,12570,1,0,0:0:0:0:
344,87,12876,6,0,P|323:129|325:190,1,76.5000014591217
202,40,13183,2,0,P|223:82|221:143,1,76.5000014591217
111,214,13489,2,0,B|200:185|183:242|272:209,1,153.000002918243
159,294,13948,1,0,0:0:0:0:
335,253,14101,6,0,P|341:179|288:128,1,153.000002918243
203,127,14560,1,0,0:0:0:0:
273,306,14713,1,0,0:0:0:0:
453,128,15019,1,0,0:0:0:0:
238,220,15325,6,0,B|204:233|190:259|190:259|152:228|91:247,1,153.000002918243
203,104,15785,1,0,0:0:0:0:
332,195,15938,2,0,B|336:291|336:291|276:332,1,153.000002918243
189,199,16397,1,0,0:0:0:0:
337,99,16550,6,0,P|377:112|411:222,1,153.000002918243
249,248,17009,1,0,0:0:0:0:
246,82,17162,1,0,0:0:0:0:
395,278,17468,1,0,0:0:0:0:
301,172,17774,6,0,P|242:157|208:168,1,76.5000014591217
144,319,18080,1,0,0:0:0:0:
251,248,18234,1,0,0:0:0:0:
144,94,18387,2,0,B|117:148|117:148|144:245,1,153.000002918243
264,350,18846,1,0,0:0:0:0:
369,248,18999,6,0,L|451:256,1,76.5000014591217
282,94,19305,1,0,0:0:0:0:
251,248,19458,1,0,0:0:0:0:
414,101,19611,1,0,0:0:0:0:
445,255,19764,1,0,0:0:0:0:
351,42,19917,1,0,0:0:0:0:
184,182,20223,6,0,B|248:159|248:159|332:189,1,153.000002918243
249,301,20683,1,0,0:0:0:0:
113,229,20836,2,0,P|100:185|118:132,1,76.5000014591217
245,46,21142,1,0,0:0:0:0:
184,182,21295,1,0,0:0:0:0:
184,182,21601,5,0,0:0:0:0:
296,260,21754,2,0,L|384:254,1,76.5000014591217
244,136,22060,1,0,0:0:0:0:
229,310,22213,1,0,0:0:0:0:
349,178,22366,1,0,0:0:0:0:
349,178,22672,6,0,P|426:194|449:282,1,153.000002918243
332,315,23132,1,0,0:0:0:0:
250,197,23285,2,0,L|161:205,1,76.5000014591217
74,348,23591,1,0,0:0:0:0:
197,284,23744,1,0,0:0:0:0:
197,284,24050,5,0,0:0:0:0:
125,140,24203,2,0,P|98:179|99:223,1,76.5000014591217
163,359,24509,1,0,0:0:0:0:
210,157,24662,1,0,0:0:0:0:
28,256,24815,1,0,0:0:0:0:
147,59,25121,6,0,B|206:57|206:57|240:80|240:80|316:79,1,153.000002918243
426,43,25580,1,0,0:0:0:0:
499,137,25734,2,0,P|505:195|492:227,1,76.5000014591217
322,258,26040,1,0,0:0:0:0:
422,176,26193,1,0,0:0:0:0:
422,176,26499,5,0,0:0:0:0:
238,237,26652,2,0,P|230:277|250:326,1,76.5000014591217
406,280,26958,1,0,0:0:0:0:
369,108,27111,1,0,0:0:0:0:
310,269,27264,1,0,0:0:0:0:
310,269,27570,6,0,B|231:238|251:306|141:260,1,153.000002918243
78,139,28029,1,0,0:0:0:0:
215,103,28183,2,0,L|206:194,1,76.5000014591217
142,18,28489,1,0,0:0:0:0:
302,36,28642,1,0,0:0:0:0:
207,179,28795,6,0,P|159:174|120:145,1,76.5000014591217
302,36,29101,1,0,0:0:0:0:
341,224,29254,1,0,0:0:0:0:
385,31,29407,5,0,0:0:0:0:
198,102,29560,1,0,0:0:0:0:
416,162,29713,1,0,0:0:0:0:
273,297,30019,6,0,B|238:245|238:245|257:141,1,153.000002918243
416,162,30478,1,0,0:0:0:0:
285,63,30632,2,0,B|204:36|219:98|136:73,1,153.000002918243
71,192,31091,1,0,0:0:0:0:
254,156,31244,6,0,P|263:215|168:280,1,153.000002918243
137,73,31703,1,0,0:0:0:0:
308,76,31856,1,0,0:0:0:0:
83,194,32162,1,0,0:0:0:0:
191,328,32468,6,0,P|208:291|198:238,1,76.5000014591217
319,367,32774,2,0,P|302:330|312:277,1,76.5000014591217
436,198,33080,2,0,B|404:201|383:222|383:222|345:188|290:193,1,153.000002918243
196,129,33540,1,0,0:0:0:0:
165,308,33693,6,0,P|226:329|308:289,1,153.000002918243
93,204,34152,1,0,0:0:0:0:
75,359,34305,1,0,0:0:0:0:
296,192,34611,1,0,0:0:0:0:
131,268,34917,6,0,P|103:232|128:129,1,153.000002918243
266,92,35376,1,0,0:0:0:0:
335,215,35529,2,0,B|431:232|431:232|488:187,1,153.000002918243
361,63,35989,1,0,0:0:0:0:
227,194,36142,6,0,P|218:248|260:337,1,153.000002918243
339,136,36601,1,0,0:0:0:0:
170,100,36754,1,0,0:0:0:0:
341,325,37060,1,0,0:0:0:0:
227,194,37366,5,0,0:0:0:0:
141,299,37519,1,0,0:0:0:0:
186,127,37672,2,0,P|241:118|282:132,1,76.5000014591217
411,108,37978,2,0,P|351:130|337:233,1,153.000002918243
396,347,38438,5,0,0:0:0:0:
491,237,38591,2,0,P|458:210|409:205,1,76.5000014591217
284,316,38897,1,0,0:0:0:0:
234,153,39050,1,0,0:0:0:0:
421,293,39203,1,0,0:0:0:0:
471,130,39356,1,0,0:0:0:0:
235,239,39509,1,0,0:0:0:0:
235,239,39815,6,0,P|176:221|153:125,1,153.000002918243
296,83,40274,1,0,0:0:0:0:
369,222,40427,2,0,L|361:315,1,76.5000014591217
382,95,40734,1,0,0:0:0:0:
234,153,40887,1,0,0:0:0:0:
234,153,41193,5,0,0:0:0:0:
368,225,41346,2,0,L|461:220,1,76.5000014591217
254,291,41652,1,0,0:0:0:0:
349,135,41805,1,0,0:0:0:0:
402,299,41958,1,0,0:0:0:0:
402,299,42264,6,0,B|352:277|352:277|253:292,1,153.000002918243
163,361,42723,1,0,0:0:0:0:
225,223,42876,2,0,P|250:263|253:302,1,76.5000014591217
116,190,43183,1,0,0:0:0:0:
243,120,43336,1,0,0:0:0:0:
243,120,43642,5,0,0:0:0:0:
58,141,43795,2,0,P|40:193|58:241,1,76.5000014591217
252,254,44101,1,0,0:0:0:0:
131,82,44254,1,0,0:0:0:0:
73,284,44407,1,0,0:0:0:0:
245,165,44713,6,0,B|342:190|307:120|418:160,1,153.000002918243
445,38,45172,1,0,0:0:0:0:
298,7,45325,2,0,P|278:59|293:109,1,76.5000014591217
366,231,45632,1,0,0:0:0:0:
367,61,45785,1,0,0:0:0:0:
367,61,46091,5,0,0:0:0:0:
451,213,46244,2,0,P|450:250|432:284,1,76.5000014591217
246,252,46550,1,0,0:0:0:0:
395,149,46703,1,0,0:0:0:0:
363,329,46856,1,0,0:0:0:0:
363,327,47162,6,0,B|418:292|418:292|514:316,1,153.000002918243
412,198,47621,1,0,0:0:0:0:
300,275,47774,2,0,P|260:275|216:250,1,76.5000014591217
205,69,48080,1,0,0:0:0:0:
284,192,48234,1,0,0:0:0:0:
150,306,48387,6,0,P|139:258|155:210,1,76.5000014591217
316,105,48693,1,0,0:0:0:0:
235,267,48846,1,0,0:0:0:0:
235,267,48922,1,0,0:0:0:0:
235,267,48999,1,0,0:0:0:0:
198,57,49152,1,0,0:0:0:0:
340,199,49305,2,0,L|430:188,1,76.5000014591217
246,140,49611,6,0,B|220:185|220:185|240:295,1,135.000005149842
340,319,50070,2,0,P|305:271|214:279,1,135.000005149842
122,368,50683,2,0,B|90:347|83:324|83:324|92:224,2,135.000005149842
122,368,51601,1,0,0:0:0:0:
194,304,51754,1,0,0:0:0:0:
265,371,51907,1,0,0:0:0:0:
343,251,52060,6,0,B|413:223|413:283|485:243,1,135.000005149842
364,126,52519,2,0,P|335:175|356:270,1,135.000005149842
290,51,53132,2,0,B|331:22|331:22|430:37,2,135.000005149842
290,51,54050,1,0,0:0:0:0:
493,51,54203,1,0,0:0:0:0:
399,293,54509,6,0,L|403:146,1,114.750002188683
402,145,54815,1,0,0:0:0:0:
238,239,54968,2,0,P|300:257|336:248,1,76.5000014591217
170,143,55274,2,0,P|232:125|268:134,1,76.5000014591217
87,247,55580,6,0,P|78:294|99:344,1,76.5000014591217
132,116,55887,2,0,P|95:84|41:77,1,76.5000014591217
228,206,56193,2,0,P|273:190|306:147,1,76.5000014591217
459,22,56499,2,0,P|475:72|471:196,1,153.000002918243
474,205,56882,1,0,0:0:0:0:
473,205,56958,5,0,0:0:0:0:
189,211,58642,6,0,L|146:206,2,38.2500007295609
268,285,58948,1,0,0:0:0:0:
123,121,59101,2,0,P|91:141|75:248,1,135
89,265,59407,5,0,0:0:0:0:
258,103,59560,2,0,P|250:48|218:14,1,90
177,262,59866,1,0,0:0:0:0:
397,118,60019,2,0,L|512:123,1,90
262,322,60325,1,0,0:0:0:0:
266,112,60478,1,0,0:0:0:0:
266,112,60555,1,0,0:0:0:0:
266,112,60632,5,0,0:0:0:0:
367,276,60785,1,0,0:0:0:0:
163,321,60938,2,0,L|68:299,1,90
140,101,61244,6,0,L|147:41,3,45
172,184,61550,1,0,0:0:0:0:
213,199,61626,1,0,0:0:0:0:
258,196,61703,1,0,0:0:0:0:
296,174,61779,1,0,0:0:0:0:
322,137,61856,6,0,B|421:111|403:179|509:151,2,180
169,234,62621,1,0,0:0:0:0:
339,338,62774,2,0,P|363:286|351:227,1,90
119,132,63080,6,0,B|72:182|72:182|85:298,1,180
299,209,63540,2,0,P|245:193|197:204,1,90
339,338,63846,1,0,0:0:0:0:
396,143,63999,2,0,P|450:127|498:138,1,90
233,38,64305,6,0,P|200:78|217:204,2,180
396,143,65070,1,0,0:0:0:0:
259,289,65223,2,0,L|158:282,1,90
404,384,65529,6,0,P|445:324|392:200,1,180
212,198,65989,2,0,P|275:201|319:183,1,90
178,32,66295,1,0,0:0:0:0:
46,174,66448,2,0,L|48:277,1,90
303,357,66754,6,0,B|230:338|254:392|154:357,1,135
138,346,67060,6,0,P|135:294|163:250,1,90
332,239,67366,2,0,P|288:267|236:265,1,90
141,123,67672,2,0,P|187:146|211:192,1,90
397,26,67978,6,0,P|350:49|326:95,1,90
434,269,68285,2,0,P|437:217|409:173,1,90
207,177,68591,2,0,P|250:205|302:203,1,90
122,99,68897,2,0,P|88:153|122:248,1,135
72,261,69203,6,0,P|45:210|50:161,1,90
176,348,69509,2,0,P|203:297|198:248,1,90
167,73,69815,2,0,P|197:121|242:142,1,90
414,202,70121,2,0,P|357:205|317:233,1,90
176,348,70427,5,0,0:0:0:0:
251,208,70580,1,0,0:0:0:0:
391,289,70734,1,0,0:0:0:0:
476,138,70887,1,0,0:0:0:0:
259,61,71040,5,0,0:0:0:0:
214,58,71116,1,0,0:0:0:0:
169,55,71193,1,0,0:0:0:0:
124,53,71269,1,0,0:0:0:0:
79,50,71346,1,0,0:0:0:0:
236,166,71499,1,0,0:0:0:0:
54,296,71652,6,0,P|111:241|215:283,2,180
215,371,72417,1,0,0:0:0:0:
317,260,72570,2,0,P|381:252|431:283,1,90
210,97,72876,6,0,B|174:158|174:158|201:267,1,180
393,166,73336,2,0,P|340:149|291:165,1,90
200,263,73642,1,0,0:0:0:0:
114,82,73795,2,0,P|167:65|216:81,1,90
342,243,74101,6,0,B|347:346|347:346|289:393,1,135
279,376,74407,2,0,P|237:347|185:346,1,90
11,348,74713,2,0,P|57:326|83:281,1,90
177,127,75019,2,0,P|172:177|198:223,1,90
328,31,75325,6,0,B|224:58|260:-12|133:14,1,180
307,179,75785,2,0,B|378:178|378:178|417:206|417:206|503:205,1,180
484,34,76244,2,0,P|455:74|458:130,1,90
338,290,76550,6,0,B|294:316|294:316|184:287,1,135
178,267,76856,2,0,P|161:216|176:165,1,90
344,64,77162,1,0,0:0:0:0:
256,216,77315,1,0,0:0:0:0:
135,52,77468,2,0,L|20:45,1,90
256,216,77774,6,0,B|300:242|300:242|410:213,1,135
416,193,78080,2,0,P|433:142|418:91,1,90
202,144,78387,1,0,0:0:0:0:
358,305,78540,1,0,0:0:0:0:
314,100,78693,1,0,0:0:0:0:
161,246,78846,1,0,0:0:0:0:
267,21,78999,6,0,P|320:8|382:31,1,90
243,237,79305,5,0,0:0:0:0:
131,53,79458,1,0,0:0:0:0:
90,284,79611,5,0,0:0:0:0:
202,100,79764,1,0,0:0:0:0:
251,328,79917,5,0,0:0:0:0:
111,172,80070,1,0,0:0:0:0:
111,172,80147,1,0,0:0:0:0:
111,172,80223,2,0,P|56:167|9:189,1,90
251,328,80529,2,0,P|295:334|337:321,1,90
359,58,80836,5,0,0:0:0:0:
317,73,80912,1,0,0:0:0:0:
287,106,80989,1,0,0:0:0:0:
276,149,81065,1,0,0:0:0:0:
287,192,81142,1,0,0:0:0:0:
450,54,81295,1,0,0:0:0:0:
392,188,81448,6,0,L|379:341,1,121.499996292114
378,337,81754,1,0,0:0:0:0:
226,234,81907,2,0,P|278:220|320:241,1,80.9999975280763
178,331,82213,2,0,P|230:345|272:324,1,80.9999975280763
87,238,82519,6,0,L|74:337,1,80.9999975280763
226,234,82825,2,0,L|213:135,1,80.9999975280763
71,99,83132,2,0,P|98:151|128:167,1,80.9999975280763
226,234,83438,1,0,0:0:0:0:
315,76,83591,2,0,B|245:95|265:45|172:74,1,121.499996292114
166,80,83897,5,0,0:0:0:0:
256,192,86805,5,0,0:0:0:0:
256,192,86958,12,0,89713,0:0:0:0:
