osu file format v14

[General]
AudioFilename: audio.mp3
AudioLeadIn: 0
PreviewTime: 55868
Countdown: 0
SampleSet: Soft
StackLeniency: 0.2
Mode: 0
LetterboxInBreaks: 0
WidescreenStoryboard: 1

[Editor]
DistanceSpacing: 2
BeatDivisor: 4
GridSize: 4
TimelineZoom: 2.3

[Metadata]
Title:One In A Billion
TitleUnicode:One In A Billion
Artist:Wake Up, May'n!
ArtistUnicode:Wake Up, May'n!
Creator:Meg
Version:zeluaR's Extra
Source:異世界食堂
Tags:Isekai Shokudou Restaurant to Another World Wake Up, Girls! opening tv size iMage-- zeluaR Momochikun Mei
BeatmapID:1354114
BeatmapSetID:637877

[Difficulty]
HPDrainRate:6
CircleSize:4
OverallDifficulty:8.5
ApproachRate:9.4
SliderMultiplier:1.7
SliderTickRate:1

[Events]
//Background and Video events
0,0,"isekaishokudou.jpg",0,0
Video,0,"video.avi"
//Break Periods
//Storyboard Layer 0 (Background)
//Storyboard Layer 1 (Fail)
//Storyboard Layer 2 (Pass)
//Storyboard Layer 3 (Foreground)
//Storyboard Sound Samples

[TimingPoints]
111,394.736842105263,4,2,1,60,1,0
111,-142.857142857143,4,2,1,35,0,0
900,-200,4,2,1,35,0,0
6426,-200,4,2,1,40,0,0
12742,-200,4,2,1,45,0,0
23795,307.692307692308,4,2,1,60,1,0
24718,338.983050847458,4,2,1,60,1,0
25056,326.086956521739,4,2,1,60,1,0
25056,-83.3333333333333,4,2,1,60,0,0
26360,322.58064516129,4,2,1,60,1,0
26360,-83.3333333333333,4,2,1,60,0,0
27650,319.148936170213,4,2,1,60,1,0
30043,346.820809248555,4,2,1,60,1,0
30215,320.855614973262,4,2,1,60,1,0
32781,319.148936170213,4,2,1,60,1,0
35334,320.855614973262,4,2,1,60,1,0
45601,-200,4,2,1,60,0,0
49932,-83.3333333333333,4,2,1,60,0,0
55868,-83.3333333333333,4,2,1,60,0,1
65334,-142.857142857143,4,2,1,60,0,1
66136,-83.3333333333333,4,2,1,60,0,1
73515,-142.857142857143,4,2,1,60,0,1
76403,-200,4,2,1,60,0,0
78489,-83.3333333333333,4,2,1,60,0,0
78970,-83.3333333333333,4,2,1,60,0,1
81216,-142.857142857143,4,2,1,60,0,1
85227,-83.3333333333334,4,2,1,60,0,1
85868,-142.857142857143,4,2,1,60,0,1
86510,-200,4,2,1,60,0,1
86670,-200,4,2,1,60,0,0
87954,-200,4,2,1,30,0,0

[Colours]
Combo1 : 81,199,255
Combo2 : 255,255,0
Combo3 : 209,163,163
Combo4 : 179,255,179

[HitObjects]
128,100,111,54,0,L|120:20,1,59.4999981842042,2|0,0:0|0:0,0:0:0:0:
217,144,505,1,0,0:0:0:0:
43,295,703,1,0,0:0:0:0:
109,221,900,2,0,P|152:227|203:232,1,85,2|0,0:0|0:0,0:0:0:0:
33,158,1492,1,0,0:0:0:0:
267,293,1689,38,0,P|277:262|278:239,1,42.5,2|0,0:0|0:0,0:0:0:0:
122,360,2084,1,0,0:0:0:0:
184,190,2282,2,0,P|192:223|193:246,1,42.5,0|2,0:0|0:0,0:0:0:0:
111,368,2676,1,0,0:0:0:0:
170,180,2874,2,0,P|212:167|268:172,1,85,0|2,0:0|0:0,0:0:0:0:
476,203,3663,5,0,0:0:0:0:
323,296,3860,1,0,0:0:0:0:
396,134,4058,2,0,L|389:78,1,42.5,2|0,0:0|0:0,0:0:0:0:
390,91,4453,1,0,0:0:0:0:
323,296,4650,1,0,0:0:0:0:
385,213,4847,38,0,L|440:208,1,42.5,2|0,0:0|0:0,0:0:0:0:
288,147,5242,1,0,0:0:0:0:
453,293,5439,2,0,L|398:296,1,42.5,0|2,0:0|0:0,0:0:0:0:
234,360,5834,1,0,0:0:0:0:
298,231,6032,2,0,P|294:186|285:137,1,85,0|2,0:0|0:0,0:0:0:0:
216,279,6624,5,0,0:0:0:0:
372,129,6821,2,0,L|426:124,1,42.5
200,82,7216,1,2,0:0:0:0:
386,229,7413,1,0,0:0:0:0:
287,146,7610,2,0,L|289:92,1,42.5
215,263,8005,38,0,L|213:317,1,42.5,2|0,0:0|0:0,0:0:0:0:
127,326,8400,1,0,0:0:0:0:
287,146,8597,1,0,0:0:0:0:
194,129,8795,2,0,P|156:122|99:116,1,85,2|0,0:0|0:0,0:0:0:0:
191,301,9387,1,0,0:0:0:0:
84,286,9584,6,0,P|122:293|179:299,1,85,2|0,0:0|0:0,0:0:0:0:
256,208,10176,1,0,0:0:0:0:
263,301,10374,2,0,L|267:352,2,42.5,2|0|0,0:0|0:0|0:0,0:0:0:0:
176,128,10966,38,0,P|225:119|278:115,1,85
80,50,11558,1,0,0:0:0:0:
104,192,11755,2,0,P|61:187|20:179,1,85
201,266,12347,6,0,L|209:210,1,42.5
231,140,12742,37,2,0:0:0:0:
87,305,12939,1,0,0:0:0:0:
231,140,13137,5,0,0:0:0:0:
50,80,13334,1,0,0:0:0:0:
114,180,13532,38,0,L|171:176,2,42.5,2|0|0,0:0|0:0|0:0,0:0:0:0:
324,279,14124,1,0,0:0:0:0:
231,140,14321,2,0,L|235:88,1,42.5,2|0,0:0|0:0,0:0:0:0:
181,308,14716,5,0,0:0:0:0:
181,308,14913,1,0,0:0:0:0:
320,166,15110,2,0,P|365:159|420:159,1,85,2|0,0:0|0:0,0:0:0:0:
241,235,15703,37,0,0:0:0:0:
232,123,15900,2,0,L|239:209,1,85,2|0,0:0|0:0,0:0:0:0:
444,117,16492,1,0,0:0:0:0:
435,229,16689,2,0,L|442:143,1,85,2|0,0:0|0:0,0:0:0:0:
223,325,17282,5,0,0:0:0:0:
315,176,17479,2,0,L|371:170,2,42.5,2|0|0,0:0|0:0|0:0,0:0:0:0:
189,116,18071,37,0,0:0:0:0:
330,263,18268,2,0,P|368:245|353:169,1,127.5,2|0,0:0|0:0,0:0:0:0:
112,115,19058,6,0,L|117:176,1,42.5,2|0,0:0|0:0,0:0:0:0:
211,174,19453,2,0,L|206:113,1,42.5
84,240,19847,2,0,P|36:244|-12:254,1,85,2|0,0:0|0:0,0:0:0:0:
126,145,20439,1,0,0:0:0:0:
209,217,20637,2,0,L|196:357,1,127.5,2|0,0:0|0:0,0:0:0:0:
126,145,21426,38,0,L|121:87,2,42.5,2|0|0,0:0|0:0|0:0,0:0:0:0:
250,192,22216,6,0,L|298:196,1,42.5,2|0,0:0|0:0,0:0:0:0:
407,118,22610,1,0,0:0:0:0:
315,309,22808,1,0,0:0:0:0:
476,185,23005,2,0,P|415:167|365:211,1,127.5,2|0,0:0|0:0,0:0:0:0:
368,203,23795,6,0,L|476:213,2,85,4|0|0,0:0|0:0|0:0,0:0:0:0:
246,139,24256,5,0,0:0:0:0:
244,128,24333,1,0,0:0:0:0:
242,118,24410,1,0,0:0:0:0:
367,334,24564,1,8,0:0:0:0:
368,203,24718,2,0,L|253:216,1,85,2|0,0:0|0:0,0:0:0:0:
29,213,25056,38,0,B|4:165|4:165|28:113,1,101.999996887207,4|0,0:0|0:0,0:0:0:0:
257,112,25382,1,8,0:0:0:0:
144,173,25545,2,0,B|128:246|128:246|146:295|146:295|132:372,1,203.999993774414,0|2,0:0|0:0,0:0:0:0:
263,205,26034,2,0,B|281:154|281:154|255:109,1,101.999996887207,8|0,0:0|0:0,0:0:0:0:
39,310,26360,5,2,0:0:0:0:
271,337,26521,1,2,0:0:0:0:
132,370,26682,2,0,L|122:263,1,101.999996887207,8|0,0:0|0:0,0:0:0:0:
149,52,27005,37,0,0:0:0:0:
58,183,27166,1,2,0:0:0:0:
53,191,27247,1,0,0:0:0:0:
49,201,27327,1,8,0:0:0:0:
12,17,27489,1,0,0:0:0:0:
140,145,27650,6,0,B|188:154|219:121|219:121|251:89|321:105,1,170,6|8,0:0|0:0,0:0:0:0:
279,198,28128,1,0,0:0:0:0:
393,208,28288,2,0,L|287:200,1,85,2|2,0:0|0:0,0:0:0:0:
136,49,28607,2,0,L|242:57,1,85,8|2,0:0|0:0,0:0:0:0:
346,306,28926,1,0,0:0:0:0:
383,71,29086,2,0,L|391:10,2,42.5,2|0|8,0:0|0:0|0:0,0:0:0:0:
221,184,29405,1,0,0:0:0:0:
220,205,29485,1,0,0:0:0:0:
225,225,29564,1,0,0:0:0:0:
233,58,29724,37,2,0:0:0:0:
444,159,29884,1,8,0:0:0:0:
225,225,30043,1,8,0:0:0:0:
430,343,30215,6,0,L|437:249,1,85,4|0,0:0|0:0,0:0:0:0:
299,101,30535,1,8,0:0:0:0:
444,159,30696,2,0,B|382:164|382:164|346:201|346:201|271:204,1,170,0|2,0:0|0:0,0:0:0:0:
193,249,31177,2,0,B|177:205|177:205|191:149,1,85,8|2,0:0|0:0,0:0:0:0:
436,258,31498,37,0,0:0:0:0:
249,355,31658,1,2,0:0:0:0:
436,258,31819,5,8,0:0:0:0:
266,185,31979,1,0,0:0:0:0:
422,348,32140,37,0,0:0:0:0:
464,96,32300,1,2,0:0:0:0:
350,176,32460,2,0,L|251:186,1,85,8|2,0:0|0:0,0:0:0:0:
113,352,32781,5,12,0:0:0:0:
266,185,32940,1,2,0:0:0:0:
81,72,33100,1,8,0:0:0:0:
255,275,33259,38,0,L|357:290,1,85,6|0,0:0|0:0,0:0:0:0:
152,265,33578,5,6,0:0:0:0:
152,265,33738,2,0,L|141:158,1,85,8|0,0:0|0:0,0:0:0:0:
407,149,34057,1,2,0:0:0:0:
279,48,34217,2,0,L|270:192,1,127.5,12|0,0:0|0:0,0:0:0:0:
269,201,34536,1,4,0:0:0:0:
132,54,34695,37,2,0:0:0:0:
407,149,34855,1,0,0:0:0:0:
122,258,35015,5,8,0:0:0:0:
412,138,35174,1,8,0:0:0:0:
266,228,35334,38,0,L|257:334,1,85,6|0,0:0|0:0,0:0:0:0:
220,127,35654,1,8,0:0:0:0:
220,127,35815,1,0,0:0:0:0:
380,254,35975,2,0,P|427:251|492:236,1,85,0|2,0:0|0:0,0:0:0:0:
233,328,36296,21,8,0:0:0:0:
418,142,36456,1,0,0:0:0:0:
464,244,36617,2,0,P|409:249|320:178,1,170,2|8,0:0|0:0,0:0:0:0:
408,47,37098,2,0,P|417:104|418:142,1,85
231,231,37419,1,2,0:0:0:0:
243,335,37579,2,0,P|234:278|233:240,1,85,8|0,0:0|0:0,0:0:0:0:
318,144,37900,22,0,L|328:243,1,85,2|0,0:0|0:0,0:0:0:0:
121,118,38221,1,8,0:0:0:0:
109,228,38382,2,0,L|119:129,1,85
220,163,38702,1,2,0:0:0:0:
222,179,38783,1,0,0:0:0:0:
224,195,38863,1,8,0:0:0:0:
84,340,39023,1,0,0:0:0:0:
25,122,39184,21,2,0:0:0:0:
25,122,39344,1,2,0:0:0:0:
190,278,39505,2,0,P|240:281|285:260,1,85,8|0,0:0|0:0,0:0:0:0:
317,114,39825,1,2,0:0:0:0:
317,114,39986,1,2,0:0:0:0:
126,210,40146,2,0,P|98:251|94:301,1,85,8|0,0:0|0:0,0:0:0:0:
223,195,40467,2,0,P|200:150|159:121,1,85,2|0,0:0|0:0,0:0:0:0:
106,30,40788,21,8,0:0:0:0:
317,114,40948,1,0,0:0:0:0:
223,196,41109,2,0,L|126:204,1,85,0|2,0:0|0:0,0:0:0:0:
138,202,41430,22,0,L|238:213,1,85,8|0,0:0|0:0,0:0:0:0:
327,283,41751,22,0,P|276:288|225:300,1,85,2|2,0:0|0:0,0:0:0:0:
44,129,42071,2,0,P|95:124|146:112,1,85,8|0,0:0|0:0,0:0:0:0:
221,97,42392,21,0,0:0:0:0:
165,342,42553,1,2,0:0:0:0:
138,202,42713,2,0,L|278:210,1,127.5,8|0,0:0|0:0,0:0:0:0:
377,252,43034,22,0,L|389:157,1,85,2|0,0:0|0:0,0:0:0:0:
387,167,43355,22,0,L|398:252,1,85,8|0,0:0|0:0,0:0:0:0:
315,345,43676,22,0,P|304:302|298:251,1,85,0|2,0:0|0:0,0:0:0:0:
456,36,43997,2,0,P|467:79|473:130,1,85,8|0,0:0|0:0,0:0:0:0:
276,110,44317,21,2,0:0:0:0:
461,288,44478,1,2,0:0:0:0:
383,88,44638,21,8,0:0:0:0:
313,221,44799,1,2,0:0:0:0:
259,48,44959,21,8,0:0:0:0:
422,173,45120,1,0,0:0:0:0:
270,314,45280,21,2,0:0:0:0:
436,172,45440,1,2,0:0:0:0:
336,180,45601,22,0,L|235:189,1,85,4|0,0:0|0:0,0:0:0:0:
90,135,46082,1,0,0:0:0:0:
154,272,46243,1,8,0:0:0:0:
172,181,46403,2,0,L|181:127,2,42.5
45,313,46884,5,8,0:0:0:0:
242,234,47045,1,2,0:0:0:0:
45,313,47205,1,0,0:0:0:0:
160,314,47366,2,0,L|151:253,1,42.5,2|8,0:0|0:0,0:0:0:0:
64,131,47686,1,2,0:0:0:0:
54,68,47847,2,0,L|63:129,1,42.5
172,173,48168,38,0,P|221:146|296:163,1,127.5,2|0,0:0|0:0,0:0:0:0:
375,228,48809,1,8,0:0:0:0:
375,228,48970,1,2,0:0:0:0:
386,137,49130,2,0,L|392:78,1,42.5
249,328,49451,5,8,0:0:0:0:
286,248,49612,1,0,0:0:0:0:
342,320,49772,1,0,0:0:0:0:
375,228,49932,2,2,L|264:214,1,101.999996887207,2|0,0:0|0:0,0:0:0:0:
129,203,50253,5,2,0:0:0:0:
401,92,50414,1,8,0:0:0:0:
114,15,50574,1,8,0:0:0:0:
295,95,50735,6,0,L|286:206,1,101.999996887207,6|0,0:0|0:0,0:0:0:0:
286,211,50975,1,0,0:0:0:0:
285,226,51055,1,8,0:0:0:0:
179,138,51216,37,0,0:0:0:0:
409,353,51376,2,0,L|398:233,1,101.999996887207,0|2,0:0|0:0,0:0:0:0:
295,95,51697,5,8,0:0:0:0:
223,279,51858,1,0,0:0:0:0:
344,189,52018,2,0,B|388:167|388:167|451:182,1,101.999996887207,2|2,0:0|0:0,0:0:0:0:
184,73,52339,37,8,0:0:0:0:
324,323,52499,1,0,0:0:0:0:
344,189,52660,2,0,L|176:201,1,152.999995330811
107,204,52981,5,8,0:0:0:0:
292,104,53141,1,8,0:0:0:0:
170,305,53301,5,6,0:0:0:0:
106,90,53462,1,2,0:0:0:0:
15,264,53622,1,12,0:0:0:0:
194,160,53783,6,0,L|261:167,1,50.9999984436036,2|0,0:0|0:0,0:0:0:0:
378,52,53943,1,12,0:0:0:0:
275,332,54104,1,2,0:0:0:0:
205,76,54264,1,12,0:0:0:0:
400,330,54424,6,0,L|466:343,2,50.9999984436036,4|0|0,0:0|0:0|0:0,0:0:0:0:
98,177,54745,2,0,L|48:171,2,50.9999984436036,4|0|0,0:0|0:0|0:0,0:0:0:0:
408,46,55066,2,0,L|475:36,2,50.9999984436036,4|0|0,0:0|0:0|0:0,0:0:0:0:
196,249,55387,6,0,L|134:240,1,50.9999984436036,8|0,0:0|0:0,0:0:0:0:
343,199,55547,2,0,L|393:191,1,50.9999984436036,2|0,0:0|0:0,0:0:0:0:
251,112,55708,2,0,L|256:185,1,50.9999984436036
270,348,55868,2,0,P|222:339|164:334,1,101.999996887207,6|0,0:0|0:0,0:0:0:0:
169,334,56189,38,0,B|192:322|216:306|216:306|248:332|248:332|327:326,1,152.999995330811,12|0,0:0|0:0,0:0:0:0:
290,237,56510,1,0,0:0:0:0:
77,376,56670,1,2,0:0:0:0:
81,203,56831,2,0,P|131:211|184:218,1,101.999996887207,8|0,0:0|0:0,0:0:0:0:
303,78,57152,37,2,0:0:0:0:
263,340,57312,1,2,0:0:0:0:
303,78,57473,1,8,0:0:0:0:
153,290,57633,1,0,0:0:0:0:
153,290,57713,1,0,0:0:0:0:
153,290,57793,1,0,0:0:0:0:
381,214,57954,21,2,0:0:0:0:
134,89,58114,1,8,0:0:0:0:
397,34,58275,1,0,0:0:0:0:
255,238,58435,2,0,L|263:342,1,101.999996887207,6|0,0:0|0:0,0:0:0:0:
262,339,58756,38,0,L|270:160,1,152.999995330811,12|0,0:0|0:0,0:0:0:0:
270,109,59077,1,0,0:0:0:0:
395,310,59237,1,2,0:0:0:0:
459,205,59398,2,0,L|352:195,1,101.999996887207,8|0,0:0|0:0,0:0:0:0:
163,286,59719,37,2,0:0:0:0:
412,113,59879,1,2,0:0:0:0:
163,286,60039,1,8,0:0:0:0:
149,114,60200,1,0,0:0:0:0:
147,103,60280,1,0,0:0:0:0:
146,93,60360,1,0,0:0:0:0:
243,344,60521,21,2,0:0:0:0:
146,93,60681,1,8,0:0:0:0:
51,265,60842,1,0,0:0:0:0:
260,143,61002,2,0,P|317:133|367:132,1,101.999996887207,6|0,0:0|0:0,0:0:0:0:
361,131,61323,38,0,P|296:115|268:197,1,152.999995330811,12|0,0:0|0:0,0:0:0:0:
297,251,61644,1,0,0:0:0:0:
219,52,61804,1,2,0:0:0:0:
457,91,61965,2,0,P|458:147|446:201,1,101.999996887207,8|0,0:0|0:0,0:0:0:0:
173,248,62285,37,2,0:0:0:0:
325,172,62446,1,2,0:0:0:0:
173,248,62606,1,8,0:0:0:0:
419,308,62767,1,0,0:0:0:0:
430,312,62847,1,0,0:0:0:0:
442,316,62927,1,0,0:0:0:0:
254,355,63088,5,2,0:0:0:0:
254,355,63248,2,0,P|253:299|265:245,1,101.999996887207,8|0,0:0|0:0,0:0:0:0:
234,110,63569,6,0,B|292:92|336:128|336:128|378:165|447:145,1,203.999993774414,2|8,0:0|0:0,0:0:0:0:
400,52,64050,1,0,0:0:0:0:
269,200,64211,2,0,B|211:218|167:182|167:182|125:145|56:165,1,203.999993774414,0|8,0:0|0:0,0:0:0:0:
103,262,64692,21,0,0:0:0:0:
103,262,64772,1,0,0:0:0:0:
103,262,64852,1,8,0:0:0:0:
234,110,65013,1,2,0:0:0:0:
51,14,65173,1,8,0:0:0:0:
234,110,65334,2,0,L|226:186,1,59.4999981842042,6|0,0:0|0:0,0:0:0:0:
133,339,65654,21,12,0:0:0:0:
91,344,65735,1,0,0:0:0:0:
52,327,65815,1,2,0:0:0:0:
28,293,65895,1,0,0:0:0:0:
24,251,65975,1,2,0:0:0:0:
42,214,66055,1,0,0:0:0:0:
77,190,66136,2,0,L|193:203,1,101.999996887207,6|0,0:0|0:0,0:0:0:0:
178,201,66456,38,0,B|131:175|131:175|89:202|89:202|16:207,1,152.999995330811,12|0,0:0|0:0,0:0:0:0:
3,205,66777,1,0,0:0:0:0:
170,326,66938,1,2,0:0:0:0:
60,126,67098,2,0,L|50:14,1,101.999996887207,8|0,0:0|0:0,0:0:0:0:
310,149,67419,37,2,0:0:0:0:
68,300,67579,1,2,0:0:0:0:
310,149,67740,1,8,0:0:0:0:
147,41,67900,1,0,0:0:0:0:
147,41,67981,1,0,0:0:0:0:
147,41,68061,1,0,0:0:0:0:
255,302,68221,21,2,0:0:0:0:
154,161,68382,1,8,0:0:0:0:
409,125,68542,1,0,0:0:0:0:
409,125,68702,2,0,L|400:236,1,101.999996887207,6|0,0:0|0:0,0:0:0:0:
400,226,69023,38,0,L|387:70,1,152.999995330811,12|0,0:0|0:0,0:0:0:0:
384,47,69344,1,0,0:0:0:0:
271,275,69505,1,2,0:0:0:0:
211,137,69665,2,0,L|330:147,1,101.999996887207,8|0,0:0|0:0,0:0:0:0:
114,60,69986,37,2,0:0:0:0:
56,298,70146,1,2,0:0:0:0:
114,60,70307,1,8,0:0:0:0:
201,260,70467,1,0,0:0:0:0:
201,260,70547,1,0,0:0:0:0:
201,260,70628,1,0,0:0:0:0:
223,20,70788,21,2,0:0:0:0:
8,140,70948,1,8,0:0:0:0:
272,213,71109,1,0,0:0:0:0:
101,257,71269,2,0,L|116:142,1,101.999996887207,6|0,0:0|0:0,0:0:0:0:
115,145,71510,1,0,0:0:0:0:
117,132,71590,37,8,0:0:0:0:
224,324,71751,1,0,0:0:0:0:
272,213,71911,2,0,B|187:203|187:203|154:233|154:233|71:242,1,203.999993774414,0|8,0:0|0:0,0:0:0:0:
100,122,72392,1,0,0:0:0:0:
360,276,72553,38,0,B|382:223|382:223|370:166,1,101.999996887207,2|0,0:0|0:0,0:0:0:0:
199,118,72874,1,8,0:0:0:0:
208,11,73034,2,0,B|187:57|187:57|198:121,1,101.999996887207
272,213,73355,21,2,0:0:0:0:
272,213,73515,2,0,L|283:132,1,59.4999981842042,8|0,0:0|0:0,0:0:0:0:
106,341,73836,37,8,0:0:0:0:
373,197,73997,1,2,0:0:0:0:
142,167,74157,37,8,0:0:0:0:
346,318,74317,1,2,0:0:0:0:
104,187,74478,5,8,0:0:0:0:
397,96,74638,1,2,0:0:0:0:
89,19,74799,1,8,0:0:0:0:
271,233,74959,38,0,L|280:315,1,59.4999981842042,6|0,0:0|0:0,0:0:0:0:
223,76,75280,5,12,0:0:0:0:
104,187,75440,1,0,0:0:0:0:
271,233,75601,2,0,L|397:222,1,118.999996368408,6|8,0:0|0:0,0:0:0:0:
472,267,76082,5,2,0:0:0:0:
472,267,76243,1,2,0:0:0:0:
332,320,76403,6,0,L|283:325,1,42.5,4|0,0:0|0:0,0:0:0:0:
338,151,76724,2,0,L|281:142,1,42.5
271,233,77045,2,0,L|329:231,2,42.5
262,229,77526,6,0,L|362:222,1,85
195,170,78007,1,0,0:0:0:0:
136,246,78168,1,0,0:0:0:0:
98,160,78328,1,0,0:0:0:0:
262,229,78489,21,2,0:0:0:0:
69,172,78649,1,2,0:0:0:0:
213,87,78809,1,2,0:0:0:0:
45,318,78970,21,12,0:0:0:0:
213,87,79130,1,2,0:0:0:0:
234,323,79291,5,8,0:0:0:0:
79,66,79451,1,2,0:0:0:0:
165,199,79612,38,0,L|281:191,1,101.999996887207,8|2,0:0|0:0,0:0:0:0:
279,190,79852,1,0,0:0:0:0:
289,189,79932,1,8,0:0:0:0:
175,7,80093,22,0,B|95:-14|34:32|34:32|94:77,1,203.999993774414,6|8,0:0|0:0,0:0:0:0:
61,282,80574,1,2,0:0:0:0:
139,119,80735,2,0,B|200:102|236:147|236:147|275:194|346:174,1,203.999993774414,6|8,0:0|0:0,0:0:0:0:
360,94,81216,6,0,L|285:99,1,59.4999981842042,2|0,0:0|0:0,0:0:0:0:
419,278,81537,5,12,0:0:0:0:
465,84,81697,1,2,0:0:0:0:
313,300,81858,21,8,0:0:0:0:
471,186,82018,1,2,0:0:0:0:
282,91,82178,21,8,0:0:0:0:
419,278,82339,1,2,0:0:0:0:
209,269,82499,21,8,0:0:0:0:
471,186,82660,1,2,0:0:0:0:
189,76,82820,21,8,0:0:0:0:
209,269,82981,1,2,0:0:0:0:
282,91,83141,37,8,0:0:0:0:
115,251,83301,1,2,0:0:0:0:
358,151,83462,5,8,0:0:0:0:
29,283,83622,1,2,0:0:0:0:
388,245,83783,37,8,0:0:0:0:
0,196,83943,2,0,L|46:201,1,29.7499990921021
120,330,84104,5,12,0:0:0:0:
93,90,84264,1,2,0:0:0:0:
219,333,84424,5,8,0:0:0:0:
217,60,84585,1,2,0:0:0:0:
319,349,84745,37,8,0:0:0:0:
349,46,84906,1,2,0:0:0:0:
422,378,85066,5,0,0:0:0:0:
504,180,85227,2,0,P|434:118|333:158,1,203.999993774414,6|6,0:0|0:0,0:0:0:0:
410,220,85708,37,6,0:0:0:0:
231,27,85868,2,0,P|292:41|359:45,1,118.999996368408,4|0,0:0|0:0,0:0:0:0:
266,280,86350,21,0,0:0:0:0:
257,192,86510,2,0,L|251:134,1,42.5
256,192,86831,12,0,87954,0:0:0:0:
