osu file format v14

[General]
AudioFilename: audio.mp3
AudioLeadIn: 0
PreviewTime: 55868
Countdown: 0
SampleSet: Soft
StackLeniency: 0.7
Mode: 0
LetterboxInBreaks: 0
WidescreenStoryboard: 0

[Editor]
DistanceSpacing: 1
BeatDivisor: 2
GridSize: 4
TimelineZoom: 1

[Metadata]
Title:One In A Billion
TitleUnicode:One In A Billion
Artist:Wake Up, May'n!
ArtistUnicode:Wake Up, May'n!
Creator:Meg
Version:Normal
Source:異世界食堂
Tags:Isekai Shokudou Restaurant to Another World Wake Up, Girls! opening tv size iMage-- zeluaR Momochikun Mei
BeatmapID:1355012
BeatmapSetID:637877

[Difficulty]
HPDrainRate:4
CircleSize:3
OverallDifficulty:4
ApproachRate:5
SliderMultiplier:0.999999999999999
SliderTickRate:1

[Events]
//Background and Video events
0,0,"isekaishokudou.jpg",0,0
Video,0,"video.avi"
//Break Periods
//Storyboard Layer 0 (Background)
//Storyboard Layer 1 (Fail)
//Storyboard Layer 2 (Pass)
//Storyboard Layer 3 (Foreground)
//Storyboard Sound Samples

[TimingPoints]
111,394.736842105263,4,2,1,60,1,0
111,-100,4,2,1,60,0,0
23795,307.692307692308,4,2,1,60,1,0
24718,338.983050847458,4,2,1,60,1,0
25056,326.086956521739,4,2,1,60,1,0
26360,322.58064516129,4,2,1,60,1,0
27650,319.148936170213,4,2,1,60,1,0
30043,346.820809248555,4,2,1,60,1,0
30215,320.855614973262,4,2,1,60,1,0
32781,319.148936170213,4,2,1,60,1,0
35334,320.855614973262,4,2,1,60,1,0
55868,-100,4,2,1,80,0,1
76403,-100,4,2,1,80,0,0
78970,-100,4,2,1,80,0,1
86670,-100,4,2,0,60,0,0
87954,-100,4,2,1,5,0,0

[Colours]
Combo1 : 81,199,255
Combo2 : 255,255,0
Combo3 : 209,163,163
Combo4 : 179,255,179

[HitObjects]
72,328,111,6,0,L|170:311,1,99.9999999999999,6|0,0:0|0:0,0:0:0:0:
236,236,900,2,0,P|285:249|324:279,1,99.9999999999999,2|0,0:0|0:0,0:0:0:0:
396,347,1689,2,0,P|410:300|442:262,1,99.9999999999999,2|0,0:0|0:0,0:0:0:0:
485,237,2282,2,0,L|473:137,1,99.9999999999999,0|2,0:0|0:0,0:0:0:0:
451,92,2874,2,0,L|456:42,2,50,0|0|2,0:0|0:0|0:0,0:0:0:0:
370,151,3663,5,0,0:0:0:0:
290,90,4058,2,0,P|243:71|194:63,1,99.9999999999999,2|0,0:0|0:0,0:0:0:0:
99,31,4847,2,0,P|95:81|117:126,1,99.9999999999999,2|0,0:0|0:0,0:0:0:0:
145,167,5439,2,0,P|148:216|126:261,1,99.9999999999999,0|0,0:0|0:0,0:0:0:0:
99,301,6032,2,0,P|94:325|95:350,2,50,0|0|2,0:0|0:0|0:0,0:0:0:0:
195,329,6821,5,0,0:0:0:0:
282,377,7216,2,0,P|291:328|281:279,1,99.9999999999999,2|0,0:0|0:0,0:0:0:0:
274,179,8005,2,0,L|175:197,1,99.9999999999999,2|0,0:0|0:0,0:0:0:0:
139,232,8597,2,0,L|40:213,1,99.9999999999999,0|2,0:0|0:0,0:0:0:0:
16,169,9189,2,0,L|5:120,2,50,0|0|2,0:0|0:0|0:0,0:0:0:0:
96,109,9979,5,0,0:0:0:0:
190,77,10374,1,2,0:0:0:0:
288,95,10768,2,0,P|309:108|325:127,1,50,0|0,0:0|0:0,0:0:0:0:
350,170,11163,2,0,L|334:268,1,99.9999999999999,2|0,0:0|0:0,0:0:0:0:
260,335,11953,2,0,L|210:328,2,50,2|2|0,0:0|0:0|0:0,0:0:0:0:
355,364,12742,6,0,P|448:348|479:258,1,200,2|2,0:0|0:0,0:0:0:0:
503,161,13926,2,0,L|451:165,1,50,0|0,0:0|0:0,0:0:0:0:
412,194,14321,2,0,L|312:181,1,99.9999999999999,2|0,0:0|0:0,0:0:0:0:
212,196,15110,2,0,P|205:219|202:244,2,50,2|2|0,0:0|0:0|0:0,0:0:0:0:
218,95,15900,6,0,P|181:62|132:54,1,99.9999999999999,2|0,0:0|0:0,0:0:0:0:
52,115,16689,2,0,L|38:214,1,99.9999999999999,2|0,0:0|0:0,0:0:0:0:
14,258,17282,1,0,0:0:0:0:
14,258,17479,2,0,P|62:265|100:297,1,99.9999999999999,2|2,0:0|0:0,0:0:0:0:
196,321,18268,2,0,L|178:367,2,50,2|0|0,0:0|0:0|0:0,0:0:0:0:
271,255,19058,6,0,B|320:246|320:246|369:256,2,99.9999999999999,2|0|2,0:0|0:0|0:0,0:0:0:0:
174,234,20242,2,0,P|171:209|173:184,1,50,0|0,0:0|0:0,0:0:0:0:
194,138,20637,2,0,L|243:128,2,50,2|2|2,0:0|0:0|0:0,0:0:0:0:
108,85,21426,2,0,L|58:75,2,50,2|2|0,0:0|0:0|0:0,0:0:0:0:
196,37,22216,6,0,L|293:17,1,99.9999999999999,2|0,0:0|0:0,0:0:0:0:
393,25,23005,2,0,P|433:52|455:97,1,99.9999999999999,2|0,0:0|0:0,0:0:0:0:
460,147,23597,1,0,0:0:0:0:
460,147,23795,6,0,L|449:246,2,99.9999999999999,2|2|2,3:0|3:0|3:0,0:0:0:0:
367,109,24718,1,2,3:0:0:0:
273,122,25056,6,0,P|225:107|180:85,1,99.9999999999999,6|8,0:0|0:0,0:0:0:0:
98,27,25708,2,0,P|69:66|54:114,1,99.9999999999999,0|8,0:0|0:0,0:0:0:0:
39,162,26197,1,0,0:0:0:0:
39,162,26360,2,0,P|57:180|71:201,1,50,2|2,0:0|0:0,0:0:0:0:
63,249,26682,2,0,P|108:229|157:220,2,99.9999999999999,8|0|8,0:0|3:0|0:0,0:0:0:0:
30,346,27650,6,0,L|129:358,1,99.9999999999999,6|8,0:0|0:0,0:0:0:0:
179,359,28128,2,0,L|278:346,1,99.9999999999999,2|2,0:0|0:0,0:0:0:0:
326,359,28607,2,0,L|343:304,1,50,8|2,0:0|0:0,0:0:0:0:
330,261,28926,2,0,P|380:265|420:237,1,99.9999999999999,0|8,0:0|0:0,0:0:0:0:
500,177,29564,2,0,L|481:78,1,99.9999999999999,0|8,0:0|0:0,0:0:0:0:
452,48,30043,1,8,0:0:0:0:
452,48,30215,6,0,L|353:32,1,99.9999999999999,6|8,0:0|0:0,0:0:0:0:
301,118,30856,2,0,L|399:133,1,99.9999999999999,0|8,0:0|0:0,0:0:0:0:
434,169,31337,1,2,0:0:0:0:
434,169,31498,2,0,L|439:218,1,50,0|0,0:0|0:0,0:0:0:0:
473,254,31819,2,0,P|428:274|398:313,1,99.9999999999999,8|0,0:0|0:0,0:0:0:0:
314,367,32460,1,8,0:0:0:0:
221,325,32781,6,0,P|197:283|196:233,1,99.9999999999999,6|8,0:0|0:0,0:0:0:0:
239,208,33259,2,0,P|263:165|264:115,1,99.9999999999999,6|0,0:0|0:0,0:0:0:0:
225,93,33738,2,0,L|176:79,1,50,14|0,0:0|0:0,0:0:0:0:
128,65,34057,2,0,L|29:84,1,99.9999999999999,6|0,0:0|0:0,0:0:0:0:
22,184,34695,2,0,P|24:208|32:232,1,50,8|2,0:0|0:0,0:0:0:0:
53,278,35015,2,0,P|71:294|94:305,1,50,2|8,0:0|0:0,0:0:0:0:
140,323,35334,6,0,L|239:308,1,99.9999999999999,6|8,0:0|0:0,0:0:0:0:
313,241,35975,2,0,P|360:260|403:286,1,99.9999999999999,0|8,3:0|0:0,0:0:0:0:
438,321,36456,1,0,0:0:0:0:
438,321,36617,2,0,L|455:222,1,99.9999999999999,2|8,0:0|0:0,0:0:0:0:
430,125,37259,2,0,P|437:101|450:79,2,50,0|2|8,0:0|0:0|0:0,0:0:0:0:
338,164,37900,6,0,L|238:156,1,99.9999999999999,2|8,0:0|0:0,0:0:0:0:
190,171,38382,2,0,P|182:121|187:71,1,99.9999999999999,0|2,0:0|0:0,0:0:0:0:
221,34,38863,2,0,P|243:44|267:50,2,50,8|2|2,0:0|0:0|0:0,0:0:0:0:
121,17,39505,1,8,0:0:0:0:
40,75,39825,2,0,P|34:100|30:125,1,50,0|2,3:0|0:0,0:0:0:0:
20,174,40146,2,0,L|38:272,1,99.9999999999999,8|2,0:0|0:0,0:0:0:0:
113,339,40788,6,0,P|149:322|172:321,1,50,8|0,0:0|0:0,0:0:0:0:
194,285,41109,2,0,P|231:320|276:342,1,99.9999999999999,0|8,3:0|0:0,0:0:0:0:
370,308,41751,2,0,L|468:290,2,99.9999999999999,2|8|0,0:0|0:0|3:0,0:0:0:0:
336,270,42553,1,0,0:0:0:0:
336,270,42713,2,0,P|334:246|335:221,1,50,8|0,0:0|0:0,0:0:0:0:
349,172,43034,6,0,B|356:122|356:122|339:75,1,99.9999999999999,2|8,0:0|0:0,0:0:0:0:
239,80,43676,2,0,B|232:130|232:130|248:176,1,99.9999999999999,0|8,3:0|0:0,0:0:0:0:
246,276,44317,1,8,0:0:0:0:
157,322,44638,1,8,0:0:0:0:
61,291,44959,1,8,0:0:0:0:
15,202,45280,2,0,L|26:153,1,50,4|4,0:3|0:3,0:0:0:0:
13,104,45601,6,0,B|115:64|99:163|201:121,1,200,6|8,0:0|0:0,0:0:0:0:
241,91,46403,2,0,L|250:140,1,50,2|0,0:0|0:0,0:0:0:0:
307,221,46884,2,0,P|330:214|355:210,2,50,2|2|0,0:0|0:0|0:0,0:0:0:0:
222,275,47526,2,0,P|198:267|173:263,2,50,8|2|0,0:0|0:0|0:0,0:0:0:0:
292,346,48168,6,0,P|383:370|445:298,1,200,2|8,0:0|0:0,0:0:0:0:
424,252,48970,2,0,P|422:228|425:204,1,50,2|0,0:0|0:0,0:0:0:0:
475,116,49451,1,2,0:0:0:0:
475,116,49612,2,0,L|354:90,1,99.9999999999999,2|2,0:0|0:0,0:0:0:0:
329,79,50093,2,0,L|311:125,1,50,8|2,0:0|0:0,0:0:0:0:
263,138,50414,2,0,L|245:184,1,50,2|0,0:0|0:0,0:0:0:0:
197,196,50735,6,0,P|147:199|103:176,1,99.9999999999999,6|8,0:0|0:0,0:0:0:0:
22,118,51376,2,0,L|41:19,1,99.9999999999999,0|8,3:0|0:0,0:0:0:0:
142,19,52018,2,0,B|192:22|192:22|230:54,1,99.9999999999999,2|8,0:0|0:0,0:0:0:0:
288,136,52660,2,0,B|338:133|338:133|376:100,1,99.9999999999999,0|8,3:0|0:0,0:0:0:0:
446,29,53301,6,0,P|458:50|467:73,1,50,6|0,0:0|0:0,0:0:0:0:
468,124,53622,1,8,0:0:0:0:
457,223,53943,2,0,P|435:235|412:244,1,50,6|0,0:0|0:0,0:0:0:0:
362,245,54264,1,8,0:0:0:0:
362,245,54424,2,0,P|324:278|304:324,1,99.9999999999999,4|12,0:0|0:0,0:0:0:0:
206,342,55066,1,12,0:0:0:0:
109,365,55387,2,0,P|38:348|7:283,1,150,0|6,1:0|0:0,0:0:0:0:
39,187,56189,6,0,L|49:87,2,99.9999999999999,12|0|8,0:0|3:0|0:0,0:0:0:0:
76,220,56991,1,0,0:0:0:0:
76,220,57152,2,0,P|124:206|173:205,1,99.9999999999999,2|8,0:0|0:0,0:0:0:0:
208,242,57633,2,0,P|256:255|305:256,1,99.9999999999999,2|2,0:0|0:0,0:0:0:0:
356,257,58114,2,0,L|369:305,2,50,8|0|6,0:0|0:0|0:0,0:0:0:0:
377,157,58756,6,0,P|423:140|473:133,2,99.9999999999999,12|0|8,0:0|3:0|0:0,0:0:0:0:
327,150,59558,1,0,0:0:0:0:
327,150,59719,2,0,L|292:56,1,99.9999999999999,2|8,0:0|0:0,0:0:0:0:
265,13,60200,2,0,L|200:89,1,99.9999999999999,0|2,0:0|0:0,0:0:0:0:
178,136,60681,2,0,L|227:144,2,50,8|0|6,0:0|0:0|0:0,0:0:0:0:
77,129,61323,5,12,0:0:0:0:
22,212,61644,1,0,3:0:0:0:
20,311,61965,2,0,P|32:334|49:352,1,50,8|0,0:0|0:0,0:0:0:0:
98,364,62285,2,0,L|196:347,1,99.9999999999999,2|8,0:0|0:0,0:0:0:0:
243,364,62767,2,0,P|271:324|276:275,1,99.9999999999999,0|2,0:0|0:0,0:0:0:0:
249,233,63248,2,0,P|239:209|236:185,1,50,8|0,0:0|0:0,0:0:0:0:
263,143,63569,6,0,P|300:109|348:98,1,99.9999999999999,6|8,0:0|0:0,0:0:0:0:
434,150,64211,2,0,P|397:183|349:194,1,99.9999999999999,0|8,3:0|0:0,0:0:0:0:
332,242,64692,1,2,0:0:0:0:
332,242,64852,2,0,P|313:289|307:338,1,99.9999999999999,8|2,0:0|0:0,0:0:0:0:
351,362,65334,1,12,0:0:0:0:
450,366,65654,2,0,B|499:308|499:308|476:237,1,150,12|6,0:0|0:0,0:0:0:0:
417,156,66456,6,0,P|463:138|512:143,2,99.9999999999999,12|0|8,0:0|3:0|0:0,0:0:0:0:
367,165,67259,1,0,0:0:0:0:
367,165,67419,2,0,L|336:69,1,99.9999999999999,2|8,0:0|0:0,0:0:0:0:
343,20,67900,2,0,L|243:32,1,99.9999999999999,0|2,0:0|0:0,0:0:0:0:
200,57,68382,2,0,P|188:35|179:12,2,50,8|0|6,0:0|0:0|0:0,0:0:0:0:
262,135,69023,6,0,P|267:184|261:234,2,99.9999999999999,12|0|8,0:0|3:0|0:0,0:0:0:0:
212,144,69825,1,0,0:0:0:0:
212,144,69986,2,0,P|162:144|112:136,1,99.9999999999999,2|8,0:0|0:0,0:0:0:0:
67,156,70467,2,0,P|91:199|108:246,1,99.9999999999999,0|2,0:0|0:0,0:0:0:0:
149,275,70948,2,0,P|161:252|175:232,2,50,8|0|6,0:0|0:0|0:0,0:0:0:0:
224,341,71590,5,12,0:0:0:0:
323,350,71911,1,0,3:0:0:0:
419,321,72232,2,0,P|440:308|458:291,1,50,8|0,0:0|0:0,0:0:0:0:
480,246,72553,2,0,P|482:196|472:147,1,99.9999999999999,2|8,0:0|0:0,0:0:0:0:
432,117,73034,2,0,L|332:108,1,99.9999999999999,0|2,0:0|0:0,0:0:0:0:
284,122,73515,2,0,L|234:117,1,50,8|0,0:0|0:0,0:0:0:0:
185,131,73836,5,6,0:0:0:0:
143,39,74157,1,8,0:0:0:0:
85,120,74478,1,0,3:0:0:0:
127,212,74799,1,8,0:0:0:0:
127,212,74959,2,0,P|125:272|107:329,1,99.9999999999999,6|0,0:0|3:0,0:0:0:0:
113,360,75440,1,8,0:0:0:0:
113,360,75601,2,0,P|157:338|207:331,1,99.9999999999999,2|8,0:0|0:0,0:0:0:0:
253,350,76082,1,0,1:0:0:0:
353,347,76403,6,0,P|447:350|491:266,1,200,4|2,0:0|0:0,0:0:0:0:
425,188,77366,1,0,0:0:0:0:
340,240,77686,2,0,B|320:171|320:171|264:163|264:163|242:89,1,200
220,49,78489,1,8,0:0:0:0:
220,49,78649,2,0,P|195:45|170:45,1,50,8|0,0:0|1:0,0:0:0:0:
121,56,78970,6,0,P|96:100|83:148,1,99.9999999999999,6|8,0:0|0:0,0:0:0:0:
160,213,79612,2,0,P|184:256|197:304,1,99.9999999999999,2|8,0:0|0:0,0:0:0:0:
170,346,80093,2,0,L|70:356,1,99.9999999999999,6|8,0:0|0:0,0:0:0:0:
27,331,80574,1,8,0:0:0:0:
27,331,80735,2,0,B|6:281|6:281|16:235,1,99.9999999999999,12|8,0:0|0:0,0:0:0:0:
31,188,81216,1,12,0:0:0:0:
80,101,81537,6,0,P|104:100|129:95,1,50,6|0,0:0|0:0,0:0:0:0:
171,68,81858,2,0,P|195:68|220:73,1,50,8|0,0:0|0:0,0:0:0:0:
262,97,82178,2,0,P|287:140|332:160,1,99.9999999999999,2|8,0:0|0:0,0:0:0:0:
382,156,82660,1,0,0:0:0:0:
382,156,82820,2,0,L|480:137,1,99.9999999999999,12|8,0:0|0:0,0:0:0:0:
489,237,83462,2,0,L|390:255,1,99.9999999999999,12|8,0:0|0:0,0:0:0:0:
334,338,84104,6,0,P|317:319|302:299,1,50,12|0,0:0|0:0,0:0:0:0:
280,254,84424,2,0,P|287:230|297:207,1,50,8|0,0:0|0:0,0:0:0:0:
332,170,84745,2,0,P|341:123|314:82,1,99.9999999999999,14|8,0:0|0:0,0:0:0:0:
267,64,85227,2,0,L|138:74,1,99.9999999999999,6|0,0:0|0:0,0:0:0:0:
118,83,85708,1,0,0:0:0:0:
118,83,85868,2,0,P|64:134|56:207,1,150,6|0,0:0|0:0,0:0:0:0:
256,192,86510,12,0,87954,0:0:0:0:
