osu file format v14

[General]
AudioFilename: audio.mp3
AudioLeadIn: 0
PreviewTime: 55868
Countdown: 0
SampleSet: Soft
StackLeniency: 0.3
Mode: 0
LetterboxInBreaks: 0
WidescreenStoryboard: 0

[Editor]
DistanceSpacing: 1.3
BeatDivisor: 4
GridSize: 4
TimelineZoom: 1

[Metadata]
Title:One In A Billion
TitleUnicode:One In A Billion
Artist:Wake Up, May'n!
ArtistUnicode:Wake Up, May'n!
Creator:Meg
Version:Mochi's Hard
Source:異世界食堂
Tags:Isekai Shokudou Restaurant to Another World Wake Up, Girls! opening tv size iMage-- zeluaR Momochikun Mei
BeatmapID:1359408
BeatmapSetID:637877

[Difficulty]
HPDrainRate:5
CircleSize:4
OverallDifficulty:6
ApproachRate:7.7
SliderMultiplier:1.37
SliderTickRate:1

[Events]
//Background and Video events
0,0,"isekaishokudou.jpg",0,0
Video,0,"video.avi"
//Break Periods
//Storyboard Layer 0 (Background)
//Storyboard Layer 1 (Fail)
//Storyboard Layer 2 (Pass)
//Storyboard Layer 3 (Foreground)
//Storyboard Sound Samples

[TimingPoints]
111,394.736842105263,4,2,1,60,1,0
111,-105.263157894737,4,2,1,60,0,0
23795,307.692307692308,4,2,1,60,1,0
24718,338.983050847458,4,2,1,60,1,0
25056,326.086956521739,4,2,1,60,1,0
26360,322.58064516129,4,2,1,60,1,0
27650,319.148936170213,4,2,1,60,1,0
30043,346.820809248555,4,2,1,60,1,0
30215,320.855614973262,4,2,1,60,1,0
32781,319.148936170213,4,2,1,60,1,0
33738,-100,4,2,1,60,0,0
35334,320.855614973262,4,2,1,60,1,0
50414,-100,4,2,1,75,0,0
55868,-100,4,2,1,85,0,1
76403,-111.111111111111,4,2,1,70,0,0
78489,-111.111111111111,4,2,1,90,0,0
78970,-100,4,2,1,85,0,1
86670,-100,4,2,1,60,0,0
87954,-100,4,2,1,5,0,0

[Colours]
Combo1 : 81,199,255
Combo2 : 255,255,0
Combo3 : 209,163,163
Combo4 : 179,255,179

[HitObjects]
256,192,111,5,6,0:0:0:0:
256,192,505,2,0,P|228:255|223:320,2,130.14999652462,0|2|0,0:0|0:0|0:0,0:0:0:0:
410,123,1689,2,0,L|279:158,1,130.14999652462,2|0,0:0|0:0,0:0:0:0:
210,114,2282,2,0,B|127:93|127:93|69:132,1,130.14999652462
20,160,2874,2,0,L|1:82,2,65.0749982623101,0|0|2,0:0|0:0|0:0,0:0:0:0:
104,306,3663,6,0,P|166:348|233:329,2,130.14999652462,0|2|0,0:0|0:0|0:0,0:0:0:0:
230,193,4847,2,0,P|279:153|343:159,1,130.14999652462,2|0,0:0|0:0,0:0:0:0:
418,198,5439,2,0,P|409:237|399:275,1,65.0749982623101,0|2,0:0|0:0,0:0:0:0:
314,283,5834,1,0,0:0:0:0:
314,283,6032,2,0,P|323:322|333:360,1,65.0749982623101,0|0,0:0|0:0,0:0:0:0:
234,329,6426,6,0,B|176:353|161:310|91:341,1,130.14999652462,2|0,0:0|0:0,0:0:0:0:
42,145,7216,2,0,B|10:224|10:224|25:271,1,130.14999652462,2|0,0:0|0:0,0:0:0:0:
107,235,7808,1,0,0:0:0:0:
107,235,8005,2,0,L|175:252,1,65.0749982623101,2|2,0:0|0:0,0:0:0:0:
248,214,8400,1,0,0:0:0:0:
285,315,8597,2,0,P|347:323|415:275,1,130.14999652462,0|2,0:0|0:0,0:0:0:0:
431,210,9189,2,0,B|409:150|459:131|427:73,1,130.14999652462,0|2,0:0|0:0,0:0:0:0:
268,40,9979,6,0,L|329:18,1,65.0749982623101
321,104,10374,2,0,P|271:152|268:217,1,130.14999652462,2|0,0:0|0:0,0:0:0:0:
222,282,10966,2,0,P|278:244|348:254,1,130.14999652462,0|2,0:0|0:0,0:0:0:0:
294,321,11558,1,0,0:0:0:0:
197,365,11755,2,0,P|147:322|151:245,1,130.14999652462
167,180,12347,1,0,0:0:0:0:
167,180,12742,6,0,L|234:162,1,65.0749982623101,2|0,0:0|0:0,0:0:0:0:
252,67,13137,2,0,L|189:83,1,65.0749982623101,0|0,0:0|0:0,0:0:0:0:
104,43,13532,2,0,B|53:104|97:184,1,130.14999652462,2|0,0:0|0:0,0:0:0:0:
174,227,14124,2,0,P|114:272|55:265,1,130.14999652462
142,315,14716,2,0,P|176:323|215:327,1,65.0749982623101,0|0,0:0|0:0,0:0:0:0:
285,355,15110,2,0,P|332:334|425:329,1,130.14999652462,2|0,0:0|0:0,0:0:0:0:
474,271,15703,5,0,0:0:0:0:
474,271,15900,2,0,P|465:235|455:196,1,65.0749982623101,2|0,0:0|0:0,0:0:0:0:
384,164,16295,2,0,B|345:146|345:146|300:170|255:135,2,130.14999652462,0|2|0,0:0|0:0|0:0,0:0:0:0:
453,115,17282,2,0,P|459:61|399:15,1,130.14999652462
320,10,17874,1,2,0:0:0:0:
242,159,18268,2,0,P|221:191|226:242,1,65.0749982623101,2|0,0:0|0:0,0:0:0:0:
240,298,18663,1,0,0:0:0:0:
240,298,19058,6,0,B|192:312|192:312|159:301|159:301|95:319,1,130.14999652462,2|0,0:0|0:0,0:0:0:0:
16,175,19847,2,0,B|64:161|64:161|97:172|97:172|161:154,1,130.14999652462,2|0,0:0|0:0,0:0:0:0:
212,115,20439,1,0,0:0:0:0:
291,86,20637,2,0,P|241:127|248:208,1,130.14999652462,2|2,0:0|0:0,0:0:0:0:
371,302,21426,2,0,P|358:241|344:169,1,130.14999652462,2|0,0:0|0:0,0:0:0:0:
486,80,22216,6,0,P|498:143|511:207,2,130.14999652462,2|0|2,0:0|0:0|0:0,0:0:0:0:
345,174,23400,1,0,0:0:0:0:
271,149,23597,1,0,0:0:0:0:
222,88,23795,6,0,P|258:71|289:74,1,68.5,2|0,3:0|3:0,0:0:0:0:
360,24,24102,2,0,P|393:38|429:40,1,68.5,2|0,3:0|3:0,0:0:0:0:
488,104,24410,2,0,P|465:136|436:149,1,68.5,2|0,3:0|3:0,0:0:0:0:
361,191,24718,2,0,P|365:227|384:256,1,68.5,8|0,0:0|3:0,0:0:0:0:
400,366,25056,6,0,P|333:372|262:330,1,137,6|8,0:0|0:0,0:0:0:0:
197,287,25545,2,0,P|181:223|156:147,1,137,2|2,0:0|0:0,0:0:0:0:
89,54,26034,2,0,P|91:95|72:127,1,68.5,8|0,0:0|0:0,0:0:0:0:
44,201,26360,6,0,P|107:150|165:158,1,137,2|8,0:0|0:0,0:0:0:0:
304,230,27005,2,0,P|309:189|337:161,1,68.5,0|2,3:0|0:0,0:0:0:0:
399,132,27327,2,0,P|439:137|467:165,1,68.5,8|0,0:0|0:0,0:0:0:0:
508,222,27650,6,0,P|495:294|483:361,1,137,6|8,0:0|0:0,0:0:0:0:
378,384,28128,2,0,P|390:316|402:249,1,137,2|2,0:0|0:0,0:0:0:0:
349,183,28607,2,0,P|339:135|334:106,1,68.5,8|2,0:0|0:0,0:0:0:0:
407,75,28926,6,0,P|348:87|283:31,1,137,0|8,0:0|0:0,0:0:0:0:
133,97,29564,2,0,L|55:120,1,68.5,0|2,0:0|0:0,0:0:0:0:
31,191,29884,1,8,0:0:0:0:
53,268,30043,1,8,0:0:0:0:
81,351,30215,6,0,P|137:308|210:331,2,137,6|8|0,0:0|0:0|0:0,0:0:0:0:
53,268,31017,1,2,0:0:0:0:
110,209,31177,2,0,P|128:177|130:138,1,68.5,8|2,0:0|0:0,0:0:0:0:
184,84,31498,6,0,P|281:105|342:112,1,137,0|8,0:0|0:0,0:0:0:0:
388,65,31979,1,0,0:0:0:0:
340,147,32140,2,0,P|326:213|370:266,1,137,0|8,0:0|0:0,0:0:0:0:
451,286,32621,1,0,0:0:0:0:
470,168,32781,6,0,P|419:183|399:209,1,68.5,6|0,0:0|0:0,0:0:0:0:
366,264,33100,1,8,0:0:0:0:
279,206,33259,2,0,P|294:140|312:72,1,137,6|0,0:0|0:0,0:0:0:0:
241,30,33738,6,0,P|190:70|109:62,1,137,12|2,0:0|0:0,0:0:0:0:
45,102,34217,2,0,P|118:110|170:168,1,137,4|2,0:0|0:0,0:0:0:0:
188,240,34695,1,8,0:0:0:0:
188,240,35015,5,2,0:0:0:0:
272,258,35174,1,8,0:0:0:0:
357,277,35334,1,6,0:0:0:0:
357,277,35654,6,0,L|422:258,1,68.5,8|0,0:0|0:0,0:0:0:0:
463,182,35975,2,0,P|459:145|482:106,1,68.5,0|2,3:0|0:0,0:0:0:0:
415,17,36296,2,0,P|409:53|376:85,1,68.5,8|0,0:0|0:0,0:0:0:0:
315,126,36617,6,0,B|234:149|234:149|188:110,1,137,2|8,0:0|0:0,0:0:0:0:
155,41,37098,2,0,P|161:118|120:165,1,137,0|2,0:0|0:0,0:0:0:0:
9,189,37579,2,0,P|19:155|47:131,1,68.5,8|0,0:0|0:0,0:0:0:0:
141,189,37900,6,0,P|199:229|279:213,1,137,2|8,0:0|0:0,0:0:0:0:
357,160,38382,2,0,P|338:233|322:312,1,137,0|2,0:0|0:0,0:0:0:0:
259,372,38863,2,0,P|241:341|243:301,1,68.5,8|2,0:0|0:0,0:0:0:0:
250,209,39184,6,0,P|224:234|185:242,1,68.5,2|2,0:0|0:0,0:0:0:0:
135,184,39505,2,0,P|99:184|65:162,1,68.5,8|0,0:0|0:0,0:0:0:0:
108,95,39825,2,0,P|82:69|74:30,2,68.5,0|2|8,3:0|0:0|0:0,0:0:0:0:
245,185,40467,6,0,B|287:170|287:170|330:204|403:183,1,137,2|8,0:0|0:0,0:0:0:0:
444,138,40948,1,0,0:0:0:0:
496,204,41109,2,0,L|481:280,1,68.5,0|2,3:0|0:0,0:0:0:0:
401,323,41430,2,0,L|374:188,1,137,8|2,0:0|0:0,0:0:0:0:
323,122,41911,5,2,0:0:0:0:
323,122,42071,2,0,P|279:116|253:107,1,68.5,8|0,0:0|0:0,0:0:0:0:
190,58,42392,2,0,P|146:108|154:187,1,137,0|8,0:0|0:0,0:0:0:0:
257,300,43034,6,0,B|210:289|165:316|165:316|142:308|126:293,1,137,2|8,0:0|0:0,0:0:0:0:
67,241,43515,1,0,0:0:0:0:
35,164,43676,2,0,P|58:138|62:97,1,68.5,0|2,3:0|0:0,0:0:0:0:
30,29,43997,1,8,0:0:0:0:
156,136,44317,6,0,P|188:153|227:148,1,68.5,8|0,0:0|0:0,0:0:0:0:
339,62,44638,2,0,P|301:79|281:103,1,68.5,8|0,0:0|0:0,0:0:0:0:
334,247,44959,2,0,P|327:205|309:180,1,68.5,8|0,0:0|0:0,0:0:0:0:
227,266,45280,2,0,P|233:307|251:332,1,68.5,4|4,0:3|0:3,0:0:0:0:
319,370,45601,5,6,0:0:0:0:
221,347,45761,2,0,B|143:324|143:324|90:356,1,137,0|2,0:0|0:0,0:0:0:0:
44,287,46243,2,0,P|83:232|75:152,1,137,8|0,0:0|0:0,0:0:0:0:
39,93,46724,5,0,0:0:0:0:
39,93,46884,2,0,P|25:55|30:24,2,68.5,2|8|0,0:0|0:0|0:0,0:0:0:0:
119,72,47366,1,2,0:0:0:0:
181,125,47526,2,0,L|253:105,1,68.5,8|2,0:0|0:0,0:0:0:0:
332,176,47847,2,0,L|265:194,1,68.5,0|0,0:0|0:0,0:0:0:0:
202,247,48168,5,2,0:0:0:0:
125,277,48328,2,0,P|171:322|245:316,1,137,0|2,0:0|0:0,0:0:0:0:
309,275,48809,1,8,0:0:0:0:
394,287,48970,1,2,0:0:0:0:
394,287,49130,2,0,P|415:324|416:359,1,68.5
463,213,49451,6,0,P|481:174|514:157,1,68.5,2|8,0:0|0:0,0:0:0:0:
468,85,49772,1,0,0:0:0:0:
393,51,49932,2,0,B|310:37|310:37|253:86,1,137,2|2,0:0|0:0,0:0:0:0:
170,38,50414,2,0,L|188:110,1,68.5,8|8,0:0|0:0,0:0:0:0:
145,213,50735,6,0,P|77:226|12:177,1,137,6|8,0:0|0:0,0:0:0:0:
193,325,51376,2,0,P|261:338|326:289,1,137,0|8,3:0|0:0,0:0:0:0:
347,230,51858,1,0,0:0:0:0:
234,186,52018,6,0,P|233:231|250:259,1,68.5,2|2,0:0|0:0,0:0:0:0:
317,155,52339,2,0,B|326:114|326:114|298:71|304:10,2,137,8|0|8,0:0|3:0|0:0,0:0:0:0:
178,100,53301,6,0,L|107:84,1,68.5,6|0,0:0|0:0,0:0:0:0:
39,162,53622,2,0,L|54:236,1,68.5,8|0,0:0|0:0,0:0:0:0:
218,138,53943,2,0,L|147:122,1,68.5,6|0,0:0|0:0,0:0:0:0:
76,62,54264,1,8,0:0:0:0:
39,162,54424,6,0,L|66:296,1,137,4|12,0:0|0:0,0:0:0:0:
258,181,55066,2,0,L|187:165,1,68.5,12|0,0:0|0:0,0:0:0:0:
215,69,55387,1,2,0:0:0:0:
305,84,55547,2,0,P|307:122|281:162,1,68.5,0|0,1:0|0:0,0:0:0:0:
209,270,55868,6,0,P|270:225|346:244,2,137,6|8|0,0:0|0:0|3:0,0:0:0:0:
134,303,56670,1,2,0:0:0:0:
79,218,56831,2,0,P|61:183|73:136,1,68.5,8|0,0:0|0:0,0:0:0:0:
92,51,57152,6,0,B|115:89|115:89|111:149|63:154,1,137,2|8,0:0|0:0,0:0:0:0:
9,245,57633,2,0,P|74:232|145:274,1,137,2|2,0:0|0:0,0:0:0:0:
204,306,58114,2,0,L|280:284,1,68.5,8|0,0:0|0:0,0:0:0:0:
301,174,58435,6,0,L|235:193,1,68.5,6|0,0:0|0:0,0:0:0:0:
347,250,58756,2,0,P|396:257|462:202,2,137,8|0|8,0:0|0:0|0:0,0:0:0:0:
202,170,59719,6,0,P|203:129|232:98,1,68.5,2|2,0:0|0:0,0:0:0:0:
288,49,60039,1,8,0:0:0:0:
288,49,60200,2,0,B|334:63|334:63|378:39|426:56,1,137,0|2,0:0|0:0,0:0:0:0:
469,120,60681,1,8,0:0:0:0:
443,198,60842,1,0,0:0:0:0:
367,230,61002,6,0,B|281:251|281:251|238:228,2,137,6|8|0,0:0|0:0|3:0,0:0:0:0:
443,198,61804,1,2,0:0:0:0:
375,260,61965,2,0,P|356:293|357:331,1,68.5,8|0,0:0|0:0,0:0:0:0:
247,269,62285,6,0,P|265:215|212:153,1,137,2|8,0:0|0:0,0:0:0:0:
161,67,62767,2,0,P|219:123|280:120,1,137,0|2,0:0|0:0,0:0:0:0:
339,40,63248,2,0,P|313:78|310:102,1,68.5,8|0,0:0|0:0,0:0:0:0:
393,193,63569,6,0,B|347:207|347:207|311:196|311:196|251:218,1,137,6|8,0:0|0:0,0:0:0:0:
185,183,64050,1,0,0:0:0:0:
240,292,64211,2,0,P|204:303|122:256,1,137,0|8,3:0|0:0,0:0:0:0:
87,161,64692,1,2,0:0:0:0:
185,183,64852,6,0,L|164:114,1,68.5,4|2,0:0|0:0,0:0:0:0:
141,33,65173,1,2,0:0:0:0:
259,86,65334,2,0,P|308:50|393:55,1,137,12|8,0:0|0:0,0:0:0:0:
469,110,65815,1,8,0:0:0:0:
506,217,65975,5,8,0:0:0:0:
506,217,66055,1,8,0:0:0:0:
506,217,66136,2,0,P|438:219|383:181,1,137,6|12,0:0|0:0,0:0:0:0:
205,266,66777,2,0,P|182:304|182:338,1,68.5,0|2,3:0|0:0,0:0:0:0:
96,290,67098,2,0,L|24:314,1,68.5,8|0,0:0|0:0,0:0:0:0:
84,188,67419,6,0,P|115:143|94:67,1,137,4|8,0:0|0:0,0:0:0:0:
21,13,67900,2,0,P|66:53|152:49,1,137,4|2,0:0|0:0,0:0:0:0:
206,104,68382,1,8,0:0:0:0:
282,74,68542,1,0,0:0:0:0:
344,126,68702,6,0,P|362:166|372:198,1,68.5,6|0,0:0|0:0,0:0:0:0:
450,236,69023,2,0,P|428:271|428:316,1,68.5,8|2,0:0|0:0,0:0:0:0:
337,271,69344,2,0,P|300:254|253:257,1,68.5,0|2,3:0|0:0,0:0:0:0:
192,272,69665,1,8,0:0:0:0:
317,95,69986,6,0,P|253:114|175:136,1,137,4|8,0:0|0:0,0:0:0:0:
110,78,70467,2,0,B|84:164|84:164|103:214,1,137,4|2,0:0|0:0,0:0:0:0:
175,294,70948,2,0,P|183:256|213:228,1,68.5,8|0,0:0|0:0,0:0:0:0:
279,200,71269,6,0,P|342:239|416:231,1,137,6|8,0:0|0:0,0:0:0:0:
459,175,71751,1,0,0:0:0:0:
392,127,71911,2,0,P|373:94|379:49,1,68.5,0|2,3:0|0:0,0:0:0:0:
442,20,72232,1,8,0:0:0:0:
289,93,72553,6,0,B|244:84|208:111|208:111|169:88|164:44,1,137,4|8,0:0|0:0,0:0:0:0:
98,38,73034,2,0,P|46:82|43:155,1,137,4|2,0:0|0:0,0:0:0:0:
77,220,73515,1,8,0:0:0:0:
115,293,73676,1,0,0:0:0:0:
152,365,73836,6,0,P|212:331|286:347,1,137,6|8,0:0|0:0,0:0:0:0:
361,359,74317,1,0,0:0:0:0:
424,279,74478,2,0,L|407:209,1,68.5,12|2,0:0|0:0,0:0:0:0:
385,124,74799,1,8,0:0:0:0:
279,184,74959,6,0,P|220:194|161:140,1,137,6|2,0:0|0:0,0:0:0:0:
72,165,75440,1,0,0:0:0:0:
117,61,75601,2,0,P|183:49|258:27,1,137,4|8,0:0|0:0,0:0:0:0:
334,71,76082,2,0,P|376:82|408:88,1,68.5,2|2,0:0|0:0,0:0:0:0:
446,162,76403,6,0,P|479:155|512:146,1,61.6499981185914,4|0,0:0|0:0,0:0:0:0:
503,234,76724,2,0,P|497:264|490:294,1,61.6499981185914,0|0,1:0|0:0,0:0:0:0:
436,369,77045,2,0,P|395:333|405:264,1,123.299996237183,2|0,0:0|1:0,0:0:0:0:
341,202,77526,1,2,0:0:0:0:
341,202,77847,5,0,0:0:0:0:
248,233,78007,2,0,B|194:254|172:211|113:240,1,123.299996237183
30,255,78489,1,8,1:2:0:0:
126,234,78649,1,8,1:2:0:0:
186,312,78809,1,0,1:2:0:0:
42,347,78970,6,0,L|22:278,1,68.5,6|0,0:0|0:0,0:0:0:0:
137,208,79291,2,0,L|157:139,1,68.5,8|0,0:0|0:0,0:0:0:0:
117,59,79612,2,0,P|167:104|255:97,1,137,12|8,0:0|0:0,0:0:0:0:
341,53,80093,6,0,P|322:123|307:187,1,137,6|8,0:0|0:0,0:0:0:0:
369,259,80574,1,8,0:0:0:0:
266,345,80735,2,0,B|219:336|176:360|176:360|149:353|129:333,1,137,4|8,0:0|0:0,0:0:0:0:
51,297,81216,1,12,0:0:0:0:
130,209,81376,5,8,0:0:0:0:
130,209,81456,1,8,0:0:0:0:
130,209,81537,2,0,P|147:178|146:136,1,68.5,4|0,0:0|0:0,0:0:0:0:
61,50,81858,2,0,P|44:81|45:123,1,68.5,8|0,0:0|0:0,0:0:0:0:
130,209,82178,2,0,P|194:225|257:176,1,137,12|8,0:0|0:0,0:0:0:0:
325,133,82660,1,2,0:0:0:0:
418,195,82820,6,0,L|434:261,1,68.5,12|0,0:0|0:0,0:0:0:0:
336,277,83141,2,0,L|319:343,1,68.5,8|2,0:0|0:0,0:0:0:0:
192,343,83462,2,0,L|176:277,1,68.5,8|2,0:0|0:0,0:0:0:0:
77,261,83783,2,0,L|94:195,1,68.5,8|0,0:0|0:0,0:0:0:0:
119,79,84104,6,0,B|143:73|167:85|167:85|212:60|264:71,1,137,12|8,0:0|0:0,0:0:0:0:
324,106,84585,1,0,0:0:0:0:
345,200,84745,2,0,P|312:199|280:176,1,68.5,12|0,0:0|0:0,0:0:0:0:
352,93,85066,1,8,0:0:0:0:
436,162,85227,6,0,P|437:244|392:286,1,137,6|2,0:0|0:0,0:0:0:0:
317,312,85708,1,2,0:0:0:0:
225,231,85868,2,0,P|279:190|349:202,1,137,6|0,0:0|0:0,0:0:0:0:
401,281,86350,1,0,0:0:0:0:
256,192,86510,12,0,87954,0:0:0:0:
