osu file format v14

[General]
AudioFilename: audio.mp3
AudioLeadIn: 0
PreviewTime: 55868
Countdown: 0
SampleSet: Soft
StackLeniency: 0.7
Mode: 0
LetterboxInBreaks: 0
WidescreenStoryboard: 0

[Editor]
DistanceSpacing: 2.3
BeatDivisor: 4
GridSize: 4
TimelineZoom: 1

[Metadata]
Title:One In A Billion
TitleUnicode:One In A Billion
Artist:Wake Up, May'n!
ArtistUnicode:Wake Up, May'n!
Creator:Meg
Version:Extra
Source:異世界食堂
Tags:Isekai Shokudou Restaurant to Another World Wake Up, Girls! opening tv size iMage-- zeluaR Momochikun Mei
BeatmapID:1353243
BeatmapSetID:637877

[Difficulty]
HPDrainRate:6
CircleSize:4
OverallDifficulty:8
ApproachRate:9.2
SliderMultiplier:1.7
SliderTickRate:1

[Events]
//Background and Video events
0,0,"isekaishokudou.jpg",0,0
Video,0,"video.avi"
//Break Periods
//Storyboard Layer 0 (Background)
//Storyboard Layer 1 (Fail)
//Storyboard Layer 2 (Pass)
//Storyboard Layer 3 (Foreground)
//Storyboard Sound Samples

[TimingPoints]
111,394.736842105263,4,2,1,60,1,0
111,-133.333333333333,4,2,1,60,0,0
23795,307.692307692308,4,2,1,60,1,0
23795,-133.333333333333,4,2,1,60,0,0
24102,-111.111111111111,4,2,1,60,0,0
24410,-95.2380952380952,4,2,1,60,0,0
24718,338.983050847458,4,2,1,60,1,0
24718,-83.3333333333333,4,2,1,60,0,0
25056,326.086956521739,4,2,1,60,1,0
26360,322.58064516129,4,2,1,60,1,0
27650,319.148936170213,4,2,1,60,1,0
30043,346.820809248555,4,2,1,60,1,0
30215,320.855614973262,4,2,1,60,1,0
32781,319.148936170213,4,2,1,60,1,0
34057,-133.333333333333,4,2,1,60,0,0
35334,320.855614973262,4,2,1,60,1,0
45280,-133.333333333333,4,2,1,60,0,0
50735,-100,4,2,1,60,0,0
53622,-76.9230769230769,4,2,1,60,0,0
53943,-100,4,2,1,60,0,0
54264,-76.9230769230769,4,2,1,60,0,0
55868,-83.3333333333333,4,2,1,80,0,1
76403,-133.333333333333,4,2,1,80,0,0
78970,-83.3333333333333,4,2,1,80,0,1
85227,-100,4,2,1,80,0,1
85868,-133.333333333333,4,2,1,80,0,1
86510,-200,4,2,1,80,0,1
86670,-100,4,2,0,60,0,0
87954,-100,4,2,1,5,0,0

[Colours]
Combo1 : 81,199,255
Combo2 : 255,255,0
Combo3 : 209,163,163
Combo4 : 179,255,179

[HitObjects]
170,276,111,6,0,P|171:322|208:349,1,95.6250036478044,6|0,0:0|0:0,0:0:0:0:
226,372,505,2,0,L|277:334,1,63.7500024318696
376,360,900,2,0,L|385:296,1,63.7500024318696,2|0,0:0|0:0,0:0:0:0:
474,246,1295,2,0,L|436:194,1,63.7500024318696
462,96,1689,6,0,L|398:86,1,63.7500024318696,2|2,0:0|0:0,0:0:0:0:
235,191,2084,1,0,0:0:0:0:
301,137,2282,2,0,P|316:164|319:195,2,63.7500024318696,0|2|0,0:0|0:0|0:0,0:0:0:0:
262,37,2874,1,0,0:0:0:0:
154,57,3071,1,0,0:0:0:0:
46,77,3268,5,2,0:0:0:0:
313,273,3663,2,0,P|372:254|397:198,2,127.500004863739,0|2|0,0:0|0:0|0:0,0:0:0:0:
91,315,4847,6,0,P|68:263|20:292,1,127.500004863739,2|0,0:0|0:0,0:0:0:0:
95,344,5439,2,0,L|230:327,1,127.500004863739
236,226,6032,2,0,P|266:235|293:252,1,63.7500024318696
130,240,6426,6,0,P|111:196|119:150,1,95.6250036478044,2|0,0:0|0:0,0:0:0:0:
145,165,6821,2,0,P|113:170|82:165,1,63.7500024318696
217,89,7216,2,0,P|237:113|248:143,1,63.7500024318696,2|0,0:0|0:0,0:0:0:0:
116,65,7610,2,0,P|127:35|146:10,1,63.7500024318696
145,165,8005,5,2,0:0:0:0:
248,143,8203,1,2,0:0:0:0:
336,200,8400,1,0,0:0:0:0:
357,301,8597,2,0,P|358:333|356:365,1,63.7500024318696,0|2,0:0|0:0,0:0:0:0:
242,247,8992,1,2,0:0:0:0:
336,200,9189,1,0,0:0:0:0:
436,234,9387,1,0,0:0:0:0:
483,328,9584,6,0,P|467:266|467:202,1,127.500004863739,2|0,0:0|0:0,0:0:0:0:
344,52,10176,1,0,0:0:0:0:
428,74,10374,2,0,P|390:125|329:137,1,127.500004863739,2|0,0:0|0:0,0:0:0:0:
256,251,10966,6,0,P|233:228|206:211,1,63.7500024318696,0|2,0:0|0:0,0:0:0:0:
338,352,11360,1,2,0:0:0:0:
384,230,11558,2,0,P|384:197|376:166,1,63.7500024318696,0|2,0:0|0:0,0:0:0:0:
338,352,11953,1,2,0:0:0:0:
256,251,12150,1,2,0:0:0:0:
127,272,12347,1,0,0:0:0:0:
127,272,12742,5,2,0:0:0:0:
295,245,12939,1,0,0:0:0:0:
157,192,13137,1,0,0:0:0:0:
264,324,13334,1,0,0:0:0:0:
241,179,13532,2,0,P|257:151|273:124,2,63.7500024318696,2|0|0,0:0|0:0|0:0,0:0:0:0:
180,337,14124,1,0,0:0:0:0:
73,207,14321,5,2,0:0:0:0:
210,257,14518,1,2,0:0:0:0:
104,129,14716,1,0,0:0:0:0:
241,179,14913,1,0,0:0:0:0:
41,285,15110,2,0,P|99:257|162:252,1,127.500004863739,2|0,0:0|0:0,0:0:0:0:
291,227,15703,1,0,0:0:0:0:
272,101,15900,6,0,L|291:226,1,127.500004863739,2|0,0:0|0:0,0:0:0:0:
376,194,16492,1,0,0:0:0:0:
244,281,16689,2,0,P|217:225|246:170,1,127.500004863739,2|0,0:0|0:0,0:0:0:0:
384,43,17282,1,0,0:0:0:0:
376,194,17479,6,0,P|360:166|350:135,1,63.7500024318696,2|2,0:0|0:0,0:0:0:0:
477,47,17874,2,0,P|467:77|451:105,2,63.7500024318696,2|0|2,0:0|0:0|0:0,0:0:0:0:
287,59,18466,1,0,0:0:0:0:
490,214,18663,1,0,0:0:0:0:
490,213,19058,6,0,P|470:257|462:304,1,95.6250036478044,2|0,0:0|0:0,0:0:0:0:
473,332,19453,2,0,L|410:321,1,63.7500024318696
270,273,19847,2,0,L|395:245,1,127.500004863739,2|0,0:0|0:0,0:0:0:0:
199,348,20439,1,0,0:0:0:0:
199,348,20637,5,2,0:0:0:0:
66,252,20834,1,2,0:0:0:0:
8,332,21032,2,0,P|37:346|69:350,1,63.7500024318696,2|0,0:0|0:0,0:0:0:0:
98,128,21426,1,2,0:0:0:0:
66,252,21624,1,2,0:0:0:0:
184,222,21821,2,0,P|181:190|169:161,1,63.7500024318696
25,66,22216,6,0,P|84:90|144:73,1,127.500004863739,2|0,0:0|0:0,0:0:0:0:
268,206,23005,2,0,P|209:182|149:199,1,127.500004863739,2|0,0:0|0:0,0:0:0:0:
100,278,23597,1,0,0:0:0:0:
100,278,23795,6,0,L|106:341,1,63.7500024318696,2|0,3:0|3:0,0:0:0:0:
268,206,24102,6,0,L|276:129,1,76.4999976654053,2|0,3:0|3:0,0:0:0:0:
91,189,24410,6,0,L|100:278,1,89.2499972763062,2|0,3:0|3:0,0:0:0:0:
257,307,24718,6,0,L|268:205,1,101.999996887207,6|0,3:0|3:0,0:0:0:0:
428,56,25056,6,0,P|470:119|439:229,1,170,6|8,0:0|0:0,0:0:0:0:
482,344,25545,2,0,P|455:311|419:289,1,85,2|0,0:0|0:0,0:0:0:0:
256,307,25871,1,2,0:0:0:0:
391,356,26034,2,0,L|382:228,1,127.5,8|0,0:0|0:0,0:0:0:0:
405,194,26360,6,0,P|364:207|325:222,1,85,2|2,0:0|0:0,0:0:0:0:
175,277,26682,2,0,P|215:290|255:306,1,85,8|0,0:0|0:0,0:0:0:0:
443,304,27005,1,0,3:0:0:0:
324,222,27166,1,2,0:0:0:0:
414,65,27327,2,0,P|456:67|491:89,1,85,8|0,0:0|0:0,0:0:0:0:
443,304,27650,6,0,B|439:255|439:255|422:223|422:223|435:190|435:190|431:140,1,170,6|8,0:0|0:0,0:0:0:0:
336,37,28128,2,0,P|318:76|289:107,1,85,2|0,0:0|0:0,0:0:0:0:
224,17,28447,1,2,0:0:0:0:
243,199,28607,2,0,P|284:209|326:205,1,85,8|2,0:0|0:0,0:0:0:0:
174,276,28926,5,0,0:0:0:0:
117,137,29086,1,2,0:0:0:0:
34,262,29245,1,8,0:0:0:0:
119,110,29405,1,0,0:0:0:0:
171,303,29564,2,0,P|213:294|255:289,1,85,0|2,0:0|0:0,0:0:0:0:
401,339,29884,1,8,0:0:0:0:
336,143,30043,1,8,0:0:0:0:
512,214,30216,6,0,P|433:247|349:252,2,170,6|8|0,0:0|0:0|0:0,0:0:0:0:
429,50,31017,1,2,0:0:0:0:
308,170,31177,1,8,0:0:0:0:
470,132,31337,1,2,0:0:0:0:
349,252,31498,6,0,P|298:214|236:199,1,127.5
144,195,31819,2,0,P|186:195|225:181,1,85,8|0,0:0|0:0,0:0:0:0:
24,178,32140,2,0,L|39:261,1,85,0|2,0:0|0:0,0:0:0:0:
177,103,32460,2,0,L|161:19,1,85,8|0,0:0|0:0,0:0:0:0:
311,113,32781,5,6,0:0:0:0:
144,195,32940,1,0,0:0:0:0:
299,299,33100,1,8,0:0:0:0:
203,105,33259,5,6,0:0:0:0:
358,209,33419,1,0,0:0:0:0:
370,23,33578,1,0,0:0:0:0:
252,203,33738,2,0,P|242:161|236:119,1,85,14|0,0:0|0:0,0:0:0:0:
439,239,34057,6,0,P|421:265|397:286,1,63.7500024318696,6|0,0:0|0:0,0:0:0:0:
249,333,34376,2,0,L|310:353,1,63.7500024318696,0|2,0:0|0:0,0:0:0:0:
132,188,34695,1,8,0:0:0:0:
313,237,34855,1,2,0:0:0:0:
138,302,35015,1,2,0:0:0:0:
240,146,35174,1,8,0:0:0:0:
249,333,35334,6,0,P|331:357|415:349,1,170,6|8,0:0|0:0,0:0:0:0:
480,182,35815,1,0,0:0:0:0:
342,156,35975,2,0,P|326:196|312:236,1,85,0|2,3:0|0:0,0:0:0:0:
499,104,36296,2,0,P|485:63|469:24,1,85,8|0,0:0|0:0,0:0:0:0:
248,87,36617,6,0,P|331:100|415:115,1,170,2|8,0:0|0:0,0:0:0:0:
101,156,37098,2,0,B|186:143|186:143|215:173|261:171,1,170,0|2,0:0|0:0,0:0:0:0:
43,23,37579,2,0,L|127:37,1,85,8|0,0:0|0:0,0:0:0:0:
108,240,37900,6,0,L|101:156,1,85,2|0,0:0|0:0,0:0:0:0:
262,171,38221,1,8,0:0:0:0:
168,318,38382,2,0,P|129:334|86:334,1,85,0|0,0:0|3:0,0:0:0:0:
265,330,38702,1,2,0:0:0:0:
108,240,38863,1,8,0:0:0:0:
359,183,39023,1,2,0:0:0:0:
475,297,39184,6,0,P|475:339|464:380,1,85,2|0,0:0|0:0,0:0:0:0:
348,266,39505,2,0,P|347:223|358:182,1,85,8|0,0:0|0:0,0:0:0:0:
496,285,39825,2,0,P|496:327|485:368,1,85,0|2,3:0|0:0,0:0:0:0:
327,278,40146,2,0,P|326:235|337:194,1,85,8|0,0:0|0:0,0:0:0:0:
487,120,40467,6,0,L|361:98,1,127.5,2|0,0:0|0:0,0:0:0:0:
319,90,40788,1,8,0:0:0:0:
253,183,40948,1,0,0:0:0:0:
186,275,41109,2,0,L|102:260,1,85,0|2,3:0|0:0,0:0:0:0:
319,90,41430,2,0,L|402:104,1,85,8|0,0:0|0:0,0:0:0:0:
127,161,41751,5,2,0:0:0:0:
223,35,41911,1,2,0:0:0:0:
223,35,42071,2,0,P|232:76|232:118,1,85,8|0,0:0|0:0,0:0:0:0:
66,227,42392,2,0,P|34:151|79:82,1,170,0|8,3:0|0:0,0:0:0:0:
302,214,42874,1,0,0:0:0:0:
302,214,42954,1,0,0:0:0:0:
302,214,43034,6,0,L|217:206,1,85,2|0,0:0|0:0,0:0:0:0:
56,344,43355,2,0,P|95:327|126:298,1,85,8|0,0:0|0:0,0:0:0:0:
134,266,43596,1,0,0:0:0:0:
134,266,43676,2,0,L|125:181,1,85,0|2,3:0|0:0,0:0:0:0:
299,32,43997,2,0,L|290:116,1,85,8|0,0:0|0:0,0:0:0:0:
409,327,44317,5,8,0:0:0:0:
224,252,44478,1,0,0:0:0:0:
426,242,44638,5,8,0:0:0:0:
206,336,44799,1,0,0:0:0:0:
446,342,44959,5,8,0:0:0:0:
187,237,45120,1,0,0:0:0:0:
317,290,45280,6,0,L|321:353,1,63.7500024318696,4|4,0:3|0:3,0:0:0:0:
488,171,45601,6,0,P|428:150|368:167,1,127.500004863739,6|0,0:0|0:0,0:0:0:0:
224,252,46082,1,2,0:0:0:0:
224,253,46243,2,0,P|240:225|254:197,1,63.7500024318696,8|2,0:0|0:0,0:0:0:0:
183,108,46563,2,0,P|166:135|152:163,1,63.7500024318696
114,333,46884,5,2,0:0:0:0:
66,256,47045,1,2,0:0:0:0:
125,186,47205,1,0,0:0:0:0:
77,109,47366,1,2,0:0:0:0:
212,220,47526,5,8,0:0:0:0:
212,220,47686,2,0,P|274:208|336:191,1,127.500004863739,2|0,0:0|0:0,0:0:0:0:
486,89,48168,6,0,P|450:38|388:35,1,127.500004863739,2|0,0:0|0:0,0:0:0:0:
336,191,48649,1,2,0:0:0:0:
231,131,48809,1,8,0:0:0:0:
350,273,48970,2,0,P|380:264|407:247,2,63.7500024318696,2|0|0,0:0|0:0|0:0,0:0:0:0:
206,336,49451,5,2,0:0:0:0:
174,209,49612,1,2,0:0:0:0:
79,368,49772,1,0,0:0:0:0:
47,241,49932,1,2,0:0:0:0:
206,336,50093,1,8,0:0:0:0:
301,177,50253,5,2,0:0:0:0:
126,288,50414,1,2,0:0:0:0:
117,80,50574,1,0,0:0:0:0:
343,245,50735,6,0,P|381:173|336:105,1,170,6|8,0:0|0:0,0:0:0:0:
174,209,51216,1,0,0:0:0:0:
300,177,51376,2,0,P|343:172|385:169,1,85,0|2,3:0|0:0,0:0:0:0:
201,87,51697,2,0,P|158:82|116:79,1,85,8|0,0:0|0:0,0:0:0:0:
166,288,52018,6,0,B|184:251|184:251|173:208,1,85,2|2,0:0|0:0,0:0:0:0:
55,34,52339,2,0,B|37:71|37:71|47:113,1,85,8|0,0:0|0:0,0:0:0:0:
173,208,52660,1,0,3:0:0:0:
52,313,52820,1,2,0:0:0:0:
234,351,52981,2,0,P|271:331|312:321,1,85,8|0,0:0|0:0,0:0:0:0:
403,240,53301,6,0,P|379:181|376:117,1,127.5,6|0,0:0|0:0,0:0:0:0:
448,69,53622,6,0,P|430:90|410:109,1,55.2499974708558,8|0,0:0|0:0,0:0:0:0:
299,185,53783,2,0,P|279:166|256:152,1,55.2499974708558
109,240,53943,6,0,P|132:181|135:117,1,127.5,6|0,0:0|0:0,0:0:0:0:
64,69,54264,6,0,P|81:90|101:109,1,55.2499974708558,8|0,0:0|0:0,0:0:0:0:
195,237,54424,2,0,P|213:186|256:151,1,110.499994941712,4|0,0:0|0:0,0:0:0:0:
459,240,54745,5,12,0:0:0:0:
308,35,54906,1,0,0:0:0:0:
332,254,55066,1,12,0:0:0:0:
434,20,55227,1,0,0:0:0:0:
256,151,55387,5,0,1:0:0:0:
256,151,55467,1,0,1:0:0:0:
256,151,55547,2,0,L|248:205,1,55.2499974708558,0|0,1:0|1:0,0:0:0:0:
398,92,55708,2,0,L|405:146,1,55.2499974708558,0|0,1:0|1:0,0:0:0:0:
195,44,55868,6,0,L|181:145,1,101.999996887207,6|0,0:0|0:0,0:0:0:0:
196,329,56189,2,0,P|169:260|100:231,1,152.999995330811,12|0,0:0|0:0,0:0:0:0:
68,236,56510,1,0,3:0:0:0:
247,205,56670,1,2,0:0:0:0:
99,330,56831,2,0,P|50:313|1:302,1,101.999996887207,8|0,0:0|0:0,0:0:0:0:
277,122,57152,6,0,P|334:199|287:283,1,203.999993774414,2|8,0:0|0:0,0:0:0:0:
68,236,57633,2,0,P|117:224|165:208,1,101.999996887207,2|0,0:0|3:0,0:0:0:0:
110,28,57954,5,2,0:0:0:0:
277,123,58114,1,8,0:0:0:0:
110,28,58275,1,0,0:0:0:0:
277,123,58435,1,6,0:0:0:0:
277,123,58756,6,0,P|254:194|278:266,1,152.999995330811,12|0,0:0|0:0,0:0:0:0:
265,342,59077,2,0,P|298:304|346:289,1,101.999996887207,0|2,3:0|0:0,0:0:0:0:
505,160,59398,2,0,L|404:145,1,101.999996887207,8|0,0:0|0:0,0:0:0:0:
168,266,59719,5,2,0:0:0:0:
346,289,59879,1,2,0:0:0:0:
277,123,60039,1,8,0:0:0:0:
216,324,60200,2,0,P|211:273|229:225,1,101.999996887207,0|0,0:0|3:0,0:0:0:0:
505,160,60521,5,2,0:0:0:0:
345,289,60681,1,8,0:0:0:0:
505,160,60842,1,0,0:0:0:0:
345,289,61002,1,6,0:0:0:0:
345,289,61323,6,0,P|279:257|210:284,1,152.999995330811,12|0,0:0|0:0,0:0:0:0:
198,312,61644,1,0,3:0:0:0:
146,199,61804,1,2,0:0:0:0:
187,341,61965,1,8,0:0:0:0:
285,154,62125,1,0,0:0:0:0:
101,285,62285,6,0,P|50:276|0:273,1,101.999996887207,2|2,0:0|0:0,0:0:0:0:
344,288,62606,1,8,0:0:0:0:
165,98,62767,2,0,L|145:198,1,101.999996887207,0|0,0:0|3:0,0:0:0:0:
285,154,63088,1,2,0:0:0:0:
75,36,63248,2,0,L|55:136,1,101.999996887207,8|0,0:0|0:0,0:0:0:0:
187,341,63569,6,0,B|240:308|240:308|380:327,2,203.999993774414,6|8|0,0:0|0:0|3:0,0:0:0:0:
9,212,64371,1,2,0:0:0:0:
165,98,64531,1,8,0:0:0:0:
146,224,64692,1,2,0:0:0:0:
142,249,64772,1,2,0:0:0:0:
139,274,64852,5,8,0:0:0:0:
262,72,65013,1,2,0:0:0:0:
9,212,65173,1,2,0:0:0:0:
257,362,65334,1,12,0:0:0:0:
257,362,65654,6,0,P|259:337|255:311,1,50.9999984436036,12|8,0:0|0:0,0:0:0:0:
274,215,65815,2,0,P|251:225|231:241,1,50.9999984436036,8|8,0:0|0:0,0:0:0:0:
139,274,65975,2,0,P|159:288|183:298,1,50.9999984436036,8|8,0:0|0:0,0:0:0:0:
393,304,66136,6,0,L|494:293,1,101.999996887207,6|0,0:0|0:0,0:0:0:0:
331,152,66456,2,0,P|285:130|235:138,1,101.999996887207,12|0,0:0|0:0,0:0:0:0:
139,274,66777,1,0,3:0:0:0:
61,94,66938,1,2,0:0:0:0:
276,208,67098,2,0,B|290:257|290:257|273:305,1,101.999996887207,8|0,0:0|0:0,0:0:0:0:
1,197,67419,6,0,L|153:179,1,152.999995330811,2|0,0:0|0:0,0:0:0:0:
184,176,67740,1,8,0:0:0:0:
136,371,67900,2,0,B|122:322|122:322|138:273,1,101.999996887207,0|0,0:0|3:0,0:0:0:0:
233,103,68221,5,2,0:0:0:0:
273,305,68382,1,8,0:0:0:0:
233,103,68542,1,0,0:0:0:0:
273,305,68702,1,6,0:0:0:0:
273,305,69023,6,0,P|277:254|291:205,1,101.999996887207,12|2,0:0|0:0,0:0:0:0:
436,99,69344,2,0,P|449:148|454:198,1,101.999996887207,0|2,3:0|0:0,0:0:0:0:
170,338,69665,2,0,P|174:287|188:238,1,101.999996887207,8|0,0:0|0:0,0:0:0:0:
456,326,69986,6,0,L|303:308,1,152.999995330811,2|0,0:0|0:0,0:0:0:0:
273,305,70307,1,8,0:0:0:0:
311,131,70467,1,0,0:0:0:0:
454,198,70628,1,0,3:0:0:0:
188,238,70788,5,2,0:0:0:0:
232,21,70948,1,8,0:0:0:0:
188,238,71109,1,0,0:0:0:0:
232,21,71269,1,6,0:0:0:0:
232,21,71590,6,0,P|242:71|236:122,1,101.999996887207,12|0,0:0|0:0,0:0:0:0:
53,177,71911,1,0,3:0:0:0:
188,238,72071,1,2,0:0:0:0:
39,288,72232,1,8,0:0:0:0:
205,225,72392,1,0,0:0:0:0:
108,375,72553,6,0,P|110:325|112:274,1,101.999996887207,2|2,0:0|0:0,0:0:0:0:
68,154,72874,1,8,0:0:0:0:
226,319,73034,2,0,P|270:294|318:276,1,101.999996887207,0|0,0:0|3:0,0:0:0:0:
470,343,73355,1,2,0:0:0:0:
403,160,73515,2,0,L|424:60,1,101.999996887207,8|0,0:0|0:0,0:0:0:0:
318,276,73836,6,0,P|273:251|225:233,1,101.999996887207,6|0,0:0|0:0,0:0:0:0:
12,270,74157,2,0,P|56:294|104:312,1,101.999996887207,8|0,0:0|0:0,0:0:0:0:
317,167,74478,1,0,3:0:0:0:
203,325,74638,1,2,0:0:0:0:
138,81,74799,1,8,0:0:0:0:
318,276,74959,6,0,L|418:258,1,101.999996887207,6|0,0:0|0:0,0:0:0:0:
433,95,75280,1,2,0:0:0:0:
186,197,75440,1,8,0:0:0:0:
306,46,75601,2,0,B|289:114|289:114|318:171|318:171|302:239,1,203.999993774414,4|2,0:0|0:0,0:0:0:0:
360,366,76082,5,0,1:0:0:0:
397,360,76162,1,0,1:0:0:0:
435,355,76243,1,0,1:0:0:0:
473,349,76323,1,0,1:0:0:0:
511,344,76403,5,4,0:0:0:0:
255,257,76724,1,2,0:0:0:0:
255,257,77045,1,2,0:0:0:0:
338,204,77205,2,0,P|348:234|350:265,1,63.7500024318696,0|2,0:0|0:0,0:0:0:0:
215,359,77526,6,0,P|158:329|96:316,1,127.500004863739,2|0,0:0|0:0,0:0:0:0:
62,331,77927,1,0,0:0:0:0:
62,331,78007,2,0,L|76:268,2,63.7500024318696,2|0|0,0:0|0:0|0:0,0:0:0:0:
44,118,78489,5,8,0:0:0:0:
255,257,78649,1,8,0:0:0:0:
206,68,78809,1,0,1:0:0:0:
206,68,78890,1,0,1:0:0:0:
206,68,78970,6,0,P|182:134|240:174,1,152.999995330811,6|0,0:0|0:0,0:0:0:0:
276,170,79291,2,0,L|375:149,1,101.999996887207,8|0,0:0|0:0,0:0:0:0:
166,249,79612,1,2,0:0:0:0:
279,66,79772,1,2,0:0:0:0:
420,227,79932,1,8,0:0:0:0:
166,249,80093,6,0,B|149:201|149:201|160:151,1,101.999996887207,6|0,0:0|0:0,0:0:0:0:
279,66,80414,1,8,0:0:0:0:
351,300,80574,1,8,0:0:0:0:
94,277,80735,6,0,B|68:204|68:204|85:130,1,152.999995330811,12|0,0:0|0:0,0:0:0:0:
95,97,81055,1,8,0:0:0:0:
375,149,81216,2,0,L|324:155,1,50.9999984436036,12|0,0:0|0:0,0:0:0:0:
166,249,81376,2,0,L|216:255,1,50.9999984436036,8|0,0:0|0:0,0:0:0:0:
387,360,81537,6,0,P|322:324|253:352,1,152.999995330811,6|0,0:0|0:0,0:0:0:0:
231,366,81858,2,0,L|129:352,1,101.999996887207,8|0,0:0|0:0,0:0:0:0:
324,155,82178,2,0,L|425:141,1,101.999996887207,10|2,0:0|0:0,0:0:0:0:
166,249,82499,2,0,P|158:198|157:147,1,101.999996887207,8|0,0:0|0:0,0:0:0:0:
226,6,82820,5,12,0:0:0:0:
68,100,82981,1,0,0:0:0:0:
324,155,83141,1,8,0:0:0:0:
166,249,83301,1,2,0:0:0:0:
166,249,83382,1,2,0:0:0:0:
166,249,83462,5,12,0:0:0:0:
270,77,83622,1,2,0:0:0:0:
261,319,83783,1,8,0:0:0:0:
55,190,83943,1,0,0:0:0:0:
55,190,84023,1,0,0:0:0:0:
55,190,84104,5,12,0:0:0:0:
324,155,84264,1,0,0:0:0:0:
137,297,84424,1,8,0:0:0:0:
241,47,84585,1,0,0:0:0:0:
271,280,84745,5,14,0:0:0:0:
107,64,84906,1,0,0:0:0:0:
376,29,85066,1,8,0:0:0:0:
316,348,85227,6,0,P|235:353|191:286,1,170,6|2,0:0|0:0,0:0:0:0:
279,152,85708,1,0,0:0:0:0:
279,152,85868,6,0,L|271:279,1,127.500004863739,6|0,0:0|0:0,0:0:0:0:
101,297,86350,1,0,0:0:0:0:
101,297,86510,6,0,L|98:254,1,42.5,0|2,0:0|0:0,0:0:0:0:
256,192,86751,12,0,87954,0:0:0:0:
