osu file format v14

[General]
AudioFilename: audio.mp3
AudioLeadIn: 0
PreviewTime: 55868
Countdown: 0
SampleSet: Soft
StackLeniency: 0.7
Mode: 0
LetterboxInBreaks: 0
WidescreenStoryboard: 0

[Editor]
DistanceSpacing: 1
BeatDivisor: 2
GridSize: 4
TimelineZoom: 1

[Metadata]
Title:One In A Billion
TitleUnicode:One In A Billion
Artist:Wake Up, May'n!
ArtistUnicode:Wake Up, May'n!
Creator:Meg
Version:Easy
Source:異世界食堂
Tags:Isekai Shokudou Restaurant to Another World Wake Up, Girls! opening tv size iMage-- zeluaR Momochikun Mei
BeatmapID:1354113
BeatmapSetID:637877

[Difficulty]
HPDrainRate:2
CircleSize:3
OverallDifficulty:2
ApproachRate:3
SliderMultiplier:0.799999999999999
SliderTickRate:1

[Events]
//Background and Video events
0,0,"isekaishokudou.jpg",0,0
Video,0,"video.avi"
//Break Periods
//Storyboard Layer 0 (Background)
//Storyboard Layer 1 (Fail)
//Storyboard Layer 2 (Pass)
//Storyboard Layer 3 (Foreground)
//Storyboard Sound Samples

[TimingPoints]
111,394.736842105263,4,2,1,60,1,0
23795,307.692307692308,4,2,1,60,1,0
24718,338.983050847458,4,2,1,60,1,0
25056,326.086956521739,4,2,1,60,1,0
26360,322.58064516129,4,2,1,60,1,0
27650,319.148936170213,4,2,1,60,1,0
30043,346.820809248555,4,2,1,60,1,0
30215,320.855614973262,4,2,1,60,1,0
32781,319.148936170213,4,2,1,60,1,0
35334,320.855614973262,4,2,1,60,1,0
55868,-100,4,2,1,80,0,1
76403,-100,4,2,1,80,0,0
78970,-100,4,2,1,80,0,1
86670,-100,4,2,0,60,0,0
87954,-100,4,2,1,5,0,0

[Colours]
Combo1 : 81,199,255
Combo2 : 255,255,0
Combo3 : 209,163,163
Combo4 : 179,255,179

[HitObjects]
364,74,111,6,0,P|430:34|504:59,2,160,6|2|2,0:0|0:0|0:0,0:0:0:0:
244,180,2479,2,0,P|208:161|169:156,1,79.9999999999999,2|0,0:0|0:0,0:0:0:0:
101,199,3268,6,0,L|121:40,2,160,2|2|2,0:0|0:0|0:0,0:0:0:0:
144,353,5637,2,0,L|222:337,1,79.9999999999999,0|0,0:0|0:0,0:0:0:0:
298,362,6426,6,0,P|284:287|212:258,2,160,2|2|2,0:0|0:0|0:0,0:0:0:0:
452,319,8795,2,0,L|476:242,1,79.9999999999999,2|0,0:0|0:0,0:0:0:0:
480,162,9584,6,0,P|427:104|349:93,1,160,2|2,0:0|0:0,0:0:0:0:
274,121,10768,1,0,0:0:0:0:
225,184,11163,2,0,L|217:269,2,79.9999999999999,2|0|2,0:0|0:0|0:0,0:0:0:0:
192,110,12347,1,0,0:0:0:0:
130,58,12742,6,0,P|56:64|42:137,1,160,2|2,0:0|0:0,0:0:0:0:
99,285,14321,2,0,P|168:248|247:251,1,160,2|2,0:0|0:0,0:0:0:0:
378,343,15900,6,0,B|388:292|388:292|359:246|359:246|368:193,2,160,2|2|2,0:0|0:0|0:0,0:0:0:0:
216,339,18268,2,0,P|178:330|138:328,1,79.9999999999999,2|0,0:0|0:0,0:0:0:0:
59,343,19058,6,0,L|48:183,1,160,2|2,0:0|0:0,0:0:0:0:
97,119,20242,1,0,0:0:0:0:
64,44,20637,2,0,P|140:50|179:117,1,160,2|2,0:0|0:0,0:0:0:0:
167,196,21821,1,0,0:0:0:0:
224,251,22216,6,0,L|382:225,2,160,2|2|2,0:0|0:0|3:0,0:0:0:0:
485,99,25056,6,0,P|497:177|486:256,1,160,6|0,0:0|0:0,0:0:0:0:
435,318,26034,1,8,0:0:0:0:
372,367,26360,2,0,L|212:349,1,160,2|0,0:0|3:0,0:0:0:0:
132,341,27327,1,8,0:0:0:0:
108,262,27650,6,0,P|61:296|49:354,2,120,6|2|8,0:0|0:0|0:0,0:0:0:0:
185,241,28926,2,0,L|168:81,1,160,0|0,0:0|0:0,0:0:0:0:
228,28,29884,1,8,0:0:0:0:
309,22,30215,6,0,P|386:34|438:93,1,160,6|0,0:0|0:0,0:0:0:0:
430,172,31177,1,8,0:0:0:0:
381,235,31498,2,0,P|387:274|387:314,2,79.9999999999999,0|8|0,0:0|0:0|0:0,0:0:0:0:
317,186,32460,1,8,0:0:0:0:
265,124,32781,6,0,P|242:69|255:11,2,120,6|6|14,0:0|0:0|0:0,0:0:0:0:
236,198,34057,2,0,L|76:183,1,160,6|8,0:0|0:0,0:0:0:0:
49,339,35334,6,0,P|120:304|200:302,1,160,6|0,0:0|3:0,0:0:0:0:
276,278,36296,1,8,0:0:0:0:
336,225,36617,2,0,P|355:280|334:335,2,120,2|0|8,0:0|0:0|0:0,0:0:0:0:
266,185,37900,6,0,L|279:65,2,120,2|0|8,0:0|0:0|0:0,0:0:0:0:
188,210,39184,2,0,P|150:219|112:209,1,79.9999999999999,2|8,0:0|0:0,0:0:0:0:
73,137,39825,2,0,P|111:127|149:137,1,79.9999999999999,0|8,3:0|0:0,0:0:0:0:
229,139,40467,5,2,0:0:0:0:
287,193,40788,2,0,L|446:176,1,160,8|8,0:0|0:0,0:0:0:0:
430,97,41751,2,0,L|350:105,1,79.9999999999999,2|8,0:0|0:0,0:0:0:0:
288,54,42392,2,0,L|208:62,1,79.9999999999999,0|8,3:0|0:0,0:0:0:0:
182,138,43034,6,0,P|141:71|65:62,2,160,2|0|8,0:0|3:0|0:0,0:0:0:0:
196,216,44638,1,8,0:0:0:0:
265,255,44959,2,0,L|344:244,1,79.9999999999999,8|4,0:0|0:3,0:0:0:0:
380,172,45601,6,0,P|425:233|397:304,1,160,6|8,0:0|0:0,0:0:0:0:
245,354,46884,2,0,B|183:340|183:340|151:352|151:352|89:342,1,160,2|8,0:0|0:0,0:0:0:0:
27,194,48168,6,0,B|19:152|28:115|28:115|58:85|99:82,1,160,2|8,0:0|0:0,0:0:0:0:
226,179,49451,2,0,P|299:158|382:145,1,160,2|8,0:0|0:0,0:0:0:0:
451,186,50414,1,2,0:0:0:0:
481,259,50735,6,0,L|473:338,1,79.9999999999999,6|8,0:0|0:0,0:0:0:0:
397,367,51376,2,0,P|358:360|320:349,1,79.9999999999999,0|8,3:0|0:0,0:0:0:0:
272,284,52018,2,0,L|115:317,1,160,2|0,0:0|3:0,0:0:0:0:
47,275,52981,1,8,0:0:0:0:
5,205,53301,6,0,P|43:195|82:202,1,79.9999999999999,6|8,0:0|0:0,0:0:0:0:
159,225,53943,1,6,0:0:0:0:
263,166,54424,2,0,L|247:87,2,79.9999999999999,4|12|12,0:0|0:0|0:0,0:0:0:0:
278,244,55387,1,4,0:0:0:0:
354,336,55868,6,0,P|430:319|473:254,1,160,6|0,0:0|3:0,0:0:0:0:
432,185,56831,1,8,0:0:0:0:
388,115,57152,2,0,P|394:56|423:4,2,120,2|2|8,0:0|0:0|0:0,0:0:0:0:
349,185,58435,6,0,P|270:172|190:169,1,160,6|0,0:0|3:0,0:0:0:0:
113,193,59398,1,8,0:0:0:0:
35,213,59719,2,0,P|68:261|125:271,2,120,2|0|8,0:0|0:0|0:0,0:0:0:0:
52,134,61002,6,0,P|89:66|165:48,1,160,6|0,0:0|3:0,0:0:0:0:
245,57,61965,1,8,0:0:0:0:
323,72,62285,2,0,L|441:87,2,120,2|0|8,0:0|0:0|0:0,0:0:0:0:
272,134,63569,6,0,B|239:221|300:198|264:288,2,160,6|0|8,0:0|3:0|0:0,0:0:0:0:
183,51,65334,2,0,P|144:56|110:77,1,79.9999999999999,12|12,0:0|0:0,0:0:0:0:
22,159,66136,6,0,P|14:238|27:317,1,160,6|0,0:0|3:0,0:0:0:0:
80,376,67098,1,8,0:0:0:0:
104,299,67419,2,0,P|94:241|98:181,2,120,2|0|8,0:0|0:0|0:0,0:0:0:0:
178,332,68702,6,0,B|237:318|237:318|334:338,1,160,6|0,0:0|3:0,0:0:0:0:
411,317,69665,1,8,0:0:0:0:
449,246,69986,2,0,P|487:290|486:349,2,120,2|0|8,0:0|0:0|0:0,0:0:0:0:
415,172,71269,6,0,P|341:199|262:191,1,160,6|0,0:0|3:0,0:0:0:0:
185,170,72232,1,8,0:0:0:0:
122,118,72553,2,0,P|63:118|3:128,2,120,2|0|8,0:0|0:0|0:0,0:0:0:0:
198,91,73836,6,0,L|189:11,2,79.9999999999999,6|8|0,0:0|0:0|3:0,0:0:0:0:
261,192,74959,2,0,P|284:160|316:137,1,79.9999999999999,6|0,0:0|3:0,0:0:0:0:
394,119,75601,2,0,L|418:236,1,120,6|0,0:0|1:0,0:0:0:0:
360,291,76403,6,0,P|432:315|493:268,2,160,4|2|0,0:0|0:0|0:0,0:0:0:0:
260,164,78328,2,0,P|265:125|276:86,1,79.9999999999999,0|8,0:0|0:0,0:0:0:0:
338,36,78970,6,0,L|497:52,1,160,6|2,0:0|0:0,0:0:0:0:
507,172,80093,2,0,L|347:155,1,160,6|12,0:0|0:0,0:0:0:0:
229,177,81216,1,12,0:0:0:0:
159,216,81537,6,0,P|147:253|154:292,1,79.9999999999999,6|8,0:0|0:0,0:0:0:0:
222,334,82178,2,0,P|233:296|226:257,1,79.9999999999999,2|8,0:0|0:0,0:0:0:0:
229,177,82820,2,0,L|388:159,1,160,12|12,0:0|0:0,0:0:0:0:
463,132,83783,1,8,0:0:0:0:
467,51,84104,6,0,P|431:35|392:29,1,79.9999999999999,12|8,0:0|0:0,0:0:0:0:
319,61,84745,2,0,P|262:80|204:70,1,120,14|6,0:0|0:0,0:0:0:0:
46,44,85868,2,0,B|32:80|32:80|47:120|47:120|35:156,1,120,6|0,0:0|0:0,0:0:0:0:
256,192,86510,12,0,87954,0:0:0:0:
