osu file format v14

[General]
AudioFilename: audio.mp3
AudioLeadIn: 0
PreviewTime: 56960
Countdown: 1
SampleSet: Soft
StackLeniency: 0.7
Mode: 0
LetterboxInBreaks: 0
WidescreenStoryboard: 0

[Editor]
Bookmarks: 12113
DistanceSpacing: 1
BeatDivisor: 4
GridSize: 4
TimelineZoom: 1.5

[Metadata]
Title:Koi? de Ai? de Boukun desu!
TitleUnicode:恋?で愛?で暴君です!
Artist:Wake Up, Girls!
ArtistUnicode:Wake Up, Girls!
Creator:Dr_Marc
Version:Insanely
Source:Renai Boukun 恋愛暴君
Tags:Renai Boukun,Koi? de Ai? de Boukun desu!,koi de ai de boukun desu,Wake Up Girls!,Wake Up Girls, OP, Kiss Note, Love, Anime, Opening, TV Size,
BeatmapID:1269964
BeatmapSetID:601117

[Difficulty]
HPDrainRate:6.5
CircleSize:4
OverallDifficulty:7
ApproachRate:9
SliderMultiplier:1.5
SliderTickRate:1

[Events]
//Background and Video events
0,0,"Beginnscreen.jpg",0,0
Video,0,"Koi de Ai de Boukun desu.avi"
//Break Periods
//Storyboard Layer 0 (Background)
//Storyboard Layer 1 (Fail)
//Storyboard Layer 2 (Pass)
//Storyboard Layer 3 (Foreground)
//Storyboard Sound Samples

[TimingPoints]
634,306.122448979592,4,2,0,80,1,0
7521,-117.647058823529,4,2,0,80,0,0
9205,-100,4,1,0,80,0,0
19613,-74.0740740740741,4,1,0,80,0,0
19919,-100,4,1,0,80,0,0
20225,-100,4,1,0,80,0,0
23287,-74.0740740740741,4,1,0,80,0,0
23746,-100,4,1,0,80,0,0
28185,-74.0740740740741,4,1,0,80,0,0
28491,-100,4,1,0,80,0,0
30021,-100,4,1,0,80,0,0
34613,-74.0740740740741,4,1,0,80,0,0
34919,-100,4,1,0,80,0,0
39205,-74.0740740740741,4,1,0,80,0,0
39817,-100,4,1,0,80,0,0
42878,-74.0740740740741,4,1,0,80,0,0
43338,-100,4,1,0,80,0,0
47776,-74.0740740740741,4,1,0,80,0,0
48082,-100,4,1,0,80,0,0
49613,-133.333333333333,4,2,0,80,0,0
53746,-100,4,2,0,80,0,0
54205,-133.333333333333,4,2,0,80,0,0
56501,-66.6666666666667,4,2,0,80,0,0
56960,-85.4700854700855,4,2,0,80,0,0
61858,-74.0740740740741,4,2,0,80,0,1
74715,-74.0740740740741,4,2,0,70,0,1
75021,-74.0740740740741,4,2,0,40,0,1
75327,-74.0740740740741,4,2,0,80,0,1
81450,-100,4,2,0,80,0,0
83899,-133.333333333333,4,2,0,65,0,0

[HitObjects]
280,296,634,6,0,P|216:272|192:256,1,75
120,152,940,1,0,0:0:0:0:
268,124,1093,5,0,0:0:0:0:
424,284,1399,1,0,0:0:0:0:
200,248,1705,1,0,0:0:0:0:
352,48,2011,6,0,P|400:68|404:108,1,75
332,212,2317,1,0,0:0:0:0:
112,192,2623,1,0,0:0:0:0:
152,104,2776,1,0,0:0:0:0:
232,156,2929,1,0,0:0:0:0:
180,328,3082,6,0,P|220:352|252:356,1,75,8|0,0:0|0:0,0:0:0:0:
348,268,3389,1,0,0:0:0:0:
328,136,3542,2,0,P|272:104|236:104,1,75,8|0,0:0|0:0,0:0:0:0:
144,168,3848,6,0,P|100:212|164:220,1,150
304,44,4460,1,0,0:0:0:0:
404,244,4766,1,0,0:0:0:0:
164,88,5072,6,2,L|152:48,2,37.5
236,176,5378,2,0,P|280:200|320:212,1,75
252,36,5838,1,0,0:0:0:0:
120,52,5991,2,0,P|144:108|172:136,1,75
256,300,6297,6,0,L|256:216,1,75
152,140,6603,2,0,L|112:108,1,37.5
32,300,6909,2,0,L|8:336,1,37.5
292,304,7215,2,0,L|332:312,1,37.5
392,84,7521,6,2,B|336:72|336:72|276:88|276:88|252:124,1,159.375003039837
232,164,7980,1,4,0:0:0:0:
256,192,8057,12,0,8899,0:0:0:0:
212,140,9205,5,4,0:0:0:0:
312,200,9511,1,4,0:0:0:0:
156,204,9817,2,0,L|116:196,2,37.5,4|0|0,0:0|0:0|0:0,0:0:0:0:
272,268,10123,2,0,P|320:280|368:260,1,75
264,48,10429,6,0,P|212:64|128:124,1,150,8|0,0:0|0:0,0:0:0:0:
208,272,10889,1,0,0:0:0:0:
208,272,11042,2,0,P|292:244|352:196,1,150,0|4,0:0|0:0,0:0:0:0:
264,52,11501,1,0,0:0:0:0:
264,52,11654,2,0,P|228:96|208:132,1,75,8|0,0:0|0:0,0:0:0:0:
84,132,11960,1,0,0:0:0:0:
188,272,12113,1,0,0:0:0:0:
312,152,12266,2,0,P|356:144|388:152,2,75,0|0|4,0:0|0:0|0:0,0:0:0:0:
232,84,12725,1,0,0:0:0:0:
144,232,12878,5,8,0:0:0:0:
392,272,13185,5,4,0:0:0:0:
100,96,13491,5,0,0:0:0:0:
352,220,13797,5,4,0:0:0:0:
256,128,13950,1,0,0:0:0:0:
216,256,14103,1,8,0:0:0:0:
400,320,14256,2,0,P|440:288|460:252,1,75,0|4,0:0|0:0,0:0:0:0:
320,104,14562,2,0,P|272:120|240:148,1,75
112,292,14868,2,0,P|76:308|20:308,2,75,0|4|0,0:0|0:0|0:0,0:0:0:0:
112,156,15327,6,0,B|140:96|140:96|224:104,1,150,8|0,0:0|0:0,0:0:0:0:
384,272,15787,1,0,0:0:0:0:
384,272,15940,2,0,B|304:324|304:324|260:272,1,150,8|0,0:0|0:0,0:0:0:0:
200,64,16399,1,0,0:0:0:0:
200,64,16552,2,0,B|152:72|152:72|152:104,1,75,4|0,0:0|0:0,0:0:0:0:
188,228,16858,1,0,0:0:0:0:
320,128,17011,1,0,0:0:0:0:
324,324,17164,2,0,L|388:280,2,75,4|0|0,0:0|0:0|0:0,0:0:0:0:
128,188,17623,1,0,0:0:0:0:
128,188,17776,5,4,0:0:0:0:
172,84,17929,1,0,0:0:0:0:
220,188,18082,1,4,0:0:0:0:
268,84,18236,1,0,0:0:0:0:
312,188,18389,2,0,L|356:256,2,75,4|0|0,0:0|0:0|0:0,0:0:0:0:
268,84,18848,5,0,0:0:0:0:
220,188,19001,2,0,L|184:256,1,75,4|0,0:0|0:0,0:0:0:0:
172,84,19307,1,4,0:0:0:0:
128,188,19460,1,0,0:0:0:0:
64,88,19613,6,0,P|6:123|75:104,1,202.500000772476,8|0,0:0|0:0,0:0:0:0:
172,176,20225,5,8,0:0:0:0:
172,176,20378,1,0,0:0:0:0:
288,80,20531,2,0,L|364:144,1,75
316,228,20838,1,0,0:0:0:0:
344,256,20914,1,0,0:0:0:0:
368,284,20991,2,0,P|408:324|424:356,2,75
184,264,21450,5,4,0:0:0:0:
88,168,21603,1,4,0:0:0:0:
188,80,21756,1,4,0:0:0:0:
284,172,21909,1,4,0:0:0:0:
184,264,22062,1,4,0:0:0:0:
184,264,22215,1,0,0:0:0:0:
188,80,22368,1,4,0:0:0:0:
188,80,22521,1,0,0:0:0:0:
76,156,22674,5,8,0:0:0:0:
76,156,22751,1,0,0:0:0:0:
76,156,22827,2,0,P|52:200|48:232,1,75
140,324,23134,1,0,0:0:0:0:
340,196,23287,2,0,B|393:174|356:130|425:104,2,101.250000386238
159,7,23746,2,0,P|135:51|131:83,1,75
306,138,24052,5,0,0:0:0:0:
132,76,24205,1,4,0:0:0:0:
304,268,24358,1,0,0:0:0:0:
128,332,24511,2,0,L|56:360,2,75,4|0|0,0:0|0:0|0:0,0:0:0:0:
128,80,25123,5,8,0:0:0:0:
128,80,25276,1,0,0:0:0:0:
336,112,25429,2,0,P|376:128|400:168,1,75
260,220,25736,1,8,0:0:0:0:
232,244,25812,1,0,0:0:0:0:
200,264,25889,2,0,P|152:284|128:288,2,75
104,152,26348,5,0,0:0:0:0:
220,56,26501,1,0,0:0:0:0:
248,204,26654,1,0,0:0:0:0:
396,192,26807,1,0,0:0:0:0:
220,56,26960,1,8,0:0:0:0:
220,56,27113,1,0,0:0:0:0:
144,256,27266,1,8,0:0:0:0:
144,256,27419,1,0,0:0:0:0:
396,192,27572,5,8,0:0:0:0:
396,192,27649,1,0,0:0:0:0:
396,192,27725,2,0,P|420:156|432:108,1,75
301,280,28032,1,0,0:0:0:0:
306,84,28185,2,2,P|250:124|310:88,1,202.500000772476,10|2,0:0|0:0,0:0:0:0:
104,72,28644,5,4,0:0:0:0:
96,252,28797,2,0,L|188:212,1,75,8|0,0:0|0:0,0:0:0:0:
320,304,29103,2,0,L|408:256,1,75,4|0,0:0|0:0,0:0:0:0:
204,176,29409,2,0,L|136:112,2,75
312,96,30021,6,0,B|396:128|396:128|400:180|344:184,1,150,8|0,0:0|0:0,0:0:0:0:
200,292,30480,1,0,0:0:0:0:
200,292,30634,6,0,B|122:247|122:247|126:195|182:200,1,150,8|0,0:0|0:0,0:0:0:0:
372,268,31093,1,0,0:0:0:0:
332,156,31246,2,0,P|308:108|272:84,1,75,4|0,0:0|0:0,0:0:0:0:
132,156,31552,2,0,P|144:204|168:228,1,75
244,232,31858,1,0,0:0:0:0:
244,232,32011,1,0,0:0:0:0:
332,156,32164,2,0,P|308:108|272:84,1,75,4|0,0:0|0:0,0:0:0:0:
364,80,32470,5,0,0:0:0:0:
385,111,32547,1,4,0:0:0:0:
256,152,32776,5,0,0:0:0:0:
276,183,32853,1,4,0:0:0:0:
299,212,32929,2,0,P|320:233|364:253,2,75,4|0|0,0:0|0:0|0:0,0:0:0:0:
238,39,33389,1,0,0:0:0:0:
104,66,33542,1,0,0:0:0:0:
96,200,33695,2,0,P|117:221|161:241,1,75,4|0,0:0|0:0,0:0:0:0:
288,100,34001,5,0,0:0:0:0:
156,168,34154,1,0,0:0:0:0:
307,166,34307,2,0,P|359:158|403:126,1,75
61,271,34613,2,0,L|138:312,1,75
380,128,34919,6,0,B|364:88|328:52|276:104|284:32,1,150,8|0,0:0|0:0,0:0:0:0:
136,236,35378,1,0,0:0:0:0:
136,236,35531,2,0,B|152:276|188:312|240:260|232:332,1,150,8|0,0:0|0:0,0:3:0:0:
380,128,35991,1,0,0:0:0:0:
380,128,36144,2,0,P|312:104|284:100,1,75,4|0,0:0|0:0,0:0:0:0:
184,188,36450,5,0,0:0:0:0:
284,300,36603,1,0,0:0:0:0:
384,188,36756,2,0,P|420:148|436:108,2,75,4|0|4,0:0|0:0|0:0,0:0:0:0:
180,64,37368,5,8,0:0:0:0:
180,64,37521,1,0,0:0:0:0:
292,172,37674,5,8,0:0:0:0:
292,172,37827,1,0,0:0:0:0:
180,272,37980,2,0,P|140:292|96:296,2,75
180,132,38440,5,0,0:0:0:0:
76,140,38593,2,8,L|20:204,1,75
64,292,38899,1,0,0:0:0:0:
156,216,39052,1,0,0:0:0:0:
264,136,39205,6,2,P|308:124|256:156,1,202.500000772476,10|2,0:0|0:0,0:0:0:0:
92,96,39817,5,8,0:0:0:0:
92,96,39970,1,0,0:0:0:0:
60,256,40123,2,0,P|80:296|132:308,1,75,8|0,0:0|0:0,0:0:0:0:
316,164,40430,1,8,0:0:0:0:
288,136,40506,1,0,0:0:0:0:
264,108,40583,2,0,P|224:68|208:36,2,75
240,288,41042,5,0,0:0:0:0:
104,192,41195,1,0,0:0:0:0:
268,192,41348,1,0,0:0:0:0:
136,292,41501,1,0,0:0:0:0:
192,136,41654,1,8,0:0:0:0:
192,136,41807,1,0,0:0:0:0:
236,296,41960,1,8,0:0:0:0:
236,296,42113,1,0,0:0:0:0:
384,228,42266,5,8,0:0:0:0:
400,192,42343,1,0,0:0:0:0:
412,156,42419,2,0,P|392:112|372:92,1,75
304,44,42726,5,0,0:0:0:0:
88,216,42878,2,0,B|35:238|72:282|3:308,2,101.250000386238
255,277,43338,2,0,P|288:311|300:337,1,75
124,144,43644,1,0,0:0:0:0:
296,80,43797,1,4,0:0:0:0:
124,272,43950,1,0,0:0:0:0:
300,336,44103,2,0,L|372:364,2,75,4|0|0,0:0|0:0|0:0,0:0:0:0:
104,116,44715,5,8,0:0:0:0:
104,116,44868,1,0,0:0:0:0:
120,264,45021,2,0,P|140:300|188:312,1,75,8|0,0:0|0:0,0:0:0:0:
328,256,45328,1,8,0:0:0:0:
364,252,45404,1,0,0:0:0:0:
400,256,45481,2,0,P|440:264|476:288,2,75
324,108,45940,5,0,0:0:0:0:
164,68,46093,1,0,0:0:0:0:
328,40,46246,1,0,0:0:0:0:
236,176,46399,1,0,0:0:0:0:
412,292,46552,1,8,0:0:0:0:
412,292,46705,1,0,0:0:0:0:
124,228,46858,1,8,0:0:0:0:
124,228,47011,1,0,0:0:0:0:
240,176,47164,5,8,0:0:0:0:
240,176,47241,1,0,0:0:0:0:
240,176,47317,2,0,P|244:132|276:92,1,75
380,232,47624,1,0,0:0:0:0:
216,260,47777,2,0,P|160:300|220:264,1,202.500000772476,2|2,0:0|0:0,0:0:0:0:
104,72,48236,5,4,0:0:0:0:
96,252,48389,2,0,L|188:212,1,75,8|0,0:0|0:0,0:0:0:0:
320,304,48695,2,0,L|408:256,1,75,4|0,0:0|0:0,0:0:0:0:
204,176,49001,2,0,L|136:112,2,75
200,72,49613,6,0,B|256:48|256:48|316:76,1,112.500004291535,8|0,0:0|0:0,0:0:0:0:
308,196,50072,2,0,B|256:224|256:224|208:196,1,112.500004291535
92,84,50685,5,4,0:0:0:0:
360,60,50991,1,4,0:0:0:0:
164,248,51297,1,4,0:0:0:0:
432,152,51603,5,0,0:0:0:0:
384,240,51756,1,0,0:0:0:0:
300,292,51909,1,0,0:0:0:0:
156,144,52062,2,0,B|124:192|124:192|164:252,1,112.500004291535,8|0,0:0|0:0,0:0:0:0:
352,236,52521,2,0,B|388:188|388:188|344:136,1,112.500004291535
160,92,53134,6,0,L|128:124,1,28.1250010728836,4|0,0:0|0:0,0:0:0:0:
368,272,53441,2,0,L|400:236,1,28.1250010728836,4|0,0:0|0:0,0:0:0:0:
160,92,53746,2,0,P|96:144|172:124,1,225
416,296,54511,6,0,L|424:264,1,28.1250010728836,4|0,0:0|0:0,0:0:0:0:
236,124,54817,1,0,0:0:0:0:
144,188,54970,2,0,P|136:234|145:277,1,84.3750032186509
212,312,55276,2,0,P|280:304|304:284,1,84.3750032186509
344,236,55582,2,0,P|344:184|328:148,1,84.3750032186509
268,108,55889,2,0,P|221:108|182:132,1,84.3750032186509
156,196,56195,1,0,0:0:0:0:
256,292,56501,6,2,B|264:288|264:288|252:276|252:276|272:284|272:284|260:272|260:272|280:280|280:280|268:268|268:268|288:276|288:276|276:264|276:264|296:272|296:272|284:260|284:260|304:268|304:268|292:256|292:256|312:264|312:264|300:252|300:252|320:260|320:260|308:248|308:248|328:256|328:256|316:244|316:244|336:252|336:252,1,337.500012874604
252,192,58338,5,0,0:0:0:0:
352,232,58491,1,4,0:0:0:0:
72,199,58644,1,0,0:0:0:0:
72,199,58720,1,0,0:0:0:0:
72,199,58797,1,4,0:0:0:0:
160,88,58950,2,0,P|144:52|136:28,2,43.8750001673698,4|0|4,0:0|0:0|0:0,0:0:0:0:
183,208,59256,1,0,0:0:0:0:
236,280,59409,5,8,0:0:0:0:
292,76,59562,1,0,0:0:0:0:
168,296,59715,1,4,0:0:0:0:
224,104,59868,2,0,P|180:116|132:144,1,87.7500003347397,0|8,0:0|0:0,0:0:0:0:
280,192,60174,1,0,0:0:0:0:
140,268,60327,2,0,P|200:300|244:300,1,87.7500003347397,4|0,0:0|0:0,0:0:0:0:
264,292,60557,1,0,0:0:0:0:
300,268,60634,1,0,0:0:0:0:
324,140,60787,6,0,P|272:104|248:104,1,87.7500003347397
164,204,61093,1,0,0:0:0:0:
296,192,61246,1,4,0:0:0:0:
360,56,61399,1,0,0:0:0:0:
320,40,61475,1,0,0:0:0:0:
276,40,61552,1,8,0:0:0:0:
236,60,61629,1,0,0:0:0:0:
200,88,61705,1,4,0:0:0:0:
180,128,61782,1,0,0:0:0:0:
164,177,61858,6,0,B|164:233|208:289,1,101.250000386238,8|0,0:0|0:0,0:0:0:0:
348,172,62164,1,8,0:0:0:0:
196,272,62317,1,0,0:0:0:0:
92,124,62470,1,8,0:0:0:0:
244,220,62623,1,0,0:0:0:0:
64,188,62776,1,8,0:0:0:0:
244,152,62929,1,0,0:0:0:0:
88,248,63082,2,0,P|140:284|192:288,1,101.250000386238,8|0,0:0|0:0,0:0:0:0:
368,172,63389,1,8,0:0:0:0:
276,64,63542,1,0,0:0:0:0:
216,192,63695,1,8,0:0:0:0:
108,100,63848,2,0,P|84:152|76:200,2,101.250000386238,0|8|0,0:0|0:0|0:0,0:0:0:0:
328,76,64307,5,8,0:0:0:0:
328,76,64384,1,0,0:0:0:0:
328,76,64460,2,0,P|376:116|404:160,1,101.250000386238,0|8,0:0|0:0,0:0:0:0:
268,276,64766,1,0,0:0:0:0:
104,200,64919,1,8,0:0:0:0:
252,96,65072,1,0,0:0:0:0:
268,276,65225,1,8,0:0:0:0:
432,196,65378,2,0,P|452:140|448:100,1,101.250000386238
310,59,65685,2,0,P|254:39|214:43,1,101.250000386238
144,167,65991,2,0,P|124:223|128:263,1,101.250000386238
262,307,66297,1,0,0:0:0:0:
376,223,66450,1,0,0:0:0:0:
52,176,66756,6,0,P|80:120|116:84,1,101.250000386238
234,33,67062,2,0,P|266:83|281:136,1,101.250000386238
228,272,67368,5,8,0:0:0:0:
228,272,67521,1,0,0:0:0:0:
367,126,67674,5,8,0:0:0:0:
367,126,67827,1,0,0:0:0:0:
172,79,67980,5,8,0:0:0:0:
172,79,68134,1,0,0:0:0:0:
432,248,68287,6,8,P|396:288|352:316,1,101.250000386238
260,88,68593,2,8,P|304:60|356:48,1,101.250000386238
148,320,68899,2,8,P|116:272|104:220,1,101.250000386238
304,240,69205,5,8,0:0:0:0:
304,240,69281,1,0,0:0:0:0:
304,240,69358,2,0,B|264:272|232:252|216:212,1,101.250000386238
192,104,69664,1,8,0:0:0:0:
88,168,69817,1,8,0:0:0:0:
267,138,69970,1,8,0:0:0:0:
372,64,70123,1,8,0:0:0:0:
372,64,70276,1,8,0:0:0:0:
261,215,70429,2,0,P|305:247|353:231,1,101.250000386238
420,192,70736,1,8,0:0:0:0:
420,192,70889,1,0,0:0:0:0:
156,80,71042,2,0,P|104:88|68:128,1,101.250000386238
48,168,71271,1,0,0:0:0:0:
48,220,71348,1,0,0:0:0:0:
156,80,71501,1,0,0:0:0:0:
164,236,71654,5,8,0:0:0:0:
204,268,71730,1,0,0:0:0:0:
248,292,71807,1,0,0:0:0:0:
300,292,71884,1,0,0:0:0:0:
348,280,71960,2,0,P|400:260|436:232,2,101.250000386238,8|0|0,0:0|0:0|0:0,0:0:0:0:
252,128,72419,1,0,0:0:0:0:
252,128,72572,2,0,P|216:56|216:24,1,101.250000386238
64,224,72878,2,0,P|152:300|240:320,1,202.500000772476
360,116,73338,5,0,0:0:0:0:
284,48,73491,1,0,0:0:0:0:
260,144,73644,1,0,0:0:0:0:
336,212,73797,1,0,0:0:0:0:
244,260,73950,1,0,0:0:0:0:
144,96,74103,1,8,0:0:0:0:
144,96,74179,1,0,0:0:0:0:
144,96,74256,2,0,B|160:40|196:36|220:44,1,101.250000386238
356,124,74562,5,0,0:0:0:0:
368,284,74715,2,0,P|296:308|256:296,1,101.250000386238
140,164,75021,2,0,P|172:120|216:88,1,101.250000386238
112,280,75327,2,0,P|172:320|224:328,1,101.250000386238
344,184,75634,1,0,0:0:0:0:
268,120,75787,2,0,P|224:88|164:72,1,101.250000386238
332,264,76246,6,0,P|288:304|236:324,1,101.250000386238
243,78,76552,1,8,0:0:0:0:
243,78,76628,1,0,0:0:0:0:
243,78,76705,1,0,0:0:0:0:
416,172,76858,2,0,P|472:152|444:120,2,101.250000386238
228,144,77317,1,0,0:0:0:0:
84,288,77470,2,0,P|104:344|136:316,2,101.250000386238
228,144,77929,1,0,0:0:0:0:
356,304,78082,2,0,P|412:284|384:252,2,101.250000386238
384,108,78542,1,0,0:0:0:0:
264,216,78695,2,0,P|220:156|180:148,1,101.250000386238
60,236,79001,5,8,0:0:0:0:
60,236,79077,1,0,0:0:0:0:
60,236,79154,1,0,0:0:0:0:
276,288,79307,1,4,0:0:0:0:
136,112,79460,1,0,0:0:0:0:
140,336,79613,1,4,0:0:0:0:
316,200,79766,1,0,0:0:0:0:
60,164,79919,1,0,0:0:0:0:
200,64,80072,1,0,0:0:0:0:
404,112,80225,6,0,P|412:168|412:236,1,101.250000386238,0|8,0:0|0:0,0:0:0:0:
307,326,80531,2,0,P|299:270|299:202,1,101.250000386238,0|8,0:0|0:0,0:0:0:0:
210,112,80838,1,0,0:0:0:0:
203,161,80914,1,0,0:0:0:0:
200,212,80991,1,0,0:0:0:0:
329,162,81144,1,0,0:0:0:0:
57,122,81297,1,0,0:0:0:0:
324,232,81450,6,0,P|339:273|376:296,1,75,8|0,0:0|0:0,0:0:0:0:
236,236,81756,1,8,0:0:0:0:
248,124,81909,2,0,P|264:72|292:44,1,75,4|0,0:0|0:0,0:0:0:0:
396,148,82215,2,0,P|376:192|352:220,1,75,4|0,0:0|0:0,0:0:0:0:
200,40,82521,2,0,P|172:88|168:128,1,75,4|0,0:0|0:0,0:0:0:0:
356,208,82827,1,4,0:0:0:0:
356,208,82980,1,8,0:0:0:0:
244,108,83134,2,0,P|288:76|320:64,1,75,4|0,0:0|0:0,0:0:0:0:
53,330,83440,2,0,P|97:298|129:286,2,75,4|0|0,0:0|0:0|0:0,0:0:0:0:
280,104,83899,6,0,P|324:132|336:152,1,56.2500021457673
288,240,84205,1,0,0:0:0:0:
288,240,84358,1,0,0:0:0:0:
168,240,84511,2,0,B|84:208|84:208|84:180|84:180|100:160|100:160|196:188,1,225.000008583069,8|0,0:0|0:0,0:0:0:0:
164,156,85659,5,10,0:0:0:0:
280,96,86042,1,10,0:0:0:0:
356,204,86424,1,10,0:0:0:0:
256,192,86884,12,0,89103,0:0:0:0:
