osu file format v14

[General]
AudioFilename: audio.mp3
AudioLeadIn: 0
PreviewTime: 56960
Countdown: 1
SampleSet: Soft
StackLeniency: 0.7
Mode: 0
LetterboxInBreaks: 0
WidescreenStoryboard: 1

[Editor]
DistanceSpacing: 2
BeatDivisor: 4
GridSize: 4
TimelineZoom: 1.5

[Metadata]
Title:Koi? de Ai? de Boukun desu!
TitleUnicode:恋?で愛?で暴君です!
Artist:Wake Up, Girls!
ArtistUnicode:Wake Up, Girls!
Creator:Dr_Marc
Version:Hard
Source:Renai Boukun 恋愛暴君
Tags:Renai Boukun,Koi? de Ai? de Boukun desu!,koi de ai de boukun desu,Wake Up Girls!,Wake Up Girls, OP, Kiss Note, Love, Anime, Opening, TV Size,
BeatmapID:1270592
BeatmapSetID:601117

[Difficulty]
HPDrainRate:6
CircleSize:4
OverallDifficulty:6
ApproachRate:8
SliderMultiplier:1.2
SliderTickRate:1

[Events]
//Background and Video events
0,0,"Beginnscreen.jpg",0,0
Video,0,"Koi de Ai de Boukun desu.avi"
//Break Periods
//Storyboard Layer 0 (Background)
//Storyboard Layer 1 (Fail)
//Storyboard Layer 2 (Pass)
//Storyboard Layer 3 (Foreground)
//Storyboard Sound Samples

[TimingPoints]
634,306.122448979592,4,1,0,90,1,0
9205,-100,4,1,0,90,0,0
20225,-74.0740740740741,4,1,0,90,0,0
30021,-100,4,1,0,90,0,0
39817,-74.0740740740741,4,1,0,90,0,0
49613,-90.9090909090909,4,2,0,90,0,0
54511,-100,4,2,0,90,0,0
56501,-74.0740740740741,4,2,0,90,0,0
59409,-86.9565217391304,4,2,0,90,0,0
59868,-80,4,2,0,90,0,0
60327,-74.0740740740741,4,2,0,90,0,0
60787,-68.9655172413793,4,2,0,90,0,0
61858,-68.9655172413793,4,2,0,90,0,1
74715,-68.9655172413793,4,2,0,70,0,1
75021,-68.9655172413793,4,2,0,40,0,1
75327,-68.9655172413793,4,2,0,90,0,1
81450,-100,4,2,0,90,0,0
83899,-142.857142857143,4,2,0,90,0,0

[HitObjects]
120,136,634,6,0,P|160:104|192:92,1,60
268,124,940,1,0,0:0:0:0:
232,220,1093,1,0,0:0:0:0:
408,116,1399,5,0,0:0:0:0:
312,296,1705,1,0,0:0:0:0:
204,124,2011,1,0,0:0:0:0:
96,296,2317,2,0,P|144:324|176:332,1,60
216,248,2623,6,0,L|272:276,2,60
156,164,3082,2,0,P|136:116|132:80,1,60
184,16,3389,1,0,0:0:0:0:
260,80,3542,1,0,0:0:0:0:
432,188,3848,5,0,0:0:0:0:
260,296,4154,1,0,0:0:0:0:
284,156,4460,1,0,0:0:0:0:
408,320,4766,2,0,P|352:320|340:320,1,60
248,324,5072,2,0,P|248:280|256:252,2,60
256,104,5531,6,0,P|296:64|312:56,1,60
100,128,5838,2,0,L|88:92,1,30
148,54,5991,2,0,L|140:22,1,30
320,104,6297,5,0,0:0:0:0:
352,304,6603,1,0,0:0:0:0:
148,324,6909,1,0,0:0:0:0:
120,112,7215,1,0,0:0:0:0:
256,192,7521,12,0,8899,0:0:0:0:
172,112,9205,6,0,L|224:56,1,60
224,228,9511,2,0,L|276:168,1,60
288,332,9817,2,0,L|312:368,2,30
364,264,10123,2,0,P|408:236|432:232,1,60
372,144,10429,6,0,P|344:84|300:44,1,120
204,68,10889,1,0,0:0:0:0:
204,68,11042,2,0,P|164:136|144:188,1,120
216,252,11501,1,0,0:0:0:0:
216,252,11654,2,0,L|296:264,1,60
336,180,11960,2,0,P|348:136|340:104,1,60
264,64,12266,2,0,P|232:48|204:40,2,60
104,192,12878,5,0,0:0:0:0:
276,304,13185,1,0,0:0:0:0:
272,100,13491,2,0,P|280:52|288:32,2,60
352,164,13950,1,0,0:0:0:0:
380,264,14103,2,0,P|416:292|448:304,2,60
280,280,14562,2,0,P|208:272|200:272,1,60
92,112,15021,1,0,0:0:0:0:
292,80,15327,6,0,P|324:96|372:176,1,120
292,272,15787,1,0,0:0:0:0:
292,272,15940,2,0,P|204:260|152:236,1,120
152,120,16399,1,0,0:0:0:0:
152,120,16552,2,0,L|228:92,1,60
296,148,16858,2,0,P|336:176|352:200,2,60
112,240,17470,1,0,0:0:0:0:
316,260,17776,6,0,P|344:272|368:288,2,60
292,184,18236,1,0,0:0:0:0:
236,128,18389,1,0,0:0:0:0:
160,112,18542,1,0,0:0:0:0:
80,244,18848,6,0,L|120:296,1,60
244,200,19307,2,0,L|300:172,2,60
172,276,20225,6,0,P|128:248|40:168,1,162.000000617981
148,108,20685,2,0,L|176:28,2,81.0000003089905
388,140,21297,2,0,P|400:208|384:312,1,162.000000617981
272,340,21756,1,0,0:0:0:0:
236,224,21909,1,0,0:0:0:0:
120,256,22062,2,0,P|116:212|120:172,1,81.0000003089905
216,100,22368,2,0,P|260:96|300:100,1,81.0000003089905
268,248,22674,6,0,P|344:236|404:136,1,162.000000617981
304,92,23134,1,0,0:0:0:0:
304,92,23287,2,0,P|252:88|192:92,2,81.0000003089905
112,184,23746,1,0,0:0:0:0:
112,184,23899,2,0,P|160:192|208:176,1,81.0000003089905
354,50,24205,1,0,0:0:0:0:
465,346,24511,2,0,P|453:298|453:262,1,81.0000003089905
340,108,25123,6,0,P|384:136|472:216,1,162.000000617981
364,276,25583,2,0,L|336:356,2,81.0000003089905
124,244,26195,2,0,P|112:176|128:72,1,162.000000617981
240,44,26654,1,0,0:0:0:0:
276,160,26807,1,0,0:0:0:0:
392,128,26960,2,0,P|396:172|392:212,1,81.0000003089905
300,284,27266,2,0,P|256:288|216:284,1,81.0000003089905
244,136,27572,6,0,P|168:148|108:248,1,162.000000617981
208,292,28032,1,0,0:0:0:0:
208,292,28185,2,0,P|260:296|320:292,2,81.0000003089905
400,200,28644,1,0,0:0:0:0:
371,125,28797,2,0,P|323:117|275:133,1,81.0000003089905
230,197,29103,2,0,P|278:205|326:189,1,81.0000003089905
109,112,29409,2,0,P|109:48|117:20,1,81.0000003089905
364,147,30021,6,0,P|373:182|342:270,1,120
217,271,30481,1,0,0:0:0:0:
217,271,30634,2,0,P|170:195|155:140,1,120
244,66,31093,1,0,0:0:0:0:
244,66,31246,2,0,L|314:106,1,60
315,194,31552,2,0,P|319:242|311:270,1,60
236,292,31858,2,0,P|192:304|168:308,2,60
116,156,32470,6,0,L|96:124,1,30
268,64,32776,2,0,L|300:40,1,30
356,216,33082,2,0,P|376:240|392:280,2,60
336,96,33542,1,0,0:0:0:0:
224,56,33695,2,0,P|176:36|148:40,2,60
336,96,34154,1,0,0:0:0:0:
348,216,34307,2,0,P|328:248|248:284,1,120
128,108,34919,6,0,P|104:144|105:230,1,120
192,276,35379,1,0,0:0:0:0:
192,276,35532,2,0,P|232:232|248:164,1,120
180,92,35991,1,0,0:0:0:0:
180,92,36144,2,0,L|128:140,1,60
120,240,36450,5,0,0:0:0:0:
220,276,36603,1,0,0:0:0:0:
260,176,36756,2,0,P|276:132|276:104,2,60
80,56,37368,6,0,P|72:80|72:116,2,60
172,48,37828,1,0,0:0:0:0:
232,112,37981,1,0,0:0:0:0:
228,200,38134,1,0,0:0:0:0:
88,88,38440,6,0,L|88:152,1,60
256,88,38899,2,0,L|316:88,2,60
172,276,39817,6,0,P|128:248|40:168,1,162.000000617981
148,108,40277,2,0,L|176:28,2,81.0000003089905
388,140,40889,2,0,P|400:208|384:312,1,162.000000617981
272,340,41348,1,0,0:0:0:0:
236,224,41501,1,0,0:0:0:0:
120,256,41654,2,0,P|116:212|120:172,1,81.0000003089905
216,100,41960,2,0,P|260:96|300:100,1,81.0000003089905
268,248,42266,6,0,P|344:236|404:136,1,162.000000617981
304,92,42726,1,0,0:0:0:0:
304,92,42878,2,0,P|252:88|192:92,2,81.0000003089905
169,261,43338,2,0,P|157:309|157:345,1,81.0000003089905
159,94,43644,2,0,P|130:60|91:31,2,81.0000003089905
353,290,44103,2,0,L|418:347,1,81.0000003089905
172,276,44715,6,0,P|128:248|40:168,1,162.000000617981
140,96,45175,2,0,L|232:72,2,81.0000003089905
376,44,45787,2,0,P|388:112|372:216,1,162.000000617981
284,124,46246,1,0,0:0:0:0:
256,244,46399,1,0,0:0:0:0:
176,152,46552,2,0,P|160:192|156:232,1,81.0000003089905
260,292,46858,2,0,P|304:308|344:292,1,81.0000003089905
420,208,47164,6,0,P|408:132|328:88,1,162.000000617981
257,193,47624,1,0,0:0:0:0:
168,84,47777,2,0,P|116:80|56:84,2,81.0000003089905
88,184,48236,1,0,0:0:0:0:
173,185,48389,6,0,P|221:193|269:177,1,81.0000003089905
314,62,48695,2,0,P|322:110|306:158,1,81.0000003089905
360,284,49001,2,0,P|329:246|318:196,1,81.0000003089905
432,124,49613,6,0,B|378:142|378:142|367:193|316:223,1,132.00000402832
156,224,50072,2,0,B|209:196|192:139|242:114,1,132.00000402832
278,313,50685,2,0,P|316:306|327:275,1,66.0000020141602
246,122,50991,2,0,P|208:129|197:160,1,66.0000020141602
446,251,51297,2,0,P|467:219|453:189,1,66.0000020141602,0|0,0:3|0:0,0:0:0:0:
267,235,51603,1,0,0:0:0:0:
267,235,51756,1,0,0:0:0:0:
267,235,51909,1,0,0:0:0:0:
350,184,52062,6,0,B|324:133|324:133|352:89|337:31,1,132.00000402832,0|0,0:3|0:3,0:3:0:0:
139,215,52521,2,0,B|196:197|224:249|277:231,1,132.00000402832,0|0,0:3|0:3,0:3:0:0:
278,71,53134,2,0,P|316:78|327:109,1,66.0000020141602
246,262,53440,2,0,P|208:255|197:224,1,66.0000020141602
289,331,53746,1,0,0:0:0:0:
53,99,54052,5,0,0:0:0:0:
172,212,54205,1,0,0:0:0:0:
257,193,54511,6,0,B|280:169|280:169|292:132,1,60
116,167,54817,1,0,0:0:0:0:
116,167,54970,2,0,B|85:196|85:196|80:233,1,60
332,158,55276,2,0,L|372:134,1,40.5000001544952
123,240,55582,2,0,L|87:271,1,40.5000001544952
168,42,55889,2,0,L|141:7,1,40.5000001544952
354,298,56195,2,0,L|381:336,1,40.5000001544952
42,112,56501,6,0,P|68:203|183:152,1,243.000000926971
212,102,58338,2,0,P|256:98|296:102,1,81.0000003089905
380,158,58644,2,0,L|418:187,2,40.5000001544952
278,185,58950,1,0,0:0:0:0:
432,332,59103,2,0,P|403:298|372:272,1,81.0000003089905
148,184,59409,6,0,P|147:238|176:323,1,138.000002632141
336,336,59868,2,0,B|296:294|296:294|257:217,1,138.000002632141
294,47,60327,2,0,B|341:37|371:49|371:49|328:96|351:149,1,162.000000617981
102,302,60787,2,0,B|124:264|124:264|171:260|171:260|188:214|188:214|227:215|227:215|227:215,1,174.000005310059
284,164,61246,1,0,0:0:0:0:
69,96,61399,2,0,L|125:113,4,43.5000013275147
243,248,61858,6,0,B|237:200|237:200|241:158|314:183|330:105,1,174.000005310059
99,115,62470,1,0,0:0:0:0:
208,143,62623,1,0,0:0:0:0:
127,222,62776,2,0,B|96:263|96:263|86:310,1,87.0000026550294
354,89,63082,2,0,B|330:129|349:173|349:173|274:243|274:243,1,174.000005310059
442,229,63542,2,0,P|375:239|416:313,1,174.000005310059
284,263,64001,2,0,L|203:229,1,87.0000026550294
79,78,64307,6,0,B|122:98|122:98|163:107|162:30|241:39,1,174.000005310059,0|0,0:3|0:0,0:0:0:0:
405,302,64919,1,0,0:0:0:0:
258,265,65072,1,0,0:0:0:0:
410,234,65225,2,0,B|359:245|359:245|322:275,1,87.0000026550294
346,131,65531,2,0,L|387:45,1,87.0000026550294
186,167,65838,1,0,0:0:0:0:
186,167,65991,2,0,L|272:208,1,87.0000026550294
122,345,66297,2,0,P|157:287|209:353,1,174.000005310059
211,347,66756,1,0,0:0:0:0:
100,188,67062,6,0,L|46:113,1,87.0000026550294
137,120,67368,2,0,L|191:195,1,87.0000026550294
317,215,67674,2,0,L|263:140,1,87.0000026550294
407,74,67980,2,0,L|461:149,1,87.0000026550294
269,263,68287,2,0,B|239:299|239:299|194:317,1,87.0000026550294
107,152,68593,2,0,B|142:117|142:117|182:98,1,87.0000026550294
317,215,68899,1,0,0:0:0:0:
317,215,69052,1,0,0:0:0:0:
107,232,69205,6,0,B|142:267|142:267|182:286,1,87.0000026550294
405,232,69511,2,0,B|370:267|370:267|330:286,1,87.0000026550294
103,93,69817,2,0,B|115:140|115:140|140:177,1,87.0000026550294
317,215,70123,2,0,B|269:227|269:227|225:224,1,87.0000026550294
372,47,70429,2,0,L|418:130,1,87.0000026550294
336,352,70736,1,0,0:0:0:0:
373,245,70889,1,0,0:0:0:0:
266,208,71042,1,0,0:0:0:0:
229,315,71195,2,0,L|273:333,2,43.5000013275147
195,206,71501,1,0,0:0:0:0:
327,129,71654,6,0,B|310:174|310:174|287:210|234:154|184:216,1,174.000005310059,0|0,0:3|0:0,0:0:0:0:
430,304,72266,1,0,0:0:0:0:
487,177,72419,1,0,0:0:0:0:
349,192,72572,2,0,B|367:240|367:240|401:273,1,87.0000026550294
102,331,72878,2,0,B|146:317|161:271|161:271|265:272|265:272,1,174.000005310059,0|0,0:3|0:3,0:3:0:0:
100,166,73338,2,0,P|159:198|171:114,1,174.000005310059
26,113,73797,2,0,L|117:51,1,87.0000026550294
153,215,74103,6,0,L|109:293,1,87.0000026550294
219,232,74409,2,0,L|263:154,1,87.0000026550294
278,277,74715,2,0,L|234:355,1,87.0000026550294
312,352,75021,2,0,L|356:274,1,87.0000026550294
249,117,75327,2,0,B|290:138|333:117|333:117|405:190|405:190,1,174.000005310059,0|0,0:3|0:3,0:3:0:0:
111,258,75787,2,0,L|190:86,1,174.000005310059
298,345,76246,2,0,B|310:297|310:297|307:253,1,87.0000026550294
295,120,76552,6,0,L|280:26,1,87.0000026550294
185,210,76858,1,0,0:0:0:0:
295,120,77011,1,0,0:0:0:0:
163,70,77164,2,0,L|178:164,1,87.0000026550294
362,125,77470,1,0,0:0:0:0:
297,303,77623,1,0,0:0:0:0:
176,155,77776,2,0,L|114:82,1,87.0000026550294
336,229,78082,2,0,L|397:301,1,87.0000026550294
254,41,78389,2,0,B|242:56|262:79|241:103|261:117|243:138,1,87.0000026550294
255,265,78695,1,0,0:0:0:0:
255,265,78848,1,0,0:0:0:0:
376,125,79001,6,0,P|392:168|351:221,1,87.0000026550294
302,107,79307,1,0,0:0:0:0:
314,228,79460,1,0,0:0:0:0:
374,124,79613,1,0,0:0:0:0:
241,210,79766,1,0,0:0:0:0:
393,200,79919,1,0,0:0:0:0:
393,200,80072,1,0,0:0:0:0:
222,134,80225,2,0,L|107:88,1,87.0000026550294
293,324,80531,2,0,P|335:305|343:238,1,87.0000026550294
349,121,80838,6,0,L|348:73,2,43.5000013275147
271,118,81144,1,0,0:0:0:0:
271,118,81297,1,0,0:0:0:0:
103,215,81450,6,0,P|131:275|175:315,1,120
274,252,81909,2,0,P|286:208|278:176,1,60
226,132,82215,2,0,P|214:176|222:208,1,60
291,333,82521,2,0,P|323:300|332:269,1,60
219,43,82827,2,0,P|186:75|177:106,1,60
250,187,83134,1,0,0:0:0:0:
146,126,83440,1,0,0:0:0:0:
146,126,83593,1,0,0:0:0:0:
405,74,83899,6,0,B|416:167|406:200|351:144|351:144|283:228|402:291|428:301|431:301|256:307|245:308|155:295|140:270|140:270|229:240|273:152|273:152|216:129,1,797.999975646973
256,192,86960,12,0,89103,0:0:0:0:
