osu file format v14

[General]
AudioFilename: audio.mp3
AudioLeadIn: 0
PreviewTime: 72878
Countdown: 0
SampleSet: Soft
StackLeniency: 0.3
Mode: 0
LetterboxInBreaks: 0
WidescreenStoryboard: 1

[Editor]
Bookmarks: 244937,250070
DistanceSpacing: 1
BeatDivisor: 4
GridSize: 32
TimelineZoom: 0.9999996

[Metadata]
Title:One In A Billion
TitleUnicode:One In A Billion
Artist:Wake Up, May'n!
ArtistUnicode:Wake Up, May'n!
Creator:A r M i N
Version:Rosiie's Insane
Source:異世界食堂
Tags:isekai shokudou restaurant to another world wake up girls! opening op anime japanese pop j-pop Armin A_r_M_i_N Kuki1537 Elinor [_Eli_] Pepekcz Rosiie shokudo jpop eli PEACE of SMILE full ver version
BeatmapID:2642726
BeatmapSetID:1264800

[Difficulty]
HPDrainRate:5
CircleSize:3.5
OverallDifficulty:8.2
ApproachRate:9
SliderMultiplier:1.7
SliderTickRate:1

[Events]
//Background and Video events
0,0,"bg.jpg",0,0
//Break Periods
2,193800,200379
//Storyboard Layer 0 (Background)
//Storyboard Layer 1 (Fail)
//Storyboard Layer 2 (Pass)
//Storyboard Layer 3 (Foreground)
//Storyboard Layer 4 (Overlay)
//Storyboard Sound Samples

[TimingPoints]
616,394.736842105263,4,2,1,60,1,0
6931,-142.857142857143,4,2,1,60,0,0
9990,-142.857142857143,4,2,1,5,0,0
10089,-142.857142857143,4,2,1,60,0,0
16306,-142.857142857143,4,2,1,5,0,0
16405,-142.857142857143,4,2,1,60,0,0
30582,320.855614973262,4,2,1,60,1,0
30582,-125,4,2,1,60,0,0
31889,320.855614973262,4,2,1,70,1,0
31889,-105.263157894737,4,2,1,70,0,0
42156,-125,4,2,1,60,0,0
52423,-111.111111111111,4,2,1,65,0,0
62691,-111.111111111111,4,2,1,70,0,0
70391,-100,4,2,1,70,0,0
72958,-90.9090909090909,4,2,1,80,0,1
73199,-90.9090909090909,4,2,1,5,0,1
73279,-90.9090909090909,4,2,1,80,0,1
75766,-90.9090909090909,4,2,1,5,0,1
75846,-90.9090909090909,4,2,1,80,0,1
76006,-90.9090909090909,4,2,1,5,0,1
76167,-90.9090909090909,4,2,1,80,0,1
76647,-90.9090909090909,4,2,1,5,0,1
76808,-90.9090909090909,4,2,1,80,0,1
77450,-90.9090909090909,4,2,1,5,0,1
77610,-90.9090909090909,4,2,1,80,0,1
78332,-90.9090909090909,4,2,1,5,0,1
78413,-90.9090909090909,4,2,1,80,0,1
83466,-90.9090909090909,4,2,1,5,0,1
83546,-90.9090909090909,4,2,1,80,0,1
86033,-90.9090909090909,4,2,1,5,0,1
86113,-90.9090909090909,4,2,1,80,0,1
88600,-90.9090909090909,4,2,1,5,0,1
88680,-90.9090909090909,4,2,1,80,0,1
93493,-125,4,2,1,60,0,0
96060,-90.9090909090909,4,2,1,80,0,1
102958,-90.9090909090909,4,2,1,70,0,0
103760,-100,4,2,1,70,0,0
106327,-142.857142857143,4,2,1,60,0,0
114910,-142.857142857143,4,2,1,5,0,0
114990,-142.857142857143,4,2,1,60,0,0
115231,-142.857142857143,4,2,1,5,0,0
115311,-142.857142857143,4,2,1,60,0,0
116594,-111.111111111111,4,2,1,70,0,0
124295,-100,4,2,1,70,0,0
126862,-90.9090909090909,4,2,1,80,0,1
127102,-90.9090909090909,4,2,1,5,0,1
127183,-90.9090909090909,4,2,1,80,0,1
129669,-90.9090909090909,4,2,1,5,0,1
129749,-90.9090909090909,4,2,1,80,0,1
132236,-90.9090909090909,4,2,1,5,0,1
132316,-90.9090909090909,4,2,1,80,0,1
137370,-90.9090909090909,4,2,1,5,0,1
137450,-90.9090909090909,4,2,1,80,0,1
139937,-90.9090909090909,4,2,1,5,0,1
140017,-90.9090909090909,4,2,1,80,0,1
142503,-90.9090909090909,4,2,1,5,0,1
142584,-90.9090909090909,4,2,1,80,0,1
147637,-90.9090909090909,4,2,1,5,0,1
147717,-90.9090909090909,4,2,1,80,0,1
151969,-90.9090909090909,4,2,1,5,0,1
152049,-90.9090909090909,4,2,1,80,0,1
157664,-133.333333333333,4,2,1,60,0,0
157905,-133.333333333333,4,2,1,5,0,0
157985,-133.333333333333,4,2,1,60,0,0
158225,-133.333333333333,4,2,1,5,0,0
158306,-133.333333333333,4,2,1,60,0,0
159830,-133.333333333333,4,2,1,60,0,0
160150,-133.333333333333,4,2,1,5,0,0
160231,-133.333333333333,4,2,1,60,0,0
160471,-133.333333333333,4,2,1,5,0,0
160552,-133.333333333333,4,2,1,60,0,0
160792,-133.333333333333,4,2,1,5,0,0
160872,-133.333333333333,4,2,1,60,0,0
162397,-133.333333333333,4,2,1,60,0,0
162717,-133.333333333333,4,2,1,5,0,0
162798,-133.333333333333,4,2,1,60,0,0
163038,-133.333333333333,4,2,1,5,0,0
163118,-133.333333333333,4,2,1,60,0,0
163359,-133.333333333333,4,2,1,5,0,0
163439,-133.333333333333,4,2,1,60,0,0
164963,-133.333333333333,4,2,1,60,0,0
165284,-133.333333333333,4,2,1,5,0,0
165364,-133.333333333333,4,2,1,60,0,0
165605,-133.333333333333,4,2,1,5,0,0
165685,-133.333333333333,4,2,1,60,0,0
165926,-133.333333333333,4,2,1,5,0,0
166006,-133.333333333333,4,2,1,60,0,0
167290,-117.647058823529,4,2,1,60,0,0
167931,-100,4,2,1,70,0,0
188466,-90.9090909090909,4,2,1,80,0,1
191033,-111.111111111111,4,2,1,70,0,0
193600,-166.666666666667,4,2,1,50,0,0
201300,-142.857142857143,4,2,1,60,0,0
202263,-117.647058823529,4,2,1,60,0,0
202584,-100,4,2,1,70,0,0
203867,-90.9090909090909,4,2,1,80,0,1
204108,-90.9090909090909,4,2,1,5,0,1
204188,-90.9090909090909,4,2,1,80,0,1
206675,-90.9090909090909,4,2,1,5,0,1
206755,-90.9090909090909,4,2,1,80,0,1
209241,-90.9090909090909,4,2,1,5,0,1
209322,-90.9090909090909,4,2,1,80,0,1
214134,-125,4,2,1,60,0,0
216701,-90.9090909090909,4,2,1,80,0,1
223600,-100,4,2,1,70,0,0
224081,-200,4,2,1,70,0,0
224322,-90.9090909090909,4,2,1,5,0,1
224402,-100,4,2,1,70,0,0
244937,-588.235294117647,4,2,1,70,0,0
245017,-588.235294117647,4,2,1,70,0,0
249830,-588.235294117647,4,2,1,5,0,0

[Colours]
Combo1 : 249,21,123
Combo2 : 0,128,192
Combo3 : 128,64,64
Combo4 : 255,128,128

[HitObjects]
485,235,6931,5,4,1:2:0:0:
485,235,7326,2,0,P|475:269|459:364,1,118.999996368408,2|2,0:0|0:0,0:0:0:0:
374,193,8115,1,2,0:0:0:0:
290,313,8510,2,0,P|232:300|170:293,1,118.999996368408,2|2,0:0|0:0,0:0:0:0:
73,343,9102,2,0,B|61:328|44:313|44:313|69:236,1,118.999996368408,2|2,0:0|0:0,0:0:0:0:
19,160,9694,2,0,P|14:128|4:63,1,89.2499972763062,2|0,0:0|0:0,0:0:0:0:
38,31,10089,5,0,0:0:0:0:
38,31,10484,2,0,P|91:8|155:17,1,118.999996368408,2|2,0:0|0:0,0:0:0:0:
251,79,11273,1,2,0:0:0:0:
359,2,11668,2,0,P|389:32|391:118,1,118.999996368408,2|2,0:0|0:0,0:0:0:0:
322,203,12260,2,0,P|360:195|467:179,1,118.999996368408,2|2,0:0|0:0,0:0:0:0:
479,288,12852,2,0,P|449:281|420:277,1,59.4999981842042,2|0,0:0|0:0,0:0:0:0:
350,338,13247,5,0,0:0:0:0:
350,338,13642,2,0,P|299:329|221:317,1,118.999996368408,2|2,0:0|0:0,0:0:0:0:
112,345,14431,1,2,0:0:0:0:
23,228,14826,2,0,P|50:200|143:200,1,118.999996368408,2|2,0:0|0:0,0:0:0:0:
207,248,15418,2,0,P|212:217|234:118,1,118.999996368408,2|2,0:0|0:0,0:0:0:0:
169,36,16010,2,0,P|198:18|269:27,1,89.2499972763062,2|0,0:0|0:0,0:0:0:0:
289,46,16405,6,0,B|362:32|362:32|414:57,1,118.999996368408,2|2,0:0|0:0,0:0:0:0:
488,122,17194,2,0,P|475:176|464:246,1,118.999996368408,2|2,0:0|0:0,0:0:0:0:
384,288,17787,2,0,P|334:311|272:287,1,118.999996368408,2|2,0:0|0:0,0:0:0:0:
209,206,18379,1,2,0:0:0:0:
270,102,18576,2,0,B|173:79|208:154|97:130,1,178.499994552612,2|0,0:0|0:0,0:0:0:0:
370,102,19563,6,0,P|375:70|383:29,2,59.4999981842042,2|2|2,0:0|0:0|0:0,0:0:0:0:
301,171,20155,1,2,0:0:0:0:
301,171,20352,2,0,P|311:217|322:298,1,118.999996368408,2|0,0:0|0:0,0:0:0:0:
239,355,20944,2,0,P|199:368|112:335,1,118.999996368408,2|0,0:0|0:0,0:0:0:0:
63,263,21537,2,0,P|65:235|68:203,1,59.4999981842042,2|0,0:0|0:0,0:0:0:0:
26,121,21931,2,0,P|80:95|138:102,1,118.999996368408,2|0,0:0|0:0,0:0:0:0:
231,168,22523,1,2,0:0:0:0:
231,168,22721,6,0,B|250:196|264:207|264:207|246:283,1,118.999996368408,2|2,0:0|0:0,0:0:0:0:
387,108,23510,2,0,B|368:136|354:147|354:147|372:223,1,118.999996368408,2|2,0:0|0:0,0:0:0:0:
304,70,24102,2,0,P|250:49|184:61,1,118.999996368408,2|2,0:0|0:0,0:0:0:0:
114,121,24694,2,0,P|126:157|143:236,1,118.999996368408
214,320,25287,1,2,0:0:0:0:
214,320,25484,2,0,P|251:313|279:308,1,59.4999981842042,2|0,0:0|0:0,0:0:0:0:
371,227,25879,6,0,B|385:246|400:264|400:264|372:346,1,118.999996368408,2|2,0:0|0:0,0:0:0:0:
265,160,26668,2,0,B|250:179|236:197|236:197|264:279,1,118.999996368408,2|2,0:0|0:0,0:0:0:0:
349,112,27260,2,0,P|301:77|243:75,1,118.999996368408,2|0,0:0|0:0,0:0:0:0:
134,47,27852,2,0,P|145:86|158:166,1,118.999996368408,0|2,0:0|0:0,0:0:0:0:
224,234,28444,1,2,0:0:0:0:
224,234,28642,2,0,P|217:271|211:303,1,59.4999981842042,2|0,0:0|0:0,0:0:0:0:
22,303,29037,6,0,P|66:270|142:274,1,118.999996368408,2|2,0:0|0:0,0:0:0:0:
222,345,29826,2,0,P|273:372|330:360,1,118.999996368408,2|2,0:0|0:0,0:0:0:0:
397,270,30418,1,2,0:0:0:0:
279,159,30582,6,0,B|264:189|249:208|249:208|281:298,1,136,2|0,0:0|0:0,0:0:0:0:
367,114,31063,2,0,P|319:74|234:85,1,136,2|2,0:0|1:2,0:0:0:0:
167,170,31544,1,10,0:0:0:0:
13,71,31889,6,0,P|24:119|40:240,1,161.499995687485,4|8,1:2|0:0,0:0:0:0:
106,318,32370,2,0,B|202:312|157:258|260:249,1,161.499995687485,2|0,0:0|1:2,0:0:0:0:
379,340,32851,2,0,P|386:291|392:250,1,80.7499978437424,10|2,0:0|1:2,0:0:0:0:
280,125,33172,5,2,0:0:0:0:
371,252,33332,1,0,1:2:0:0:
454,85,33493,2,0,P|410:90|368:96,1,80.7499978437424,10|0,0:0|0:0,0:0:0:0:
290,241,33814,2,0,P|334:246|376:252,1,80.7499978437424,2|0,0:0|1:2,0:0:0:0:
181,89,34134,2,0,P|190:128|197:183,1,80.7499978437424,10|0,0:0|0:0,0:0:0:0:
104,312,34455,6,0,P|151:268|251:274,1,161.499995687485,6|8,1:2|0:0,0:0:0:0:
341,359,34937,2,0,B|354:337|381:317|381:317|342:206,1,161.499995687485,2|0,0:0|1:2,0:0:0:0:
460,99,35418,2,0,P|453:141|447:190,1,80.7499978437424,10|0,0:0|1:2,0:0:0:0:
248,74,35739,5,2,0:0:0:0:
340,192,35899,1,0,1:2:0:0:
417,20,36060,2,0,P|371:27|331:34,1,80.7499978437424,8|0,0:0|0:0,0:0:0:0:
250,178,36380,2,0,P|296:185|336:192,1,80.7499978437424,2|0,0:0|1:2,0:0:0:0:
219,52,36701,1,8,0:0:0:0:
147,198,36862,1,8,0:0:0:0:
24,51,37022,6,0,P|41:106|59:234,2,161.499995687485,6|8|0,1:2|0:0|0:0,0:0:0:0:
130,124,37824,1,0,1:2:0:0:
201,18,37985,2,0,P|238:4|288:10,1,80.7499978437424,10|2,0:0|1:2,0:0:0:0:
413,127,38306,6,0,P|418:96|430:42,1,80.7499978437424,2|0,0:0|1:2,0:0:0:0:
268,146,38626,2,0,P|276:185|283:225,1,80.7499978437424,10|0,0:0|0:0,0:0:0:0:
421,305,38947,2,0,P|427:265|436:225,1,80.7499978437424,2|0,0:0|1:2,0:0:0:0:
246,343,39268,1,10,0:0:0:0:
359,227,39429,1,0,1:2:0:0:
205,186,39589,5,14,1:2:0:0:
326,351,39749,1,0,1:2:0:0:
339,147,39910,5,8,0:0:0:0:
180,302,40070,2,0,B|86:308|129:250|28:253,1,161.499995687485,6|0,1:2|1:2,0:0:0:0:
188,129,40552,2,0,P|178:176|170:222,1,80.7499978437424,14|0,1:2|1:2,0:0:0:0:
28,90,40872,5,10,1:2:0:0:
156,2,41033,2,0,P|196:7|235:16,1,80.7499978437424,4|0,1:2|0:0,0:0:0:0:
306,146,41353,1,0,1:2:0:0:
446,12,41514,2,0,P|438:51|430:98,1,80.7499978437424,10|0,0:0|1:2,0:0:0:0:
324,170,41835,1,0,1:2:0:0:
324,170,41995,1,8,0:0:0:0:
467,248,42156,6,0,P|481:308|434:376,1,136,4|8,1:2|0:0,0:0:0:0:
343,355,42637,1,2,0:0:0:0:
343,355,42798,2,0,P|310:350|268:344,1,68,2|0,0:0|1:2,0:0:0:0:
230,244,43118,2,0,P|264:233|296:227,1,68,10|0,0:0|0:0,0:0:0:0:
150,344,43439,6,0,B|137:325|113:309|113:309|142:216,1,136,2|8,1:2|0:0,0:0:0:0:
74,149,43921,2,0,P|120:113|196:120,1,136,2|0,0:0|1:2,0:0:0:0:
295,234,44402,2,0,P|262:227|219:221,1,68,8|0,0:0|0:0,0:0:0:0:
406,124,44723,6,0,B|419:154|434:166|434:166|406:250,1,136,2|8,1:2|0:0,0:0:0:0:
329,350,45204,2,0,P|365:340|411:332,1,68,2|0,0:0|0:0,0:0:0:0:
273,234,45525,1,2,1:2:0:0:
273,234,45685,1,10,0:0:0:0:
217,347,45846,1,2,0:0:0:0:
123,232,46006,6,0,P|132:272|139:314,1,68,0|0,1:2|1:2,0:0:0:0:
175,121,46327,2,0,P|141:111|107:99,1,68,10|0,0:0|0:0,0:0:0:0:
229,242,46648,2,0,P|261:230|293:221,1,68,2|0,0:0|1:2,0:0:0:0:
271,77,46969,2,0,P|262:113|254:159,1,68,10|0,0:0|0:0,0:0:0:0:
375,279,47290,6,0,B|390:250|404:235|404:235|364:144,1,136,0|10,1:2|0:0,0:0:0:0:
453,72,47771,1,2,0:0:0:0:
348,5,47931,2,0,P|307:12|266:21,1,68,2|0,0:0|1:2,0:0:0:0:
216,134,48252,2,0,P|257:141|302:150,1,68,10|0,0:0|0:0,0:0:0:0:
118,39,48573,6,0,P|88:81|112:172,1,136,0|10,1:2|0:0,0:0:0:0:
50,261,49054,1,2,0:0:0:0:
161,313,49215,2,0,P|155:276|147:228,1,68,2|0,0:0|1:2,0:0:0:0:
269,189,49536,2,0,P|263:222|258:256,1,68,10|0,0:0|0:0,0:0:0:0:
341,368,49856,6,0,P|381:322|374:232,1,136,2|8,1:2|0:0,0:0:0:0:
493,199,50338,1,0,0:0:0:0:
364,145,50498,2,0,P|372:188|378:229,1,68,2|0,0:0|1:2,0:0:0:0:
510,29,50819,1,8,0:0:0:0:
438,130,50979,1,2,0:0:0:0:
351,6,51140,6,0,P|314:13|265:24,1,68,6|0,1:2|1:2,0:0:0:0:
214,116,51461,1,10,0:0:0:0:
126,33,51621,2,0,L|134:-3,2,34,2|0|8,1:2|1:2|0:3,0:0:0:0:
45,122,51942,1,10,0:3:0:0:
121,193,52102,1,6,0:3:0:0:
121,193,52263,1,4,0:3:0:0:
40,300,52423,6,0,B|126:271|98:343|194:312,1,152.999995330811,4|8,1:2|0:0,0:0:0:0:
279,244,52905,1,2,0:0:0:0:
370,356,53065,2,0,P|376:311|382:272,1,76.4999976654053,2|0,0:0|1:2,0:0:0:0:
252,207,53386,2,0,P|257:244|262:282,1,76.4999976654053,10|0,0:0|0:0,0:0:0:0:
354,123,53707,6,0,P|311:88|216:98,1,152.999995330811,2|8,1:2|0:0,0:0:0:0:
120,70,54188,2,0,P|140:117|155:223,1,152.999995330811,2|0,0:0|1:2,0:0:0:0:
190,316,54669,2,0,P|158:333|118:332,1,76.4999976654053,8|0,0:0|0:0,0:0:0:0:
272,206,54990,6,0,B|290:234|308:250|308:250|279:369,1,152.999995330811,2|8,1:2|0:0,0:0:0:0:
376,372,55471,2,0,P|391:297|407:222,1,152.999995330811,2|2,0:0|1:2,0:0:0:0:
327,119,55953,1,10,0:0:0:0:
406,222,56113,1,2,0:0:0:0:
493,91,56274,6,0,P|483:128|476:169,1,76.4999976654053,0|0,1:2|1:2,0:0:0:0:
381,25,56594,2,0,P|417:7|461:10,1,76.4999976654053,10|0,0:0|0:0,0:0:0:0:
321,132,56915,2,0,P|283:131|249:114,1,76.4999976654053,2|0,0:0|1:2,0:0:0:0:
150,39,57236,2,0,P|159:77|167:129,1,76.4999976654053,10|0,0:0|0:0,0:0:0:0:
120,242,57557,6,0,P|80:232|40:223,1,76.4999976654053,0|0,1:2|0:0,0:0:0:0:
177,329,57878,1,10,0:0:0:0:
177,329,58038,1,2,0:0:0:0:
256,206,58199,2,0,P|262:243|270:298,1,76.4999976654053,2|0,0:0|1:2,0:0:0:0:
382,355,58520,2,0,P|387:317|393:279,1,76.4999976654053,10|0,0:0|0:0,0:0:0:0:
475,174,58840,6,0,P|432:163|391:155,1,76.4999976654053,2|0,1:2|1:2,0:0:0:0:
331,40,59161,2,0,P|374:29|415:21,1,76.4999976654053,10|0,0:0|0:0,0:0:0:0:
266,177,59482,2,0,P|263:150|255:95,1,76.4999976654053,2|0,0:0|1:2,0:0:0:0:
166,12,59803,2,0,P|160:49|156:87,1,76.4999976654053,10|0,0:0|0:0,0:0:0:0:
85,215,60124,6,0,P|131:204|243:183,1,152.999995330811,2|8,1:2|0:0,0:0:0:0:
319,260,60605,1,0,0:0:0:0:
425,145,60766,2,0,P|419:191|413:236,1,76.4999976654053,2|0,0:0|1:2,0:0:0:0:
432,355,61086,2,0,P|465:360|513:340,1,76.4999976654053,8|0,0:0|0:0,0:0:0:0:
334,244,61407,5,2,1:2:0:0:
250,350,61568,1,0,1:2:0:0:
250,350,61728,2,0,P|245:313|236:260,1,76.4999976654053,8|0,0:0|1:2,0:0:0:0:
134,207,62049,2,0,P|127:244|122:282,1,76.4999976654053,8|0,0:0|1:2,0:0:0:0:
243,149,62370,1,8,0:3:0:0:
243,149,62530,1,4,0:3:0:0:
117,52,62691,6,0,P|151:36|189:38,1,76.4999976654053,4|2,1:2|0:0,0:0:0:0:
294,90,63011,1,2,0:0:0:0:
294,90,63172,1,2,1:2:0:0:
392,0,63332,2,0,P|385:36|379:75,1,76.4999976654053,10|2,0:0|1:2,0:0:0:0:
448,163,63653,2,0,P|455:200|460:245,1,76.4999976654053,2|0,0:0|0:0,0:0:0:0:
393,348,63974,5,2,1:2:0:0:
393,348,64134,1,10,0:0:0:0:
313,258,64295,1,2,0:0:0:0:
313,258,64455,1,2,1:2:0:0:
226,374,64616,2,0,P|268:363|315:353,1,76.4999976654053,8|0,0:0|1:2,0:0:0:0:
213,262,64937,2,0,P|171:251|124:241,1,76.4999976654053
37,152,65257,5,0,1:2:0:0:
125,71,65418,2,0,B|208:49|184:116|269:94,1,152.999995330811,2|2,0:0|1:2,0:0:0:0:
365,25,65899,1,10,0:0:0:0:
365,25,66060,1,2,1:2:0:0:
445,118,66220,2,0,P|436:162|429:211,1,76.4999976654053,2|2,0:0|0:0,0:0:0:0:
364,304,66541,5,2,1:2:0:0:
364,304,66701,1,10,0:0:0:0:
285,213,66862,1,2,0:0:0:0:
285,213,67022,2,0,P|244:223|206:232,1,76.4999976654053,2|8,1:2|0:0,0:0:0:0:
57,190,67343,1,2,1:2:0:0:
138,302,67503,1,10,0:0:0:0:
216,150,67664,1,10,0:2:0:0:
216,150,67744,1,0,1:0:0:0:
216,150,67824,6,0,P|206:83|188:0,2,152.999995330811,6|8|2,1:2|0:0|0:0,0:0:0:0:
293,241,68626,1,0,1:2:0:0:
385,123,68787,2,0,P|357:110|308:115,1,76.4999976654053,8|0,0:0|0:0,0:0:0:0:
465,226,69108,6,0,P|474:173|483:128,1,76.4999976654053,2|0,1:2|1:2,0:0:0:0:
376,308,69429,2,0,P|383:345|389:383,1,76.4999976654053,8|0,0:0|0:0,0:0:0:0:
291,217,69749,1,2,0:0:0:0:
231,341,69910,1,0,1:2:0:0:
133,222,70070,2,0,P|176:212|213:204,1,76.4999976654053,8|0,0:0|1:2,0:0:0:0:
407,251,70391,5,14,0:0:0:0:
286,161,70552,1,0,1:2:0:0:
436,82,70712,2,0,P|429:124|424:166,1,85,14|0,0:0|1:2,0:0:0:0:
253,76,71033,1,14,0:0:0:0:
320,237,71194,1,0,1:2:0:0:
407,76,71354,1,14,0:0:0:0:
211,188,71514,6,0,P|166:191|125:170,1,85,6|0,1:2|0:0,0:0:0:0:
243,36,71835,2,0,P|281:19|323:22,1,85,6|0,1:2|0:0,0:0:0:0:
442,113,72156,2,0,P|434:158|427:209,1,85,6|0,1:2|0:0,0:0:0:0:
370,324,72477,1,6,1:2:0:0:
255,158,72637,2,0,P|263:203|270:254,1,85,8|0,0:0|0:0,0:0:0:0:
147,371,72958,6,0,B|109:339|109:339|134:232|134:233,1,140.25000428009,4|0,1:2|0:0,0:0:0:0:
106,208,73279,2,0,P|59:218|14:230,1,93.5000028533936,14|0,0:2|0:0,0:0:0:0:
108,57,73600,2,0,P|155:67|200:79,1,93.5000028533936,2|0,0:0|1:2,0:0:0:0:
241,253,73921,2,0,P|247:211|259:148,1,93.5000028533936,10|0,0:0|0:0,0:0:0:0:
356,46,74241,6,0,P|317:27|253:32,1,93.5000028533936,2|0,1:2|1:2,0:0:0:0:
398,192,74562,1,10,0:0:0:0:
510,59,74723,2,0,P|503:113|496:181,1,93.5000028533936,2|0,0:0|0:0,0:0:0:0:
408,281,75044,1,2,1:2:0:0:
339,138,75204,1,10,0:0:0:0:
497,236,75364,1,2,0:0:0:0:
312,366,75525,6,0,B|282:335|282:335|306:237,1,140.25000428009,6|0,1:2|0:0,0:0:0:0:
285,205,75846,2,0,P|246:222|193:212,1,93.5000028533936,14|0,0:2|0:0,0:0:0:0:
108,75,76167,2,0,P|153:66|196:84,1,93.5000028533936,2|0,0:0|1:2,0:0:0:0:
38,239,76487,2,0,P|31:194|19:138,1,93.5000028533936,10|0,0:0|0:0,0:0:0:0:
166,341,76808,6,0,P|121:350|63:322,1,93.5000028533936,2|0,1:2|1:2,0:0:0:0:
209,192,77129,1,10,0:0:0:0:
316,359,77290,2,0,P|323:312|333:267,1,93.5000028533936,2|0,0:0|0:0,0:0:0:0:
385,108,77610,1,2,1:2:0:0:
240,201,77771,1,10,0:0:0:0:
422,288,77931,1,2,0:0:0:0:
287,111,78092,6,0,P|243:86|144:112,1,140.25000428009,6|0,1:2|0:0,0:0:0:0:
126,136,78413,2,0,P|134:186|141:238,1,93.5000028533936,14|0,0:2|0:0,0:0:0:0:
248,333,78733,2,0,P|254:286|261:240,1,93.5000028533936,2|0,0:0|1:2,0:0:0:0:
368,111,79054,2,0,P|375:157|381:203,1,93.5000028533936,10|0,0:0|0:0,0:0:0:0:
229,40,79375,6,0,P|274:19|332:28,1,93.5000028533936,2|0,1:2|1:2,0:0:0:0:
175,169,79696,1,10,0:0:0:0:
78,30,79856,2,0,P|72:76|67:133,1,93.5000028533936,2|0,0:0|0:0,0:0:0:0:
22,251,80177,1,2,1:2:0:0:
175,169,80338,2,0,P|181:215|186:272,1,93.5000028533936,10|0,0:0|0:0,0:0:0:0:
329,352,80659,6,0,P|394:362|485:286,2,187.000005706787,2|8|2,1:2|0:0|0:0,0:0:0:0:
223,260,81461,1,0,1:2:0:0:
373,184,81621,2,0,P|362:235|353:289,1,93.5000028533936,8|0,0:0|0:0,0:0:0:0:
202,56,81942,5,14,0:0:0:0:
285,202,82102,1,10,0:3:0:0:
365,51,82263,1,6,0:3:0:0:
194,158,82423,2,0,P|153:150|100:142,1,93.5000028533936,6|0,1:2|0:0,0:0:0:0:
354,275,82744,1,6,1:2:0:0:
276,118,82905,1,8,0:0:0:0:
181,278,83065,1,8,0:0:0:0:
181,278,83145,1,8,0:0:0:0:
181,278,83225,6,0,P|126:299|49:266,1,140.25000428009,4|0,1:2|0:0,0:0:0:0:
21,252,83546,2,0,P|26:206|33:142,1,93.5000028533936,14|0,0:2|0:0,0:0:0:0:
119,30,83867,2,0,P|76:15|14:29,1,93.5000028533936,2|0,0:0|1:2,0:0:0:0:
154,164,84188,2,0,P|199:170|243:155,1,93.5000028533936,10|0,0:0|0:0,0:0:0:0:
317,14,84509,6,0,P|324:65|329:123,1,93.5000028533936,2|0,1:2|1:2,0:0:0:0:
277,229,84830,1,10,0:0:0:0:
428,135,84990,2,0,P|421:186|416:244,1,93.5000028533936,2|0,0:0|0:0,0:0:0:0:
254,332,85311,1,2,1:2:0:0:
344,187,85471,1,10,0:0:0:0:
411,343,85632,1,2,0:0:0:0:
251,210,85792,6,0,B|240:192|221:175|221:175|249:75,1,140.25000428009,6|0,1:2|0:0,0:0:0:0:
227,44,86113,2,0,P|185:51|122:65,1,93.5000028533936,14|0,0:2|0:0,0:0:0:0:
17,141,86434,2,0,P|12:103|2:43,1,93.5000028533936,2|0,0:0|1:2,0:0:0:0:
142,184,86755,2,0,P|134:230|128:276,1,93.5000028533936,10|0,0:0|0:0,0:0:0:0:
289,352,87076,6,0,P|246:368|201:358,1,93.5000028533936,2|0,1:2|1:2,0:0:0:0:
343,215,87397,1,10,0:0:0:0:
440,375,87557,2,0,P|446:328|454:282,1,93.5000028533936,2|0,0:0|0:0,0:0:0:0:
417,149,87878,1,2,1:2:0:0:
327,296,88038,1,10,0:0:0:0:
483,208,88199,1,2,0:0:0:0:
309,103,88359,6,0,P|249:78|169:103,1,140.25000428009,6|0,1:2|0:0,0:0:0:0:
140,122,88680,2,0,P|146:166|152:232,1,93.5000028533936,10|0,0:0|0:0,0:0:0:0:
97,345,89001,2,0,P|50:362|4:347,1,93.5000028533936,2|0,0:0|1:2,0:0:0:0:
150,214,89322,2,0,P|194:202|237:219,1,93.5000028533936,10|0,0:0|0:0,0:0:0:0:
345,360,89643,6,0,P|350:322|357:267,1,93.5000028533936,2|0,1:2|1:2,0:0:0:0:
438,173,89963,1,10,0:0:0:0:
318,69,90124,2,0,P|375:56|420:48,1,93.5000028533936,2|0,0:0|0:0,0:0:0:0:
261,197,90445,1,2,1:2:0:0:
166,41,90605,2,0,P|160:87|155:133,1,93.5000028533936,10|0,0:0|1:2,0:0:0:0:
69,303,90926,5,14,0:0:0:0:
186,212,91086,1,0,1:2:0:0:
34,124,91247,2,0,P|43:178|49:231,1,93.5000028533936,10|0,0:0|1:2,0:0:0:0:
245,339,91568,1,10,0:0:0:0:
164,190,91728,1,0,1:2:0:0:
81,345,91889,1,10,0:0:0:0:
276,228,92049,6,0,B|389:207|389:207|455:262,1,187.000005706787,6|6,1:2|1:2,0:0:0:0:
245,339,92530,1,2,0:0:0:0:
164,190,92691,2,0,B|139:221|114:239|114:239|148:369,1,187.000005706787,6|8,1:2|0:0,0:0:0:0:
251,150,93172,1,8,0:3:0:0:
251,150,93332,1,4,0:3:0:0:
87,87,93493,6,0,P|90:127|94:173,2,68,6|2|2,1:2|0:0|0:0,0:0:0:0:
159,14,93974,1,2,0:0:0:0:
159,14,94134,2,0,P|221:1|297:36,1,136,2|0,0:0|0:0,0:0:0:0:
389,15,94616,2,0,P|381:52|362:157,1,136,2|0,0:0|0:0,0:0:0:0:
274,119,95097,2,0,P|282:156|301:261,1,136,2|2,0:0|0:0,0:0:0:0:
357,354,95578,1,8,0:0:0:0:
357,354,95739,1,8,0:0:0:0:
224,265,95899,1,10,0:0:0:0:
402,181,96060,6,0,P|396:226|389:288,1,93.5000028533936,6|0,1:2|0:0,0:0:0:0:
272,88,96380,2,0,P|314:69|363:75,1,93.5000028533936,10|0,0:0|1:2,0:0:0:0:
224,249,96701,2,0,P|178:253|135:234,1,93.5000028533936,10|0,0:0|1:2,0:0:0:0:
24,140,97022,1,10,0:0:0:0:
192,47,97183,6,0,P|184:99|178:158,1,93.5000028533936,6|0,1:2|0:0,0:0:0:0:
45,245,97503,2,0,P|39:198|32:152,1,93.5000028533936,2|8,1:2|0:0,0:0:0:0:
194,332,97824,2,0,P|149:351|95:339,1,93.5000028533936,4|0,1:2|0:0,0:0:0:0:
253,199,98145,1,2,1:2:0:0:
352,363,98306,2,0,P|359:313|367:256,1,93.5000028533936,10|0,0:0|0:0,0:0:0:0:
430,63,98626,5,6,1:2:0:0:
342,197,98787,1,0,1:0:0:0:
226,32,98947,2,0,P|274:22|321:15,1,93.5000028533936,10|0,0:0|1:2,0:0:0:0:
253,199,99268,2,0,P|259:149|268:85,1,93.5000028533936,10|0,0:0|1:2,0:0:0:0:
184,291,99589,1,10,0:0:0:0:
342,197,99749,1,2,1:2:0:0:
173,121,99910,6,0,P|127:112|85:129,1,93.5000028533936,10|0,0:0|1:2,0:0:0:0:
192,299,100231,2,0,P|235:317|289:302,1,93.5000028533936,8|0,0:0|1:2,0:0:0:0:
431,196,100552,1,8,0:0:0:0:
352,355,100712,1,0,1:2:0:0:
270,193,100872,1,8,0:0:0:0:
447,311,101033,1,0,1:2:0:0:
447,311,101113,1,0,1:2:0:0:
447,311,101193,6,0,P|455:262|464:207,1,93.5000028533936,10|0,0:0|0:0,0:0:0:0:
410,62,101514,2,0,P|457:46|507:56,1,93.5000028533936,10|0,0:0|1:2,0:0:0:0:
367,210,101835,2,0,P|321:216|277:200,1,93.5000028533936,10|0,0:0|1:2,0:0:0:0:
220,65,102156,1,10,0:0:0:0:
123,194,102316,6,0,B|110:221|85:249|85:249|136:370,1,187.000005706787,6|0,1:2|1:2,0:0:0:0:
206,262,102798,1,0,1:2:0:0:
38,168,102958,1,6,1:2:0:0:
275,13,103760,6,0,P|264:65|244:190,1,170,6|8,1:2|0:0,0:0:0:0:
287,305,104241,1,0,1:2:0:0:
287,305,104322,1,8,0:3:0:0:
287,305,104402,1,4,0:3:0:0:
154,208,104562,2,0,P|165:264|171:303,1,85,0|8,1:2|0:3,0:0:0:0:
296,170,104883,1,4,0:3:0:0:
162,81,105044,5,8,0:0:0:0:
338,6,105204,2,0,P|393:67|383:148,1,170,4|0,1:2|1:2,0:0:0:0:
339,262,105685,1,12,0:0:0:0:
339,262,105846,1,0,1:2:0:0:
458,187,106006,1,8,0:3:0:0:
458,187,106167,1,4,0:3:0:0:
308,90,106327,6,0,P|272:93|181:109,1,118.999996368408,4|0,1:2|0:0,0:0:0:0:
108,72,106808,1,2,0:0:0:0:
108,72,106969,2,0,B|96:95|79:110|79:110|105:186,1,118.999996368408,2|2,0:0|0:0,0:0:0:0:
57,294,107610,6,0,P|90:264|168:264,1,118.999996368408,2|0,0:0|0:0,0:0:0:0:
234,325,108092,2,0,P|267:355|345:355,1,118.999996368408,2|0,0:0|0:0,0:0:0:0:
421,302,108573,1,0,0:0:0:0:
275,167,108894,6,0,P|286:204|299:296,1,118.999996368408,2|0,0:0|0:0,0:0:0:0:
397,120,109375,2,0,P|386:157|373:249,1,118.999996368408,2|2,0:0|0:0,0:0:0:0:
292,72,109856,2,0,P|260:79|227:87,1,59.4999981842042,2|2,0:0|0:0,0:0:0:0:
125,49,110177,6,0,B|140:69|157:78|157:78|140:167,1,118.999996368408,2|0,0:0|0:0,0:0:0:0:
54,236,110819,2,0,B|38:215|22:207|22:207|39:118,1,118.999996368408,2|0,0:0|0:0,0:0:0:0:
175,327,111461,5,2,0:0:0:0:
281,229,111782,2,0,P|287:265|300:350,2,118.999996368408,2|2|2,0:0|0:0|0:0,0:0:0:0:
333,115,112744,6,0,P|284:94|208:121,1,118.999996368408,2|2,0:0|0:0,0:0:0:0:
147,183,113386,2,0,P|98:204|22:177,1,118.999996368408,2|2,0:0|0:0,0:0:0:0:
222,109,114028,6,0,B|239:142|260:166|260:166|225:291,1,178.499994552612,2|0,0:0|0:0,0:0:0:0:
279,355,114669,2,0,P|318:358|362:331,1,89.2499972763062,2|0,0:0|0:0,0:0:0:0:
390,316,114990,2,0,P|394:280|405:219,1,89.2499972763062
434,186,115311,5,2,0:0:0:0:
308,55,115632,1,0,0:0:0:0:
247,176,115792,1,0,1:2:0:0:
247,176,115872,1,0,1:2:0:0:
247,176,115953,2,0,P|218:166|180:162,1,59.4999981842042,8|8,0:3|0:3,0:0:0:0:
123,65,116274,1,4,0:3:0:0:
123,65,116434,1,4,0:3:0:0:
51,186,116594,6,0,P|61:223|83:345,1,152.999995330811,4|2,1:2|0:0,0:0:0:0:
228,194,117236,1,10,0:0:0:0:
228,194,117397,1,8,0:3:0:0:
300,287,117557,1,6,0:3:0:0:
359,163,117717,6,0,P|401:153|437:146,1,76.4999976654053,6|2,1:2|0:0,0:0:0:0:
291,302,118038,2,0,P|249:292|213:285,1,76.4999976654053,4|2,1:2|0:0,0:0:0:0:
111,191,118359,2,0,P|77:257|104:326,1,152.999995330811,6|0,1:2|1:2,0:0:0:0:
216,190,118840,1,8,0:0:0:0:
216,190,119001,1,8,0:0:0:0:
93,88,119161,6,0,P|158:74|256:59,1,152.999995330811,4|2,1:2|0:0,0:0:0:0:
388,160,119803,1,10,0:0:0:0:
485,56,119963,1,10,0:3:0:0:
485,56,120044,1,8,0:3:0:0:
485,56,120124,2,0,L|491:99,1,38.2499988327027,6|4,0:3|0:3,0:0:0:0:
512,220,120284,6,0,P|475:231|429:218,1,76.4999976654053,6|0,1:2|0:0,0:0:0:0:
331,85,120605,2,0,P|368:77|404:88,1,76.4999976654053,6|0,1:2|0:0,0:0:0:0:
274,230,120926,2,0,P|269:194|261:145,1,76.4999976654053,6|0,1:2|0:0,0:0:0:0:
186,58,121247,1,10,0:0:0:0:
186,58,121407,1,10,0:0:0:0:
120,169,121568,1,10,0:0:0:0:
9,60,121728,6,0,P|26:121|42:226,2,152.999995330811,6|8|2,1:2|0:0|0:0,0:0:0:0:
118,127,122530,1,0,1:2:0:0:
185,23,122691,2,0,P|227:28|271:34,1,76.4999976654053,8|0,0:0|0:0,0:0:0:0:
412,92,123011,6,0,P|419:51|428:10,1,76.4999976654053,2|0,1:2|1:2,0:0:0:0:
288,143,123332,2,0,P|295:180|302:218,1,76.4999976654053,8|0,0:0|0:0,0:0:0:0:
433,275,123653,2,0,P|440:234|449:193,1,76.4999976654053,2|0,0:0|1:2,0:0:0:0:
256,283,123974,2,0,P|263:320|270:358,1,76.4999976654053,8|0,0:0|1:2,0:0:0:0:
247,381,124215,1,0,1:2:0:0:
247,381,124295,5,14,0:0:0:0:
171,248,124455,1,0,1:2:0:0:
82,383,124616,2,0,P|73:336|59:276,1,85,14|0,0:0|1:2,0:0:0:0:
143,131,124937,1,14,0:0:0:0:
1,235,125097,1,0,1:2:0:0:
155,285,125257,1,14,0:0:0:0:
55,145,125418,6,0,P|62:93|70:52,1,85,6|0,1:2|0:0,0:0:0:0:
212,204,125739,2,0,P|205:152|197:111,1,85,6|0,1:2|0:0,0:0:0:0:
330,115,126060,2,0,P|337:63|345:22,1,85,6|0,1:2|0:0,0:0:0:0:
439,205,126380,1,2,1:2:0:0:
439,205,126461,1,0,1:2:0:0:
439,205,126541,2,0,L|431:264,3,42.5,8|8|4|4,0:3|0:3|0:3|0:3,0:0:0:0:
429,292,126862,6,0,P|384:324|299:300,1,140.25000428009,4|0,1:2|0:0,0:0:0:0:
281,271,127183,2,0,P|237:281|162:298,1,93.5000028533936,14|0,0:2|0:0,0:0:0:0:
260,130,127503,2,0,P|304:140|379:157,1,93.5000028533936,2|0,0:0|1:2,0:0:0:0:
125,73,127824,2,0,P|131:119|138:177,1,93.5000028533936,10|0,0:0|0:0,0:0:0:0:
121,343,128145,6,0,P|74:362|28:353,1,93.5000028533936,2|0,1:2|1:2,0:0:0:0:
200,213,128466,1,10,0:0:0:0:
284,368,128626,2,0,P|290:320|299:264,1,93.5000028533936,2|0,0:0|0:0,0:0:0:0:
336,121,128947,1,2,1:2:0:0:
419,263,129108,1,10,0:0:0:0:
485,120,129268,1,2,0:0:0:0:
310,204,129429,6,0,B|259:198|259:198|229:212|229:212|153:204,1,140.25000428009,6|0,1:2|0:0,0:0:0:0:
142,180,129749,2,0,P|138:151|127:86,1,93.5000028533936,14|0,0:2|0:0,0:0:0:0:
273,4,130070,2,0,P|264:50|258:96,1,93.5000028533936,2|0,0:0|1:2,0:0:0:0:
384,197,130391,2,0,P|377:150|369:104,1,93.5000028533936,10|0,0:0|0:0,0:0:0:0:
335,332,130712,6,0,P|380:340|426:350,1,93.5000028533936,2|0,1:2|1:2,0:0:0:0:
260,195,131033,1,10,0:0:0:0:
209,346,131193,2,0,P|163:354|117:364,1,93.5000028533936,2|0,0:0|0:0,0:0:0:0:
23,220,131514,1,2,1:2:0:0:
117,363,131675,1,10,0:0:0:0:
181,200,131835,1,2,0:0:0:0:
14,320,131995,6,0,P|10:264|-3:159,1,140.25000428009,6|0,1:2|0:0,0:0:0:0:
4,144,132316,2,0,P|35:123|91:122,1,93.5000028533936,14|0,0:2|0:0,0:0:0:0:
188,248,132637,2,0,P|141:249|102:225,1,93.5000028533936,2|0,0:0|1:2,0:0:0:0:
215,58,132958,2,0,P|223:112|231:172,1,93.5000028533936,10|0,0:0|0:0,0:0:0:0:
334,273,133279,6,0,P|384:283|432:265,1,93.5000028533936,2|0,1:2|1:2,0:0:0:0:
510,173,133600,1,10,0:0:0:0:
383,85,133760,2,0,P|375:139|367:199,1,93.5000028533936,2|0,0:0|0:0,0:0:0:0:
302,298,134081,1,2,1:2:0:0:
188,146,134241,2,0,P|196:200|204:260,1,93.5000028533936,10|0,0:0|0:0,0:0:0:0:
104,333,134562,6,0,P|161:365|278:316,2,187.000005706787,2|8|2,1:2|0:0|0:0,0:0:0:0:
38,236,135364,1,0,1:2:0:0:
188,146,135525,2,0,P|180:200|172:260,1,93.5000028533936,8|0,0:0|1:0,0:0:0:0:
151,258,135766,1,0,1:0:0:0:
151,258,135846,5,14,0:0:0:0:
92,111,136006,1,10,0:3:0:0:
266,186,136167,1,6,0:3:0:0:
74,101,136327,2,0,P|82:155|90:215,1,93.5000028533936,6|0,1:2|0:0,0:0:0:0:
203,26,136648,1,6,1:2:0:0:
266,186,136808,1,8,0:0:0:0:
384,34,136969,1,8,0:0:0:0:
384,34,137049,1,8,0:0:0:0:
384,34,137129,6,0,B|400:58|421:74|421:74|394:177,1,140.25000428009,4|0,1:2|0:0,0:0:0:0:
371,186,137450,2,0,P|379:239|385:288,1,93.5000028533936,14|0,0:2|0:0,0:0:0:0:
283,357,137771,2,0,P|325:375|369:364,1,93.5000028533936,2|0,0:0|1:2,0:0:0:0:
224,235,138092,2,0,P|179:223|137:242,1,93.5000028533936,10|0,0:0|0:0,0:0:0:0:
46,356,138413,6,0,P|41:309|32:246,1,93.5000028533936,2|0,1:2|1:2,0:0:0:0:
118,153,138733,1,10,0:0:0:0:
212,327,138894,2,0,P|217:280|226:217,1,93.5000028533936,2|0,0:0|0:0,0:0:0:0:
319,99,139215,1,2,1:2:0:0:
388,240,139375,1,10,0:0:0:0:
243,143,139536,1,2,0:0:0:0:
393,46,139696,6,0,P|431:76|441:183,1,140.25000428009,6|0,1:2|0:0,0:0:0:0:
404,201,140017,2,0,P|370:190|313:179,1,93.5000028533936,14|0,0:2|0:0,0:0:0:0:
227,50,140338,2,0,P|261:39|318:28,1,93.5000028533936,2|0,0:0|1:2,0:0:0:0:
184,228,140659,2,0,P|180:192|166:124,1,93.5000028533936,10|0,0:0|0:0,0:0:0:0:
286,340,140979,6,0,P|240:360|189:349,1,93.5000028533936,2|0,1:2|1:2,0:0:0:0:
339,215,141300,1,10,0:0:0:0:
439,370,141461,2,0,P|444:324|452:278,1,93.5000028533936,2|0,0:0|0:0,0:0:0:0:
379,109,141782,1,2,1:2:0:0:
512,204,141942,1,10,0:0:0:0:
349,252,142102,1,2,0:0:0:0:
501,98,142263,6,0,P|479:52|389:36,1,140.25000428009,6|0,1:2|0:0,0:0:0:0:
366,57,142584,2,0,P|319:46|272:37,1,93.5000028533936,10|0,0:0|0:0,0:0:0:0:
224,195,142905,2,0,P|270:184|318:175,1,93.5000028533936,2|0,0:0|1:2,0:0:0:0:
161,30,143225,2,0,P|155:88|150:134,1,93.5000028533936,10|0,0:0|0:0,0:0:0:0:
102,301,143546,6,0,P|55:311|9:321,1,93.5000028533936,2|0,1:2|1:2,0:0:0:0:
169,148,143867,1,10,0:0:0:0:
242,313,144028,2,0,P|289:323|335:333,1,93.5000028533936,2|0,0:0|0:0,0:0:0:0:
447,213,144348,1,2,1:2:0:0:
288,153,144509,2,0,P|295:199|300:245,1,93.5000028533936,10|0,0:0|1:2,0:0:0:0:
454,44,144830,5,14,0:0:0:0:
371,186,144990,1,0,1:2:0:0:
293,28,145151,2,0,P|250:17|198:36,1,93.5000028533936,10|0,0:0|1:2,0:0:0:0:
88,192,145471,1,10,0:0:0:0:
224,109,145632,1,0,1:2:0:0:
80,46,145792,1,10,0:0:0:0:
199,216,145953,6,0,P|282:199|382:180,1,187.000005706787,6|6,1:2|1:2,0:0:0:0:
262,315,146434,1,2,0:0:0:0:
126,161,146594,2,0,B|113:196|94:223|94:223|143:331,1,187.000005706787,6|8,1:2|0:0,0:0:0:0:
228,125,147076,1,8,0:3:0:0:
228,125,147236,1,4,0:3:0:0:
81,46,147397,6,0,P|128:13|215:19,1,140.25000428009,6|0,1:2|0:0,0:0:0:0:
240,45,147717,2,0,P|286:38|349:32,1,93.5000028533936,14|2,0:0|1:2,0:0:0:0:
367,62,147958,1,0,1:0:0:0:
367,62,148038,1,2,1:2:0:0:
485,0,148199,2,0,P|476:51|470:102,1,93.5000028533936,4|0,1:2|0:0,0:0:0:0:
512,230,148520,6,0,B|409:205|450:287|336:260,1,187.000005706787,14|0,0:0|1:2,0:0:0:0:
177,316,149001,1,10,0:0:0:0:
267,187,149161,1,2,0:0:0:0:
345,348,149322,2,0,P|297:339|242:329,1,93.5000028533936,2|0,1:2|1:2,0:0:0:0:
173,213,149643,1,8,0:0:0:0:
100,360,149803,1,2,0:0:0:0:
0,203,149963,6,0,P|5:252|10:304,1,93.5000028533936,6|0,1:2|0:0,0:0:0:0:
153,137,150284,2,0,P|148:182|143:238,1,93.5000028533936,10|0,0:0|1:2,0:0:0:0:
0,60,150605,2,0,P|42:41|88:45,1,93.5000028533936,10|0,0:0|1:2,0:0:0:0:
171,159,150926,1,10,0:0:0:0:
265,13,151086,6,0,P|272:60|278:114,1,93.5000028533936,6|0,1:2|0:0,0:0:0:0:
405,180,151407,2,0,P|410:134|417:87,1,93.5000028533936,2|8,1:2|0:0,0:0:0:0:
512,322,151728,2,0,P|472:291|377:311,1,140.25000428009,4|0,1:2|0:0,0:0:0:0:
362,335,152049,1,2,1:2:0:0:
280,212,152209,1,10,0:0:0:0:
186,348,152370,1,0,1:0:0:0:
186,348,152450,1,0,1:0:0:0:
186,348,152530,5,6,1:2:0:0:
94,210,152691,1,0,1:0:0:0:
13,360,152851,2,0,P|7:313|-4:245,1,93.5000028533936,10|0,0:0|1:2,0:0:0:0:
191,106,153172,1,10,0:0:0:0:
153,269,153332,1,0,1:2:0:0:
22,129,153493,1,10,0:0:0:0:
79,296,153653,1,2,1:2:0:0:
191,106,153814,6,0,P|236:111|284:119,1,93.5000028533936,10|0,0:0|1:2,0:0:0:0:
330,278,154134,2,0,P|285:283|237:291,1,93.5000028533936,8|0,0:0|1:2,0:0:0:0:
408,130,154455,2,0,P|415:172|421:223,1,93.5000028533936,8|0,0:0|1:2,0:0:0:0:
353,354,154776,1,8,0:0:0:0:
260,202,154937,1,0,1:2:0:0:
260,202,155017,1,0,1:2:0:0:
260,202,155097,5,10,0:0:0:0:
182,348,155257,1,0,0:0:0:0:
71,196,155418,2,0,P|79:242|84:289,1,93.5000028533936,10|0,0:0|1:2,0:0:0:0:
247,66,155739,1,10,0:0:0:0:
171,239,155899,1,0,1:2:0:0:
79,74,156060,1,10,0:0:0:0:
272,178,156220,6,0,B|392:157|392:157|419:183|442:208,1,187.000005706787,6|0,1:2|1:2,0:0:0:0:
501,307,156701,1,8,0:0:0:0:
355,345,156862,2,0,P|362:299|369:253,1,93.5000028533936,6|8,1:2|0:0,0:0:0:0:
196,324,157183,1,8,0:3:0:0:
272,178,157343,1,8,0:3:0:0:
355,345,157503,1,4,0:3:0:0:
173,229,157664,6,0,P|134:239|59:261,1,95.6250036478044,4|0,1:2|0:0,0:0:0:0:
65,214,157985,2,0,P|120:198|175:183,1,95.6250036478044,4|0,1:2|0:0,0:0:0:0:
183,147,158306,1,2,0:0:0:0:
391,32,159589,1,0,0:0:0:0:
391,32,159749,2,0,B|403:61|421:78|421:78|391:193,1,159.375006079674,2|0,0:0|0:0,0:0:0:0:
367,212,160231,6,0,P|331:217|256:230,1,95.6250036478044,6|0,1:2|0:0,0:0:0:0:
278,269,160552,2,0,P|325:261|372:254,1,95.6250036478044,6|0,1:2|0:0,0:0:0:0:
406,284,160872,1,2,0:0:0:0:
195,364,162156,1,0,0:0:0:0:
195,364,162316,2,0,P|190:328|152:182,1,159.375006079674,2|0,0:0|0:0,0:0:0:0:
179,172,162798,6,0,P|222:153|269:157,1,95.6250036478044,6|0,1:2|0:0,0:0:0:0:
263,118,163118,2,0,P|216:114|173:133,1,95.6250036478044,6|0,1:2|0:0,0:0:0:0:
130,109,163439,1,2,0:0:0:0:
398,22,164723,1,0,0:0:0:0:
398,22,164883,2,0,P|402:81|410:192,1,159.375006079674,2|0,0:0|0:0,0:0:0:0:
400,221,165364,6,0,P|357:240|311:231,1,95.6250036478044,6|0,1:2|0:0,0:0:0:0:
312,268,165685,2,0,P|358:277|401:258,1,95.6250036478044,6|0,1:2|0:0,0:0:0:0:
446,278,166006,1,2,0:0:0:0:
240,337,167290,1,0,0:0:0:0:
144,269,167450,1,2,1:2:0:0:
270,190,167610,2,0,P|265:228|260:279,1,72.2500013780594,8|0,0:0|0:0,0:0:0:0:
112,76,167931,6,0,P|154:64|198:52,1,85,4|0,1:2|0:0,0:0:0:0:
270,190,168252,2,0,P|228:178|184:166,1,85,10|0,0:0|0:0,0:0:0:0:
316,14,168573,1,2,1:2:0:0:
316,14,168733,2,0,P|310:56|302:111,1,85,2|10,0:0|0:0,0:0:0:0:
350,238,169054,1,2,0:0:0:0:
462,130,169215,5,2,1:2:0:0:
462,130,169375,2,0,P|469:169|476:227,1,85,2|8,0:0|0:0,0:0:0:0:
411,338,169696,2,0,P|453:342|495:317,1,85,2|0,0:0|1:2,0:0:0:0:
350,238,170017,1,2,0:0:0:0:
295,361,170177,1,10,0:0:0:0:
295,361,170338,1,2,0:0:0:0:
204,245,170498,6,0,P|159:256|117:268,1,85,2|0,1:2|0:0,0:0:0:0:
227,127,170819,2,0,P|272:138|314:150,1,85,10|0,0:0|0:0,0:0:0:0:
116,80,171140,1,2,1:2:0:0:
116,80,171300,2,0,P|109:137|103:188,1,85,2|10,0:0|0:0,0:0:0:0:
41,287,171621,1,2,0:0:0:0:
204,245,171782,5,2,1:2:0:0:
204,245,171942,2,0,P|211:302|217:353,1,85,2|8,0:0|0:0,0:0:0:0:
318,154,172263,2,0,P|280:137|231:146,1,85,2|0,0:0|1:2,0:0:0:0:
365,281,172584,1,2,0:0:0:0:
365,281,172744,2,0,P|406:286|444:269,1,85,10|2,0:0|0:0,0:0:0:0:
499,118,173065,6,0,P|506:162|513:217,1,85,6|0,1:2|0:0,0:0:0:0:
387,25,173386,2,0,B|378:71|370:121,1,85,10|0,0:0|0:0,0:0:0:0:
288,197,173707,1,2,1:2:0:0:
288,197,173867,2,0,P|245:208|200:194,1,85,2|10,0:0|0:0,0:0:0:0:
125,88,174188,1,2,0:0:0:0:
50,217,174348,5,2,1:2:0:0:
50,217,174509,2,0,P|58:261|65:308,1,85,2|8,0:0|0:0,0:0:0:0:
218,220,174830,2,0,P|173:231|125:245,1,85,2|0,0:0|1:2,0:0:0:0:
222,348,175151,2,0,P|267:359|315:373,1,85,2|10,0:0|0:0,0:0:0:0:
364,234,175471,1,2,0:0:0:0:
456,373,175632,6,0,P|462:328|471:265,1,85,6|0,1:2|1:2,0:0:0:0:
345,212,175953,2,0,P|350:254|356:296,1,85,10|0,0:0|1:2,0:0:0:0:
492,158,176274,1,10,0:0:0:0:
492,158,176434,1,10,0:0:0:0:
368,44,176595,2,0,P|363:86|357:128,1,85,10|10,0:0|0:0,0:0:0:0:
254,261,176915,5,10,0:0:0:0:
352,164,177076,1,10,0:0:0:0:
201,96,177236,2,0,P|247:84|303:74,1,85,10|10,0:0|0:0,0:0:0:0:
85,286,177557,1,10,0:0:0:0:
219,179,177717,1,2,1:2:0:0:
51,101,177878,2,0,P|57:143|65:200,1,85,14|0,0:0|1:2,0:0:0:0:
163,326,178199,6,0,B|259:322|222:266|316:260,1,170,4|8,1:2|0:0,0:0:0:0:
402,332,178680,2,0,B|414:306|434:285|434:285|394:171,1,170,2|2,0:0|1:2,0:0:0:0:
462,81,179161,1,10,0:0:0:0:
462,81,179322,1,2,0:0:0:0:
337,0,179482,6,0,P|329:42|320:96,1,85,2|2,1:2|1:2,0:0:0:0:
278,189,179803,1,10,0:0:0:0:
152,87,179963,2,0,P|166:145|186:260,1,170,2|2,0:0|1:2,0:0:0:0:
231,359,180445,2,0,P|186:366|146:343,1,85,8|2,0:0|0:0,0:0:0:0:
289,232,180766,1,0,1:2:0:0:
373,352,180926,5,2,0:0:0:0:
373,352,181086,2,0,P|380:315|389:261,1,85,10|2,0:0|0:0,0:0:0:0:
473,180,181407,1,2,0:0:0:0:
473,180,181568,1,2,1:2:0:0:
366,70,181728,2,0,P|404:50|450:54,1,85,10|0,0:0|0:0,0:0:0:0:
320,199,182049,6,0,P|277:189|229:182,1,85,2|2,1:2|1:2,0:0:0:0:
179,59,182370,2,0,P|222:49|270:42,1,85,10|2,0:0|0:0,0:0:0:0:
146,184,182691,1,2,0:0:0:0:
47,83,182851,1,2,1:2:0:0:
47,83,183011,2,0,P|43:133|39:181,1,85,10|2,0:0|0:0,0:0:0:0:
0,326,183332,6,0,P|40:283|156:290,1,170,6|8,1:2|0:0,0:0:0:0:
234,365,183814,2,0,B|296:354|296:354|323:321|323:321|388:312,1,170,2|2,0:0|1:2,0:0:0:0:
494,366,184295,1,10,0:0:0:0:
494,366,184455,1,2,0:0:0:0:
416,231,184616,6,0,P|369:236|323:243,1,85,2|2,1:2|1:2,0:0:0:0:
257,112,184937,1,10,0:0:0:0:
257,112,185097,2,0,P|299:102|349:124,1,85,2|0,0:0|0:0,0:0:0:0:
226,235,185418,1,2,1:2:0:0:
226,235,185578,2,0,P|182:241|132:219,1,85,10|2,0:0|0:0,0:0:0:0:
18,172,185899,6,0,P|26:231|30:276,1,85,2|2,1:2|0:0,0:0:0:0:
163,98,186220,2,0,P|155:157|151:202,1,85,10|2,0:0|0:0,0:0:0:0:
0,41,186541,2,0,P|47:30|89:22,1,85,2|2,0:0|1:2,0:0:0:0:
180,115,186862,1,10,0:0:0:0:
180,115,187022,1,2,0:0:0:0:
293,0,187183,6,0,P|297:41|303:92,1,85,2|2,1:2|1:2,0:0:0:0:
261,200,187503,1,10,0:0:0:0:
261,200,187664,1,2,0:0:0:0:
405,103,187824,2,0,P|400:144|395:195,1,85,2|2,0:0|1:2,0:0:0:0:
380,320,188145,1,10,0:0:0:0:
380,320,188306,1,10,0:0:0:0:
261,200,188466,6,0,P|213:208|163:218,1,93.5000028533936,6|0,1:2|0:0,0:0:0:0:
321,62,188787,2,0,P|369:70|419:80,1,93.5000028533936,8|0,0:0|1:2,0:0:0:0:
464,243,189108,1,8,0:0:0:0:
352,155,189268,1,0,1:2:0:0:
511,55,189429,2,0,P|503:100|496:156,1,93.5000028533936,10|0,0:0|1:2,0:0:0:0:
374,297,189749,6,0,P|418:307|461:290,1,93.5000028533936,10|0,0:0|1:2,0:0:0:0:
310,176,190070,1,8,0:0:0:0:
244,331,190231,1,2,1:2:0:0:
131,192,190391,2,0,P|178:181|229:171,1,93.5000028533936,8|2,0:0|1:2,0:0:0:0:
351,87,190712,1,10,0:0:0:0:
171,0,190872,1,2,1:2:0:0:
171,0,190953,1,0,1:2:0:0:
171,0,191033,6,0,B|129:45|129:45|166:138,1,152.999995330811,14|0,0:0|1:2,0:0:0:0:
237,223,191514,2,0,B|324:212|285:170|375:158,1,152.999995330811,8|0,0:3|1:2,0:0:0:0:
469,240,191995,1,4,0:3:0:0:
469,240,192156,1,0,1:2:0:0:
512,65,192316,6,0,B|474:54|409:39,2,101.999996887207,12|8|4,0:0|0:3|0:3,0:0:0:0:
371,158,192958,2,0,B|309:172|271:182,2,101.999996887207,8|4|4,0:3|0:3|1:3,0:0:0:0:
227,60,193600,5,4,1:2:0:0:
504,115,200979,5,10,0:0:0:0:
502,95,201059,1,0,1:2:0:0:
500,76,201139,1,0,1:2:0:0:
498,57,201219,1,8,0:3:0:0:
495,38,201300,6,0,B|444:20|372:43|416:69|353:115|275:81,1,237.999992736817,6|2,1:2|0:0,0:0:0:0:
166,12,202263,2,0,P|161:45|154:100,1,72.2500013780594,0|0,0:0|1:2,0:0:0:0:
128,110,202503,1,0,1:2:0:0:
128,110,202584,5,14,0:0:0:0:
200,247,202744,1,10,0:3:0:0:
267,111,202905,1,6,0:3:0:0:
101,208,203065,2,0,P|109:252|116:297,1,85,6|0,1:2|0:0,0:0:0:0:
244,358,203386,1,6,1:2:0:0:
244,358,203546,2,0,P|289:364|333:344,1,85,8|0,0:0|0:0,0:0:0:0:
455,200,203867,6,0,B|369:183|369:183|320:228,1,140.25000428009,4|0,1:2|0:0,0:0:0:0:
293,246,204188,2,0,P|248:238|196:231,1,93.5000028533936,14|0,0:2|0:0,0:0:0:0:
283,95,204509,2,0,P|328:87|380:80,1,93.5000028533936,2|0,0:0|1:2,0:0:0:0:
161,30,204830,2,0,P|154:82|148:134,1,93.5000028533936,10|0,0:0|0:0,0:0:0:0:
124,301,205151,6,0,P|81:295|28:288,1,93.5000028533936,2|0,1:2|1:2,0:0:0:0:
184,160,205471,1,10,0:0:0:0:
251,313,205632,2,0,P|294:307|347:300,1,93.5000028533936,2|0,0:0|0:0,0:0:0:0:
501,206,205953,1,2,1:2:0:0:
419,354,206113,1,10,0:0:0:0:
349,204,206274,1,2,0:0:0:0:
495,306,206434,6,0,P|503:236|515:165,1,140.25000428009,6|0,1:2|0:0,0:0:0:0:
502,126,206755,2,0,P|464:106|406:113,1,93.5000028533936,14|0,0:2|0:0,0:0:0:0:
321,245,207076,2,0,P|367:248|408:228,1,93.5000028533936,2|0,0:0|1:2,0:0:0:0:
291,61,207397,2,0,P|284:111|277:170,1,93.5000028533936,10|0,0:0|0:0,0:0:0:0:
188,308,207717,6,0,P|244:320|296:295,1,93.5000028533936,2|0,1:2|1:2,0:0:0:0:
147,180,208038,1,10,0:0:0:0:
61,331,208199,2,0,P|54:278|44:212,1,93.5000028533936,2|0,0:0|0:0,0:0:0:0:
193,69,208520,1,2,1:2:0:0:
130,215,208680,1,10,0:0:0:0:
46,75,208840,1,2,0:0:0:0:
222,159,209001,6,0,P|273:171|364:131,1,140.25000428009,6|0,1:2|0:0,0:0:0:0:
384,108,209322,2,0,P|393:152|402:208,1,93.5000028533936,10|0,0:0|0:0,0:0:0:0:
423,324,209643,2,0,P|471:328|516:298,1,93.5000028533936,2|0,0:0|1:2,0:0:0:0:
326,219,209963,2,0,P|280:214|235:237,1,93.5000028533936,10|0,0:0|0:0,0:0:0:0:
149,355,210284,6,0,B|143:309|132:250|132:251,1,93.5000028533936,2|0,1:2|1:2,0:0:0:0:
200,135,210605,1,10,0:0:0:0:
311,311,210766,2,0,B|317:265|328:206|328:207,1,93.5000028533936,2|0,0:0|0:0,0:0:0:0:
415,119,211086,1,2,1:2:0:0:
296,24,211247,2,0,P|349:14|403:6,1,93.5000028533936,10|0,0:0|1:2,0:0:0:0:
254,198,211568,5,14,0:0:0:0:
122,103,211728,1,0,1:2:0:0:
296,24,211888,2,0,P|292:70|288:131,1,93.5000028533936,10|0,0:0|1:2,0:0:0:0:
123,253,212209,1,10,0:0:0:0:
216,92,212370,1,0,1:2:0:0:
299,253,212530,1,10,0:0:0:0:
139,156,212691,6,0,B|121:184|103:211|103:211|148:333,1,187.000005706787,6|6,1:2|1:2,0:0:0:0:
272,376,213172,1,2,0:0:0:0:
387,250,213332,2,0,P|341:213|216:247,1,187.000005706787,6|8,1:2|0:0,0:0:0:0:
390,353,213814,1,8,0:3:0:0:
390,353,213974,1,4,0:3:0:0:
481,232,214134,6,0,P|487:273|493:316,2,68,6|2|2,1:2|0:0|0:0,0:0:0:0:
497,129,214616,1,2,0:0:0:0:
497,129,214776,2,0,P|466:107|362:121,1,136,2|0,0:0|0:0,0:0:0:0:
301,53,215257,6,0,P|285:109|277:205,1,136,2|0,0:0|0:0,0:0:0:0:
189,154,215739,2,0,P|204:210|215:302,1,136,2|2,0:0|0:0,0:0:0:0:
303,373,216220,1,8,0:0:0:0:
303,373,216380,1,8,0:0:0:0:
376,254,216541,1,10,0:0:0:0:
481,378,216701,6,0,P|487:333|496:274,1,93.5000028533936,6|0,1:2|0:0,0:0:0:0:
340,188,217022,2,0,P|347:231|353:280,1,93.5000028533936,10|0,0:0|1:2,0:0:0:0:
510,97,217343,2,0,P|468:81|419:91,1,93.5000028533936,10|0,0:0|1:2,0:0:0:0:
340,188,217664,1,10,0:0:0:0:
226,57,217824,6,0,P|234:105|241:165,1,93.5000028533936,6|0,1:2|0:0,0:0:0:0:
143,308,218145,1,2,1:2:0:0:
270,233,218306,1,8,0:0:0:0:
136,126,218466,2,0,P|128:174|121:234,1,93.5000028533936,4|0,1:2|0:0,0:0:0:0:
234,359,218787,1,2,1:2:0:0:
301,221,218947,2,0,P|347:206|403:221,1,93.5000028533936,10|0,0:0|1:0,0:0:0:0:
421,233,219188,1,0,1:0:0:0:
421,233,219268,5,6,1:2:0:0:
320,120,219429,1,0,1:0:0:0:
489,38,219589,2,0,P|481:89|475:139,1,93.5000028533936,10|0,0:0|1:2,0:0:0:0:
333,212,219910,2,0,P|327:165|319:119,1,93.5000028533936,10|0,0:0|1:2,0:0:0:0:
496,338,220230,1,10,0:0:0:0:
410,190,220391,1,2,1:2:0:0:
314,350,220552,6,0,P|267:342|217:336,1,93.5000028533936,10|0,0:0|1:2,0:0:0:0:
85,206,220872,2,0,P|132:198|182:192,1,93.5000028533936,8|0,0:0|1:2,0:0:0:0:
326,84,221193,1,8,0:0:0:0:
246,255,221354,1,0,1:2:0:0:
163,86,221514,1,8,0:0:0:0:
340,203,221675,1,0,1:2:0:0:
340,203,221755,1,0,1:2:0:0:
340,203,221835,6,0,P|346:253|351:300,1,93.5000028533936,10|0,0:0|0:0,0:0:0:0:
512,96,222156,1,10,0:0:0:0:
433,251,222316,1,0,1:2:0:0:
342,78,222477,2,0,P|299:63|250:73,1,93.5000028533936,10|0,0:0|1:2,0:0:0:0:
186,217,222798,1,10,0:0:0:0:
79,82,222958,6,0,B|54:112|30:135|30:135|67:255,1,187.000005706787,6|0,1:2|1:2,0:0:0:0:
199,328,223439,1,0,1:2:0:0:
260,163,223600,1,6,1:2:0:0:
451,8,224081,6,0,P|447:47|444:85,1,63.75,2|0,0:0|0:0,0:0:0:0:
441,112,224402,6,0,B|342:116|387:56|271:62,1,170,6|8,1:2|0:0,0:0:0:0:
194,1,224883,2,0,B|182:26|160:51|160:51|195:160,1,170,2|2,0:0|1:2,0:0:0:0:
147,262,225364,1,10,0:0:0:0:
289,158,225525,6,0,P|326:207|306:326,1,170,2|2,1:2|1:2,0:0:0:0:
203,375,226006,2,0,P|199:343|193:281,1,85,10|0,0:0|0:0,0:0:0:0:
167,130,226327,1,2,0:0:0:0:
57,231,226487,1,0,1:2:0:0:
219,274,226648,2,0,P|222:241|229:180,1,85,8|0,0:0|0:0,0:0:0:0:
90,85,226969,6,0,P|125:49|243:56,1,170,2|8,1:2|0:0,0:0:0:0:
316,145,227450,1,2,0:0:0:0:
417,21,227610,2,0,P|411:64|406:110,1,85,0|2,0:0|1:2,0:0:0:0:
457,239,227931,1,10,0:0:0:0:
316,145,228092,6,0,B|297:177|274:196|274:196|312:312,1,170,2|2,1:2|1:2,0:0:0:0:
221,365,228573,2,0,P|177:372|131:346,1,85,10|2,0:0|0:0,0:0:0:0:
6,243,228894,1,2,0:0:0:0:
65,360,229054,1,0,1:2:0:0:
165,194,229215,2,0,P|156:242|147:293,1,85,10|0,0:0|0:0,0:0:0:0:
16,103,229536,6,0,B|75:86|75:86|120:103|120:103|178:86,1,170,2|10,1:2|0:0,0:0:0:0:
249,11,230017,2,0,B|271:37|296:53|296:53|261:154,1,170,2|2,0:0|1:2,0:0:0:0:
321,265,230498,1,10,0:0:0:0:
422,157,230659,6,0,P|471:223|457:305,1,170,2|2,1:2|1:2,0:0:0:0:
358,365,231140,2,0,P|315:357|254:349,1,85,10|0,0:0|0:0,0:0:0:0:
125,266,231461,1,2,0:0:0:0:
198,381,231621,1,0,1:2:0:0:
292,227,231782,2,0,P|285:274|280:315,1,85,8|2,0:0|1:2,0:0:0:0:
346,89,232102,5,10,0:0:0:0:
209,179,232263,1,0,1:2:0:0:
377,239,232423,1,8,0:0:0:0:
244,95,232584,2,0,P|202:87|163:103,1,85,6|0,1:2|0:0,0:0:0:0:
42,184,232905,1,10,0:0:0:0:
100,57,233065,1,8,0:0:0:0:
209,179,233225,6,0,P|201:228|195:282,1,85,6|2,1:2|0:0,0:0:0:0:
249,363,233546,1,10,0:0:0:0:
122,284,233707,1,10,0:0:0:0:
280,216,233867,2,0,P|326:222|367:229,1,85,6|0,1:2|0:0,0:0:0:0:
117,126,234188,1,0,1:2:0:0:
117,126,234268,1,0,1:2:0:0:
117,126,234348,2,0,L|124:178,3,42.5,10|8|4|4,0:3|0:3|0:3|0:3,0:0:0:0:
140,79,234669,6,0,P|171:49|297:63,1,170,6|10,1:2|0:0,0:0:0:0:
393,15,235151,2,0,P|381:59|359:187,1,170,2|2,0:0|0:0,0:0:0:0:
392,298,235632,1,10,0:0:0:0:
267,201,235792,6,0,B|178:189|212:255|101:237,1,170,2|2,0:0|0:0,0:0:0:0:
0,182,236274,2,0,P|9:227|14:274,1,85,10|2,0:0|0:0,0:0:0:0:
134,107,236594,2,0,P|125:152|120:199,1,85,2|0,1:2|0:0,0:0:0:0:
0,26,236915,2,0,P|39:9|88:13,1,85,8|0,0:0|0:0,0:0:0:0:
208,111,237236,6,0,B|314:106|260:55|370:43,1,170,2|8,1:2|0:0,0:0:0:0:
462,3,237717,2,0,B|483:33|504:48|504:48|471:173,1,170,2|2,0:0|0:0,0:0:0:0:
510,275,238199,1,10,0:0:0:0:
380,175,238359,6,0,P|340:214|361:340,1,170,2|2,0:0|0:0,0:0:0:0:
275,373,238840,2,0,P|226:365|188:359,1,85,10|2,0:0|0:0,0:0:0:0:
76,278,239161,2,0,P|86:322|95:368,1,85,2|0,1:2|0:0,0:0:0:0:
228,198,239482,2,0,P|218:242|209:288,1,85,8|0,0:0|0:0,0:0:0:0:
53,117,239803,6,0,B|161:90|161:90|213:128,1,170,2|10,1:2|0:0,0:0:0:0:
300,239,240284,2,0,B|322:208|343:189|343:189|306:71,1,170,2|2,0:0|0:0,0:0:0:0:
392,1,240766,1,10,0:0:0:0:
505,101,240926,6,0,P|483:179|474:284,1,170,2|2,0:0|0:0,0:0:0:0:
388,369,241407,2,0,P|429:374|469:360,1,85,10|0,0:0|0:0,0:0:0:0:
342,242,241728,2,0,P|302:227|260:233,1,85,2|0,1:2|0:0,0:0:0:0:
178,362,242049,2,0,P|171:317|160:263,1,85,8|0,0:0|0:0,0:0:0:0:
213,111,242370,5,14,0:0:0:0:
37,238,242530,1,2,1:2:0:0:
75,66,242691,5,10,0:0:0:0:
188,246,242851,1,2,1:2:0:0:
267,47,243011,6,0,P|312:54|365:64,1,85,8|2,0:0|1:2,0:0:0:0:
389,204,243332,1,10,0:0:0:0:
512,53,243493,6,0,P|491:135|482:219,1,170,6|10,1:2|0:0,0:0:0:0:
396,343,243974,2,0,P|446:336|501:325,1,85,10|2,0:0|1:2,0:0:0:0:
354,154,244295,1,10,0:0:0:0:
263,318,244455,1,0,1:2:0:0:
200,131,244616,1,10,0:0:0:0:
324,275,244776,1,8,0:3:0:0:
411,88,244937,6,0,B|319:34|168:97|274:151|142:235|15:164,1,440.725002689972,6|0,1:2|0:0,0:0:0:0:
