osu file format v14

[General]
AudioFilename: audio.mp3
AudioLeadIn: 0
PreviewTime: 72878
Countdown: 0
SampleSet: Soft
StackLeniency: 0.5
Mode: 0
LetterboxInBreaks: 0
WidescreenStoryboard: 1

[Editor]
DistanceSpacing: 1
BeatDivisor: 4
GridSize: 8
TimelineZoom: 1.4

[Metadata]
Title:One In A Billion
TitleUnicode:One In A Billion
Artist:Wake Up, May'n!
ArtistUnicode:Wake Up, May'n!
Creator:A r M i N
Version:Kuki's Extra
Source:異世界食堂
Tags:isekai shokudou restaurant to another world wake up girls! opening op anime japanese pop j-pop Armin A_r_M_i_N Kuki1537 Elinor [_Eli_] Pepekcz Rosiie shokudo jpop eli PEACE of SMILE full ver version
BeatmapID:2643264
BeatmapSetID:1264800

[Difficulty]
HPDrainRate:5.4
CircleSize:3.8
OverallDifficulty:9
ApproachRate:9.2
SliderMultiplier:1.8
SliderTickRate:1

[Events]
//Background and Video events
0,0,"bg.jpg",0,0
//Break Periods
2,193800,200409
2,214334,215650
//Storyboard Layer 0 (Background)
//Storyboard Layer 1 (Fail)
//Storyboard Layer 2 (Pass)
//Storyboard Layer 3 (Foreground)
//Storyboard Layer 4 (Overlay)
//Storyboard Sound Samples

[TimingPoints]
616,394.736842105263,4,2,1,60,1,0
6931,-166.666666666667,4,2,1,60,0,0
30582,320.855614973262,4,2,1,60,1,0
30582,-133.333333333333,4,2,1,60,0,0
31889,320.855614973262,4,2,1,70,1,0
31889,-105.263157894737,4,2,1,70,0,0
42156,-125,4,2,1,60,0,0
52423,-125,4,2,1,65,0,0
62691,-142.857142857143,4,2,1,70,0,0
67824,-117.647058823529,4,2,1,70,0,0
72958,-100,4,2,1,80,0,1
73199,-100,4,2,1,5,0,1
73279,-100,4,2,1,80,0,1
75766,-100,4,2,1,5,0,1
75846,-100,4,2,1,80,0,1
78332,-100,4,2,1,5,0,1
78413,-100,4,2,1,80,0,1
83466,-100,4,2,1,5,0,1
83546,-100,4,2,1,80,0,1
86033,-100,4,2,1,5,0,1
86113,-100,4,2,1,80,0,1
88600,-100,4,2,1,5,0,1
88680,-100,4,2,1,80,0,1
93493,-125,4,2,1,60,0,0
96060,-100,4,2,1,80,0,1
96300,-100,4,2,1,5,0,1
96380,-100,4,2,1,80,0,1
98867,-100,4,2,1,5,0,1
98947,-100,4,2,1,80,0,1
101434,-100,4,2,1,5,0,1
101514,-100,4,2,1,80,0,1
102958,-100,4,2,1,70,0,0
103760,-111.111111111111,4,2,1,70,0,0
106327,-166.666666666666,4,2,1,60,0,0
116594,-125,4,2,1,70,0,0
121728,-117.647058823529,4,2,1,70,0,0
126862,-100,4,2,1,80,0,1
127102,-100,4,2,1,5,0,1
127183,-100,4,2,1,80,0,1
129669,-100,4,2,1,5,0,1
129749,-100,4,2,1,80,0,1
132236,-100,4,2,1,5,0,1
132316,-100,4,2,1,80,0,1
137370,-100,4,2,1,5,0,1
137450,-100,4,2,1,80,0,1
139937,-100,4,2,1,5,0,1
140017,-100,4,2,1,80,0,1
142503,-100,4,2,1,5,0,1
142584,-100,4,2,1,80,0,1
147637,-100,4,2,1,5,0,1
147717,-100,4,2,1,80,0,1
150204,-100,4,2,1,5,0,1
150284,-100,4,2,1,80,0,1
152771,-100,4,2,1,5,0,1
152851,-100,4,2,1,80,0,1
155338,-100,4,2,1,5,0,1
155418,-100,4,2,1,80,0,1
157664,-125,4,2,1,60,0,0
167931,-105.263157894737,4,2,1,70,0,0
188466,-105.263157894737,4,2,1,80,0,0
191033,-105.263157894737,4,2,1,70,0,0
192316,-133.333333333334,4,2,1,70,0,0
193600,-133.333333333334,4,2,1,50,0,0
201300,-166.666666666667,4,2,1,60,0,0
202584,-166.666666666667,4,2,1,70,0,0
203065,-117.647058823529,4,2,1,70,0,0
203867,-100,4,2,1,80,0,1
204108,-100,4,2,1,5,0,1
204188,-100,4,2,1,80,0,1
206675,-100,4,2,1,5,0,1
206755,-100,4,2,1,80,0,1
209241,-100,4,2,1,5,0,1
209321,-100,4,2,1,80,0,1
214134,-100,4,2,1,60,0,0
216701,-100,4,2,1,80,0,1
216942,-100,4,2,1,5,0,1
217022,-100,4,2,1,80,0,1
219509,-100,4,2,1,5,0,1
219589,-100,4,2,1,80,0,1
222076,-100,4,2,1,5,0,1
222156,-100,4,2,1,80,0,1
223600,-100,4,2,1,70,0,1
224081,-142.857142857143,4,2,1,70,0,1
224321,-142.857142857143,4,2,1,5,0,1
224402,-111.111111111111,4,2,1,70,0,0
249830,-111.111111111111,4,2,1,5,0,0

[Colours]
Combo1 : 249,21,123
Combo2 : 0,128,192
Combo3 : 128,64,64
Combo4 : 255,128,128

[HitObjects]
256,192,3773,12,0,6537,0:0:0:0:
282,121,6931,6,0,P|241:93|174:106,1,107.999996704102,4|2,1:2|0:0,0:0:0:0:
129,165,7523,1,0,0:0:0:0:
129,165,7721,2,0,L|138:221,1,53.9999983520508,2|0,0:0|0:0,0:0:0:0:
91,318,8115,2,0,P|118:306|159:309,1,53.9999983520508,2|0,0:0|0:0,0:0:0:0:
235,355,8510,6,0,L|243:301,1,53.9999983520508,2|0,0:0|0:0,0:0:0:0:
326,224,8905,1,2,0:0:0:0:
326,224,9102,2,0,L|334:278,1,53.9999983520508,2|0,0:0|0:0,0:0:0:0:
414,361,9497,1,2,0:0:0:0:
414,361,9694,2,0,L|422:307,1,53.9999983520508,2|0,0:0|0:0,0:0:0:0:
492,220,10089,6,0,P|445:218|409:152,1,107.999996704102,0|2,0:0|0:0,0:0:0:0:
432,71,10681,1,0,0:0:0:0:
432,71,10879,2,0,P|393:82|358:74,1,53.9999983520508,2|0,0:0|0:0,0:0:0:0:
303,16,11273,2,0,P|264:5|229:13,1,53.9999983520508,2|0,0:0|0:0,0:0:0:0:
177,68,11668,6,0,L|188:128,1,53.9999983520508,2|0,0:0|0:0,0:0:0:0:
274,185,12063,1,2,0:0:0:0:
274,185,12260,2,0,L|263:245,1,53.9999983520508,2|0,0:0|0:0,0:0:0:0:
201,316,12655,1,2,0:0:0:0:
201,316,12852,2,0,P|170:303|135:305,1,53.9999983520508,2|0,0:0|0:0,0:0:0:0:
39,369,13247,6,0,B|65:334|65:334|48:252,1,107.999996704102,0|2,0:0|0:0,0:0:0:0:
0,194,13839,1,0,0:0:0:0:
0,194,14037,2,0,P|29:179|72:179,1,53.9999983520508,2|0,0:0|0:0,0:0:0:0:
134,215,14431,2,0,L|143:152,1,53.9999983520508,2|0,0:0|0:0,0:0:0:0:
108,77,14826,6,0,P|136:70|172:77,1,53.9999983520508,2|0,0:0|0:0,0:0:0:0:
237,143,15221,1,2,0:0:0:0:
237,143,15418,2,0,P|262:149|289:147,1,53.9999983520508,2|0,0:0|0:0,0:0:0:0:
371,86,15813,1,2,0:0:0:0:
371,86,16010,2,0,L|381:145,1,53.9999983520508,2|0,0:0|0:0,0:0:0:0:
445,216,16405,6,0,P|477:213|504:222,1,53.9999983520508,2|0,0:0|0:0,0:0:0:0:
462,304,16800,2,0,P|435:310|409:306,1,53.9999983520508,2|0,0:0|0:0,0:0:0:0:
352,231,17194,2,0,P|328:254|241:245,1,107.999996704102,2|2,0:0|0:0,0:0:0:0:
164,189,17787,6,0,L|155:244,1,53.9999983520508,2|0,0:0|0:0,0:0:0:0:
114,352,18181,1,2,0:0:0:0:
69,240,18379,1,2,0:0:0:0:
18,346,18576,1,2,0:0:0:0:
153,270,18773,2,0,B|192:265|192:265|218:278|218:278|258:273,1,107.999996704102
487,186,19563,6,0,L|431:177,1,53.9999983520508,2|2,0:0|0:0,0:0:0:0:
362,108,19958,2,0,L|308:116,1,53.9999983520508,2|2,0:0|0:0,0:0:0:0:
255,188,20352,2,0,P|230:161|228:78,1,107.999996704102,2|0,0:0|0:0,0:0:0:0:
261,8,20944,1,2,0:0:0:0:
261,8,21142,6,0,L|205:0,1,53.9999983520508
141,67,21537,2,0,L|87:74,1,53.9999983520508,2|0,0:0|0:0,0:0:0:0:
15,21,21931,2,0,B|-14:52|-14:52|8:134,1,107.999996704102,2|0,0:0|0:0,0:0:0:0:
86,170,22523,1,2,0:0:0:0:
86,170,22721,6,0,P|100:208|94:238,1,53.9999983520508,2|0,0:0|0:0,0:0:0:0:
16,278,23115,2,0,P|2:316|8:346,1,53.9999983520508,2|0,0:0|0:0,0:0:0:0:
88,384,23510,2,0,P|111:362|190:365,1,107.999996704102,2|2,0:0|0:0,0:0:0:0:
288,384,24102,6,0,L|278:327,1,53.9999983520508,2|0,0:0|0:0,0:0:0:0:
202,270,24497,1,2,0:0:0:0:
202,270,24694,2,0,L|223:155,1,107.999996704102
239,71,25287,1,2,0:0:0:0:
239,71,25484,2,0,P|273:88|300:87,1,53.9999983520508,2|0,0:0|0:0,0:0:0:0:
379,20,25879,6,0,L|388:79,1,53.9999983520508,2|0,0:0|0:0,0:0:0:0:
465,124,26273,2,0,L|456:183,1,53.9999983520508,2|0,0:0|0:0,0:0:0:0:
501,281,26668,2,0,P|462:261|390:278,1,107.999996704102,2|2,0:0|0:0,0:0:0:0:
340,351,27260,6,0,P|307:365|273:361,1,53.9999983520508,2|2,0:0|0:0,0:0:0:0:
215,300,27655,1,0,0:0:0:0:
215,300,27852,2,0,B|240:263|240:263|225:196,1,107.999996704102,0|2,0:0|0:0,0:0:0:0:
162,128,28444,1,2,0:0:0:0:
162,128,28642,2,0,L|173:66,1,53.9999983520508,2|0,0:0|0:0,0:0:0:0:
101,10,29037,6,0,P|65:-2|34:4,1,53.9999983520508,2|0,0:0|0:0,0:0:0:0:
3,102,29431,2,0,P|27:91|54:91,1,53.9999983520508,2|0,0:0|0:0,0:0:0:0:
90,183,29826,2,0,P|59:175|5:230,1,107.999996704102,2|2,0:0|0:0,0:0:0:0:
55,308,30418,1,2,0:0:0:0:
55,308,30582,6,0,B|1:283|-36:372|50:419|106:357|75:342|128:304|193:337,1,270.000010299683,2|0,0:0|0:0,0:0:0:0:
327,379,31384,1,2,1:2:0:0:
286,233,31544,2,0,L|277:299,1,67.5000025749208,10|2,0:0|0:0,0:0:0:0:
322,149,31889,6,0,B|278:121|230:152|244:156|202:181|159:160,1,170.999995433807,4|8,1:2|0:0,0:0:0:0:
53,37,32370,2,0,P|144:20|191:80,1,170.999995433807,2|0,0:0|1:2,0:0:0:0:
177,250,32851,1,10,0:0:0:0:
110,95,33011,1,2,1:2:0:0:
5,262,33172,6,0,P|46:280|95:271,1,85.4999977169037,2|0,0:0|1:2,0:0:0:0:
203,146,33493,2,0,L|190:232,1,85.4999977169037,10|0,0:0|0:0,0:0:0:0:
91,383,33814,1,2,0:0:0:0:
55,193,33974,1,0,1:2:0:0:
167,333,34134,2,0,P|213:338|266:308,1,85.4999977169037,10|0,0:0|0:0,0:0:0:0:
342,136,34455,6,0,B|291:178|291:178|320:282,1,170.999995433807,6|8,1:2|0:0,0:0:0:0:
512,274,34937,2,0,P|487:219|382:214,1,170.999995433807,2|0,0:0|1:2,0:0:0:0:
306,383,35418,1,10,0:0:0:0:
432,280,35578,1,0,1:2:0:0:
259,214,35739,6,0,P|214:209|166:235,1,85.4999977169037,2|0,0:0|1:2,0:0:0:0:
198,376,36060,2,0,P|224:339|226:284,1,85.4999977169037,8|0,0:0|0:0,0:0:0:0:
85,133,36380,1,2,0:0:0:0:
140,308,36541,1,0,1:2:0:0:
172,106,36701,1,8,0:0:0:0:
58,272,36862,1,8,0:0:0:0:
106,52,37022,6,0,P|152:24|251:73,2,170.999995433807,6|8|0,1:2|0:0|0:0,0:0:0:0:
21,197,37824,1,0,1:2:0:0:
185,121,37985,1,10,0:0:0:0:
18,49,38145,1,2,1:2:0:0:
128,202,38306,6,0,L|214:214,1,85.4999977169037,2|0,0:0|1:2,0:0:0:0:
297,39,38626,2,0,P|279:84|292:139,1,85.4999977169037,10|0,0:0|0:0,0:0:0:0:
405,243,38947,1,2,0:0:0:0:
453,73,39108,1,0,1:2:0:0:
306,202,39268,2,0,L|321:297,1,85.4999977169037,10|0,0:0|1:2,0:0:0:0:
476,355,39589,5,14,1:2:0:0:
381,165,39749,1,0,1:2:0:0:
331,364,39910,1,8,0:0:0:0:
226,181,40070,2,0,P|180:173|132:192,1,85.4999977169037,6|0,1:2|0:0,0:0:0:0:
11,347,40391,1,0,1:2:0:0:
191,258,40552,1,14,1:2:0:0:
0,184,40712,1,0,1:2:0:0:
126,350,40872,5,10,1:2:0:0:
212,165,41033,2,0,B|225:47|225:47|213:77|183:101,1,170.999995433807,4|0,1:2|1:2,0:0:0:0:
74,234,41514,1,10,0:0:0:0:
59,51,41675,2,0,L|72:136,1,85.4999977169037,0|0,1:2|1:2,0:0:0:0:
191,258,41995,1,8,0:0:0:0:
259,96,42156,6,0,B|307:65|307:65|422:97,1,144,4|8,1:2|0:0,0:0:0:0:
503,127,42637,1,2,0:0:0:0:
382,179,42798,2,0,P|366:215|370:258,1,72,2|0,0:0|1:2,0:0:0:0:
512,277,43118,2,0,P|488:245|449:227,1,72,10|0,0:0|0:0,0:0:0:0:
308,305,43439,5,2,1:2:0:0:
382,179,43600,1,0,1:2:0:0:
429,318,43760,1,8,0:0:0:0:
305,221,43921,2,0,B|251:215|251:215|214:231|214:231|155:224,1,144,2|0,0:0|1:2,0:0:0:0:
83,354,44402,2,0,P|97:316|93:280,1,72,8|0,0:0|0:0,0:0:0:0:
0,194,44723,6,0,P|63:198|117:128,1,144,2|8,1:2|0:0,0:0:0:0:
55,0,45204,2,0,B|10:38|10:38|40:138,1,144,2|2,0:0|1:2,0:0:0:0:
150,239,45685,1,10,0:0:0:0:
211,95,45846,1,2,0:0:0:0:
83,189,46006,5,0,1:2:0:0:
138,43,46167,1,0,1:2:0:0:
208,177,46327,2,0,L|288:187,1,72,10|0,0:0|0:0,0:0:0:0:
371,28,46648,1,2,0:0:0:0:
224,80,46808,1,0,1:2:0:0:
360,140,46969,2,0,L|373:222,1,72,10|0,0:0|0:0,0:0:0:0:
478,295,47290,6,0,B|422:287|422:287|385:303|385:303|321:294,1,144,0|10,1:2|0:0,0:0:0:0:
188,233,47771,1,2,0:0:0:0:
236,383,47931,2,0,P|251:343|246:299,1,72,2|0,0:0|1:2,0:0:0:0:
100,283,48252,2,0,P|127:315|167:333,1,72,10|0,0:0|0:0,0:0:0:0:
200,162,48573,6,0,L|187:238,1,72,0|0,1:2|1:2,0:0:0:0:
140,348,48894,1,10,0:0:0:0:
86,204,49054,1,2,0:0:0:0:
21,345,49215,2,0,L|10:271,1,72,2|0,0:0|1:2,0:0:0:0:
39,133,49536,2,0,P|79:118|124:129,1,72,10|0,0:0|0:0,0:0:0:0:
187,232,49856,6,0,B|233:267|233:267|329:243,1,144,2|8,1:2|0:0,0:0:0:0:
436,209,50338,1,0,0:0:0:0:
361,95,50498,2,0,P|351:140|363:173,1,72,2|0,0:0|1:2,0:0:0:0:
465,291,50819,1,8,0:0:0:0:
497,146,50979,1,2,0:0:0:0:
367,256,51140,6,0,L|291:266,1,72,6|0,1:2|1:2,0:0:0:0:
125,243,51461,1,10,0:0:0:0:
267,141,51621,1,2,1:2:0:0:
267,141,51701,1,0,1:2:0:0:
267,141,51782,1,8,0:3:0:0:
196,308,51942,1,10,0:3:0:0:
155,127,52102,1,6,0:3:0:0:
272,253,52263,1,4,0:3:0:0:
219,61,52423,6,0,P|165:36|86:67,1,144,4|8,1:2|0:0,0:0:0:0:
38,191,52905,1,2,0:0:0:0:
155,127,53065,2,0,L|168:210,1,72,2|0,0:0|1:2,0:0:0:0:
85,335,53386,2,0,L|96:263,1,72,10|0,0:0|0:0,0:0:0:0:
249,159,53707,5,2,1:2:0:0:
173,296,53867,1,0,1:2:0:0:
140,141,54028,1,8,0:0:0:0:
252,251,54188,2,0,B|346:273|346:273|389:241,1,144,2|0,0:0|1:2,0:0:0:0:
340,111,54669,2,0,L|326:186,1,72,8|0,0:0|0:0,0:0:0:0:
372,33,54990,6,0,B|332:10|294:34|309:35|268:58|227:41,1,144,2|8,1:2|0:0,0:0:0:0:
72,61,55471,2,0,P|136:60|163:130,1,144,2|2,0:0|1:2,0:0:0:0:
138,286,55953,1,10,0:0:0:0:
74,149,56113,1,2,0:0:0:0:
60,326,56274,5,0,1:2:0:0:
137,202,56434,1,0,1:2:0:0:
196,348,56594,2,0,P|230:363|282:349,1,72,10|0,0:0|0:0,0:0:0:0:
380,220,56915,1,2,0:0:0:0:
239,279,57076,1,0,1:2:0:0:
359,374,57236,2,0,L|371:302,1,72,10|0,0:0|0:0,0:0:0:0:
268,201,57557,6,0,B|248:106|248:106|279:66,1,144,0|10,1:2|0:0,0:0:0:0:
375,0,58038,1,2,0:0:0:0:
411,132,58199,2,0,P|375:138|336:122,1,72,2|0,0:0|1:2,0:0:0:0:
475,62,58520,2,0,P|498:90|503:131,1,72,10|0,0:0|0:0,0:0:0:0:
421,266,58840,6,0,P|433:231|467:206,1,72,2|0,1:2|1:2,0:0:0:0:
447,350,59161,2,0,P|410:356|372:340,1,72,10|0,0:0|0:0,0:0:0:0:
334,220,59482,1,2,0:0:0:0:
291,338,59643,1,0,1:2:0:0:
245,214,59803,2,0,P|206:204|175:210,1,72,10|0,0:0|0:0,0:0:0:0:
89,314,60124,6,0,B|96:256|96:256|84:224|84:224|90:158,1,144,2|8,1:2|0:0,0:0:0:0:
137,8,60605,1,0,0:0:0:0:
235,116,60766,2,0,L|160:127,1,72,2|0,0:0|1:2,0:0:0:0:
12,69,61086,2,0,L|87:80,1,72,8|0,0:0|0:0,0:0:0:0:
291,59,61407,5,2,1:2:0:0:
187,248,61568,1,0,1:2:0:0:
152,35,61728,1,8,0:0:0:0:
263,219,61889,1,0,1:2:0:0:
228,5,62049,1,8,0:0:0:0:
125,195,62209,1,0,1:2:0:0:
315,139,62370,2,0,P|357:135|388:147,1,72,8|4,0:3|0:3,0:0:0:0:
354,285,62691,6,0,L|343:217,1,62.9999980773926,4|2,1:2|0:0,0:0:0:0:
465,180,63011,2,0,L|454:242,1,62.9999980773926,2|2,0:0|1:2,0:0:0:0:
479,360,63332,1,10,0:0:0:0:
438,253,63493,1,2,1:2:0:0:
390,356,63653,2,0,P|356:365|322:359,1,62.9999980773926,2|0,0:0|0:0,0:0:0:0:
249,273,63974,6,0,L|258:206,2,62.9999980773926,2|10|2,1:2|0:0|0:0,0:0:0:0:
207,376,64455,1,2,1:2:0:0:
207,376,64616,2,0,P|175:346|98:360,1,125.999996154785,8|0,0:0|0:0,0:0:0:0:
6,166,65257,5,0,1:2:0:0:
6,166,65418,2,0,B|46:198|46:198|127:179,1,125.999996154785,2|2,0:0|1:2,0:0:0:0:
187,127,65899,2,0,P|205:159|204:194,1,62.9999980773926,10|2,0:0|1:2,0:0:0:0:
161,260,66220,2,0,P|194:274|236:267,1,62.9999980773926,2|2,0:0|0:0,0:0:0:0:
345,225,66541,2,0,P|312:211|270:218,2,62.9999980773926,2|10|2,1:2|0:0|0:0,0:0:0:0:
436,275,67022,2,0,L|449:193,1,62.9999980773926,2|8,1:2|0:0,0:0:0:0:
432,53,67343,1,2,1:2:0:0:
359,211,67503,1,10,0:0:0:0:
512,144,67664,1,10,0:0:0:0:
314,83,67824,6,0,B|254:78|254:78|221:96|221:96|156:90,2,153.000002918243,6|8|2,1:2|0:0|0:0,0:0:0:0:
437,187,68626,1,0,1:2:0:0:
289,256,68787,2,0,P|277:219|287:172,1,76.5000014591217,8|0,0:0|0:0,0:0:0:0:
335,0,69108,5,2,1:2:0:0:
363,159,69268,1,0,1:2:0:0:
237,52,69429,2,0,P|192:39|144:55,1,76.5000014591217,8|0,0:0|0:0,0:0:0:0:
41,177,69749,1,2,0:0:0:0:
192,132,69910,1,0,1:2:0:0:
62,14,70070,2,0,L|51:91,1,76.5000014591217,8|0,0:0|1:2,0:0:0:0:
109,280,70391,5,14,0:0:0:0:
144,61,70552,1,0,1:2:0:0:
278,250,70712,1,14,0:0:0:0:
54,195,70872,1,0,1:2:0:0:
282,127,71033,1,14,0:0:0:0:
244,349,71193,1,0,1:2:0:0:
176,146,71354,1,14,0:0:0:0:
391,199,71514,6,0,B|411:303|411:303|376:346,2,153.000002918243,6|6|6,1:2|1:2|1:2,0:0:0:0:
355,52,72477,1,6,1:2:0:0:
355,52,72637,2,0,P|310:47|261:72,1,76.5000014591217,8|0,0:0|0:0,0:0:0:0:
125,126,72958,6,0,B|170:128|202:96|202:96|216:126|251:137,1,135,4|0,1:2|2:0,0:0:0:0:
325,132,73279,2,0,L|311:225,1,90,14|0,0:2|0:0,0:0:0:0:
388,375,73600,1,2,0:0:0:0:
447,187,73760,1,0,1:2:0:0:
317,313,73921,2,0,P|268:328|223:317,1,90,10|0,0:0|0:0,0:0:0:0:
59,176,74241,5,2,1:2:0:0:
117,384,74402,1,0,1:2:0:0:
231,212,74562,1,10,0:0:0:0:
0,309,74723,2,0,P|47:316|95:295,1,90,2|0,0:0|0:0,0:0:0:0:
140,145,75044,1,2,1:2:0:0:
230,320,75204,2,0,L|217:230,1,90,10|2,0:0|0:0,0:0:0:0:
340,129,75525,6,0,B|387:144|424:117|424:117|415:142|388:155,1,135,6|0,1:2|2:0,0:0:0:0:
317,216,75846,2,0,P|268:224|227:209,1,90,14|0,0:2|0:0,0:0:0:0:
370,49,76167,1,2,0:0:0:0:
422,230,76327,1,0,1:2:0:0:
266,89,76487,2,0,P|224:75|174:85,1,90,10|0,0:0|0:0,0:0:0:0:
32,273,76808,5,2,1:2:0:0:
218,163,76969,1,0,1:2:0:0:
9,93,77129,1,10,0:0:0:0:
140,275,77290,2,0,L|127:185,1,90,2|0,0:0|0:0,0:0:0:0:
225,22,77610,1,2,1:2:0:0:
292,209,77771,2,0,P|334:228|388:222,1,90,10|2,0:0|0:0,0:0:0:0:
428,63,78092,6,0,B|457:56|474:37|474:37|455:77|462:117,1,135,6|0,1:2|2:0,0:0:0:0:
505,199,78413,2,0,P|519:245|511:290,1,90,14|0,0:2|0:0,0:0:0:0:
322,372,78733,1,2,0:0:0:0:
410,200,78894,1,0,1:2:0:0:
502,375,79054,2,0,L|413:363,1,90,10|0,0:0|0:0,0:0:0:0:
186,227,79375,5,2,1:2:0:0:
322,372,79536,1,0,1:2:0:0:
339,148,79696,1,10,0:0:0:0:
238,310,79856,2,0,P|181:325|130:311,1,90,2|0,0:0|0:0,0:0:0:0:
22,158,80177,1,2,1:2:0:0:
201,213,80338,2,0,P|258:228|309:214,1,90,10|0,0:0|0:0,0:0:0:0:
264,51,80659,6,0,L|252:145,1,90,2|0,1:2|0:0,0:0:0:0:
398,315,80979,2,0,L|386:225,1,90,8|0,0:0|0:0,0:0:0:0:
347,36,81300,1,2,0:0:0:0:
287,223,81461,1,0,1:2:0:0:
185,60,81621,2,0,P|138:48|91:57,1,90,8|0,0:0|0:0,0:0:0:0:
79,287,81942,5,14,0:0:0:0:
277,127,82102,1,10,0:3:0:0:
1,139,82263,1,6,0:3:0:0:
207,304,82423,2,0,L|195:210,1,90,6|0,1:2|0:0,0:0:0:0:
271,43,82744,1,6,1:2:0:0:
354,243,82905,1,8,0:0:0:0:
455,76,83064,1,8,0:0:0:0:
455,76,83145,1,8,0:0:0:0:
455,76,83225,6,0,B|475:66|492:52|492:52|481:97|476:144,1,135,4|0,1:2|2:0,0:0:0:0:
461,258,83546,2,0,P|413:246|356:261,1,90,14|0,0:2|0:0,0:0:0:0:
220,384,83867,1,2,0:0:0:0:
415,338,84028,1,0,1:2:0:0:
262,189,84188,2,0,L|249:282,1,90,10|0,0:0|0:0,0:0:0:0:
120,366,84509,5,2,1:2:0:0:
48,166,84669,1,0,1:2:0:0:
235,294,84830,1,10,0:0:0:0:
20,363,84990,2,0,L|35:255,1,90,2|0,0:0|0:0,0:0:0:0:
135,92,85311,1,2,1:2:0:0:
143,286,85471,2,0,L|128:178,1,90,10|2,0:0|0:0,0:0:0:0:
24,39,85792,6,0,B|40:23|43:0|43:0|61:41|41:87,1,135,6|0,1:2|2:0,0:0:0:0:
8,181,86113,2,0,L|103:191,1,90,14|0,0:2|0:0,0:0:0:0:
274,68,86434,1,2,0:0:0:0:
225,260,86594,1,0,1:2:0:0:
166,52,86755,2,0,P|165:99|193:149,1,90,10|0,0:0|0:0,0:0:0:0:
411,202,87076,5,2,1:2:0:0:
338,0,87236,1,0,1:2:0:0:
251,185,87397,1,10,0:0:0:0:
431,33,87557,2,0,L|443:128,1,90,2|0,0:0|0:0,0:0:0:0:
412,324,87878,1,2,1:2:0:0:
342,117,88038,2,0,L|329:212,1,90,10|2,0:0|0:0,0:0:0:0:
261,347,88359,6,0,B|243:355|219:352|219:352|256:382|306:365,1,135,6|0,1:2|2:0,0:0:0:0:
395,307,88680,2,0,P|413:257|407:213,1,90,10|0,0:0|0:0,0:0:0:0:
319,36,89001,1,2,0:0:0:0:
240,223,89161,1,0,1:2:0:0:
432,129,89322,2,0,L|331:116,1,90,10|0,0:0|0:0,0:0:0:0:
133,113,89643,5,2,1:2:0:0:
329,206,89803,1,0,1:2:0:0:
242,0,89963,1,10,0:0:0:0:
155,207,90124,2,0,P|97:203|61:180,1,90,2|0,0:0|0:0,0:0:0:0:
110,0,90445,1,2,1:2:0:0:
248,162,90605,2,0,L|236:251,1,90,10|0,0:0|1:2,0:0:0:0:
43,325,90926,5,14,0:0:0:0:
133,113,91086,1,0,1:2:0:0:
224,332,91247,1,10,0:0:0:0:
0,223,91407,1,0,1:2:0:0:
216,78,91568,1,10,0:0:0:0:
137,305,91728,1,0,1:2:0:0:
40,91,91889,1,10,0:0:0:0:
235,251,92049,6,0,B|287:290|287:290|423:262,1,180,6|6,1:2|1:2,0:0:0:0:
496,119,92530,1,2,0:0:0:0:
309,17,92691,2,0,B|301:83|301:83|320:123|320:123|308:199,1,180,6|8,1:2|0:0,0:0:0:0:
273,374,93172,1,8,0:3:0:0:
218,236,93332,1,4,0:3:0:0:
157,356,93493,6,0,P|120:367|81:359,1,72,6|2,1:2|0:0,0:0:0:0:
1,260,93814,2,0,P|38:271|77:263,1,72,2|2,0:0|0:0,0:0:0:0:
157,166,94134,2,0,P|108:134|41:175,1,144,2|0,0:0|0:0,0:0:0:0:
218,236,94616,6,0,B|256:192|256:192|240:103,1,144,2|0,0:0|0:0,0:0:0:0:
205,13,95097,2,0,L|280:23,1,72,2|0,0:0|0:0,0:0:0:0:
398,76,95418,1,2,0:0:0:0:
240,107,95578,1,8,0:0:0:0:
426,183,95739,1,8,0:0:0:0:
360,0,95899,1,10,0:0:0:0:
260,202,96060,6,0,B|232:236|240:286|240:286|217:271|208:232,1,135,6|0,1:2|2:0,0:0:0:0:
175,164,96380,2,0,P|133:146|78:153,1,90,10|0,0:0|1:2,0:0:0:0:
211,368,96701,1,10,0:0:0:0:
340,160,96862,1,0,1:2:0:0:
119,232,97022,1,10,0:0:0:0:
326,356,97183,6,0,B|368:377|418:345|402:339|450:309|496:339,1,180,6|2,1:2|1:2,0:0:0:0:
501,146,97664,1,8,0:0:0:0:
352,267,97824,2,0,P|306:273|259:253,1,90,4|0,1:2|0:0,0:0:0:0:
220,62,98145,1,2,1:2:0:0:
419,153,98306,2,0,L|431:249,1,90,10|0,0:0|0:0,0:0:0:0:
236,341,98626,6,0,B|191:322|142:331|142:331|167:320|191:295,1,135,6|0,1:2|2:0,0:0:0:0:
248,244,98947,2,0,P|267:198|260:150,1,90,10|0,0:0|1:2,0:0:0:0:
102,0,99268,1,10,0:0:0:0:
163,223,99429,1,0,1:2:0:0:
286,18,99589,1,10,0:0:0:0:
60,146,99749,6,0,L|156:133,1,90,2|10,1:2|0:0,0:0:0:0:
344,102,100070,1,0,1:2:0:0:
186,308,100231,1,8,0:0:0:0:
355,86,100391,1,0,1:2:0:0:
295,362,100552,1,8,0:0:0:0:
224,82,100712,1,0,1:2:0:0:
404,313,100872,1,8,0:0:0:0:
145,205,101033,1,0,1:2:0:0:
145,205,101113,1,0,1:2:0:0:
145,205,101193,6,0,B|151:158|139:117|139:117|151:144|176:157,1,135,10|0,0:0|2:0,0:0:0:0:
235,222,101514,2,0,P|283:231|332:212,1,90,10|0,0:0|1:2,0:0:0:0:
472,39,101835,1,10,0:0:0:0:
272,144,101995,1,0,1:2:0:0:
484,201,102156,1,10,0:0:0:0:
364,20,102316,6,0,B|357:88|357:88|372:118|372:118|361:201,1,180,6|0,1:2|1:2,0:0:0:0:
315,353,102798,1,0,1:2:0:0:
235,222,102958,1,6,1:2:0:0:
91,129,103760,6,0,B|155:123|155:123|192:143|192:143|247:137,1,161.999995056153,6|8,1:2|0:0,0:0:0:0:
385,68,104241,1,0,1:2:0:0:
385,68,104322,1,8,0:3:0:0:
385,68,104402,1,4,0:3:0:0:
285,248,104562,1,0,1:2:0:0:
215,49,104723,1,8,0:3:0:0:
379,194,104883,1,4,0:3:0:0:
306,6,105044,1,8,0:0:0:0:
202,191,105204,6,0,B|153:221|153:221|47:201,1,161.999995056153,4|0,1:2|1:2,0:0:0:0:
120,47,105685,2,0,L|132:129,1,80.9999975280763,12|0,0:0|1:2,0:0:0:0:
285,248,106006,2,0,L|296:167,1,80.9999975280763,8|4,0:3|0:3,0:0:0:0:
433,30,106327,6,0,B|463:61|463:61|448:125,1,107.999996704102,4|0,1:2|0:0,0:0:0:0:
389,201,106808,1,2,0:0:0:0:
389,201,106969,2,0,L|397:261,1,53.9999983520508,2|0,0:0|0:0,0:0:0:0:
434,342,107290,2,0,L|372:351,1,53.9999983520508,2|0,0:0|0:0,0:0:0:0:
285,384,107610,6,0,L|164:370,1,107.999996704102,2|0,0:0|0:0,0:0:0:0:
49,329,108092,2,0,P|101:322|133:266,1,107.999996704102,2|0,0:0|0:0,0:0:0:0:
123,187,108573,1,0,0:0:0:0:
0,62,108894,6,0,B|42:57|42:57|67:70|67:70|111:64,1,107.999996704102,2|0,0:0|0:0,0:0:0:0:
171,7,109375,2,0,B|200:36|200:36|186:103,1,107.999996704102,2|2,0:0|0:0,0:0:0:0:
164,198,109856,1,2,0:0:0:0:
164,198,110017,6,0,P|202:227|273:212,1,107.999996704102,2|0,0:0|0:0,0:0:0:0:
343,167,110498,1,0,0:0:0:0:
512,19,110819,2,0,L|455:10,1,53.9999983520508,2|0,0:0|0:0,0:0:0:0:
328,80,111140,2,0,L|385:71,1,53.9999983520508
475,118,111461,5,2,0:0:0:0:
416,333,111782,2,0,L|409:277,1,53.9999983520508,2|0,0:0|0:0,0:0:0:0:
329,186,112102,2,0,L|322:239,1,53.9999983520508,2|0,0:0|0:0,0:0:0:0:
246,338,112423,2,0,L|239:282,1,53.9999983520508,2|0,0:0|0:0,0:0:0:0:
174,182,112744,6,0,P|138:172|116:176,1,53.9999983520508,2|0,0:0|0:0,0:0:0:0:
104,302,113065,2,0,P|130:275|138:254,1,53.9999983520508,2|0,0:0|0:0,0:0:0:0:
35,181,113386,2,0,P|44:217|58:234,1,53.9999983520508,2|0,0:0|0:0,0:0:0:0:
71,101,113707,2,0,P|35:91|13:95,1,53.9999983520508,2|0,0:0|0:0,0:0:0:0:
122,174,114028,6,0,P|152:135|151:61,1,107.999996704102,2|0,0:0|0:0,0:0:0:0:
320,0,114669,2,0,L|334:123,1,107.999996704102,2|0,0:0|0:0,0:0:0:0:
378,204,115151,1,2,0:0:0:0:
378,204,115231,1,2,0:0:0:0:
378,204,115311,6,0,L|321:214,1,53.9999983520508,2|0,0:0|0:0,0:0:0:0:
166,236,115632,1,0,0:0:0:0:
336,301,115792,1,0,1:2:0:0:
336,301,115872,1,0,1:2:0:0:
336,301,115953,1,8,0:3:0:0:
161,327,116113,1,8,0:3:0:0:
243,171,116274,1,4,0:3:0:0:
254,354,116434,1,4,0:3:0:0:
126,242,116594,6,0,B|181:237|181:237|216:256|216:256|277:249,1,144,4|2,1:2|0:0,0:0:0:0:
469,122,117236,1,10,0:0:0:0:
375,267,117397,1,8,0:3:0:0:
350,95,117557,1,6,0:3:0:0:
497,209,117717,2,0,L|414:199,1,72,6|2,1:2|0:0,0:0:0:0:
263,88,118038,2,0,L|346:78,1,72,4|2,1:2|0:0,0:0:0:0:
295,227,118359,2,0,B|241:232|241:232|204:216|204:216|144:222,1,144,6|0,1:2|1:2,0:0:0:0:
10,236,118840,1,8,0:0:0:0:
190,307,119001,1,8,0:0:0:0:
122,140,119161,6,0,L|102:286,1,144,4|2,1:2|0:0,0:0:0:0:
290,379,119803,1,10,0:0:0:0:
347,268,119963,1,10,0:3:0:0:
360,242,120044,1,8,0:3:0:0:
364,213,120124,1,6,0:3:0:0:
358,184,120204,1,4,0:3:0:0:
342,159,120284,6,0,P|300:168|257:155,1,72,6|0,1:2|0:0,0:0:0:0:
265,7,120605,2,0,P|293:38|304:82,1,72,6|0,1:2|0:0,0:0:0:0:
172,150,120926,2,0,P|185:109|217:78,1,72,6|0,1:2|0:0,0:0:0:0:
400,81,121247,1,10,0:0:0:0:
254,255,121407,1,10,0:0:0:0:
282,23,121568,1,10,0:0:0:0:
393,227,121728,6,0,P|439:245|515:188,2,153.000002918243,6|8|2,1:2|0:0|0:0,0:0:0:0:
280,116,122530,1,0,1:2:0:0:
292,282,122691,2,0,L|307:207,1,76.5000014591217,8|0,0:0|0:0,0:0:0:0:
267,36,123011,5,2,1:2:0:0:
220,177,123172,1,0,1:2:0:0:
163,44,123332,2,0,P|127:35|81:45,1,76.5000014591217,8|0,0:0|0:0,0:0:0:0:
0,223,123653,1,2,0:0:0:0:
126,118,123814,1,0,1:2:0:0:
130,279,123974,1,8,0:0:0:0:
26,127,124134,1,0,1:2:0:0:
26,127,124215,1,0,1:2:0:0:
26,127,124295,5,14,0:0:0:0:
81,369,124455,1,0,1:2:0:0:
236,159,124616,1,14,0:0:0:0:
0,223,124776,1,0,1:2:0:0:
231,323,124937,1,14,0:0:0:0:
182,61,125097,1,0,1:2:0:0:
76,282,125257,1,14,0:0:0:0:
309,223,125418,6,0,B|350:179|350:179|323:63,2,153.000002918243,6|6|6,1:2|1:2|1:2,0:0:0:0:
33,81,126380,5,2,1:2:0:0:
52,57,126461,1,0,1:2:0:0:
77,40,126541,1,8,0:3:0:0:
106,29,126621,1,8,0:3:0:0:
136,26,126701,1,4,0:3:0:0:
166,31,126782,1,4,0:3:0:0:
194,44,126862,6,0,B|190:88|170:125|170:125|198:101|239:107,1,135,4|0,1:2|2:0,0:0:0:0:
301,139,127183,2,0,P|324:179|317:238,1,90,14|0,0:2|0:0,0:0:0:0:
160,382,127503,1,2,0:0:0:0:
228,197,127664,1,0,1:2:0:0:
323,373,127824,2,0,L|412:384,1,90,10|0,0:0|0:0,0:0:0:0:
441,167,128145,5,2,1:2:0:0:
249,287,128306,1,0,1:2:0:0:
479,313,128466,1,10,0:0:0:0:
356,128,128626,2,0,L|345:218,1,90,2|0,0:0|0:0,0:0:0:0:
298,383,128947,1,2,1:2:0:0:
231,204,129108,2,0,P|187:189|141:199,1,90,10|2,0:0|0:0,0:0:0:0:
12,323,129429,6,0,B|26:280|12:235|12:235|34:249|43:275,1,135,6|0,1:2|2:0,0:0:0:0:
99,350,129749,2,0,P|146:368|195:359,1,90,14|0,0:2|0:0,0:0:0:0:
320,178,130070,1,2,0:0:0:0:
145,279,130231,1,0,1:2:0:0:
323,373,130391,2,0,L|311:283,1,90,10|0,0:0|0:0,0:0:0:0:
162,87,130712,5,2,1:2:0:0:
232,284,130872,1,0,1:2:0:0:
333,101,131033,1,10,0:0:0:0:
105,202,131193,2,0,P|57:212|4:195,1,90,2|0,0:0|0:0,0:0:0:0:
113,0,131514,1,2,1:2:0:0:
192,170,131675,2,0,P|240:180|293:163,1,90,10|2,0:0|0:0,0:0:0:0:
393,33,131995,6,0,B|415:21|426:2|426:2|400:45|421:103,1,135,6|0,1:2|2:0,0:0:0:0:
454,186,132316,2,0,P|403:176|356:193,1,90,14|0,0:2|0:0,0:0:0:0:
288,384,132637,1,2,0:0:0:0:
209,185,132798,1,0,1:2:0:0:
400,348,132958,2,0,L|412:251,1,90,10|0,0:0|0:0,0:0:0:0:
335,95,133279,5,2,1:2:0:0:
188,280,133439,1,0,1:2:0:0:
427,241,133600,1,10,0:0:0:0:
236,101,133760,2,0,P|183:99|144:120,1,90,2|0,0:0|0:0,0:0:0:0:
105,323,134081,1,2,1:2:0:0:
308,258,134241,2,0,L|295:164,1,90,10|0,0:0|0:0,0:0:0:0:
266,341,134562,6,0,P|317:351|365:331,1,90,2|0,1:2|0:0,0:0:0:0:
190,193,134883,2,0,P|139:183|91:203,1,90,8|0,0:0|0:0,0:0:0:0:
9,360,135204,1,2,0:0:0:0:
211,273,135364,1,0,1:2:0:0:
22,149,135525,2,0,P|9:195|21:239,1,90,8|0,0:0|0:0,0:0:0:0:
190,363,135846,5,14,0:0:0:0:
130,140,136006,1,10,0:3:0:0:
279,333,136167,1,6,0:3:0:0:
324,97,136327,2,0,L|309:193,1,90,6|0,1:2|0:0,0:0:0:0:
132,254,136648,1,6,1:2:0:0:
364,366,136808,1,8,0:0:0:0:
199,192,136969,1,8,0:0:0:0:
199,192,137049,1,8,0:0:0:0:
199,192,137129,6,0,B|227:229|221:278|221:278|242:256|245:225,1,135,4|0,1:2|2:0,0:0:0:0:
287,151,137450,2,0,P|335:137|378:145,1,90,14|0,0:2|0:0,0:0:0:0:
476,319,137771,1,2,0:0:0:0:
512,121,137931,1,0,1:2:0:0:
404,269,138092,2,0,P|354:282|307:265,1,90,10|0,0:0|0:0,0:0:0:0:
242,74,138413,5,2,1:2:0:0:
453,190,138573,1,0,1:2:0:0:
234,237,138733,1,10,0:0:0:0:
385,54,138894,2,0,L|371:158,1,90,2|0,0:0|0:0,0:0:0:0:
340,317,139215,1,2,1:2:0:0:
221,147,139375,2,0,L|235:251,1,90,10|2,0:0|0:0,0:0:0:0:
164,375,139696,6,0,B|126:355|81:361|81:361|111:355|127:332,1,135,6|0,1:2|2:0,0:0:0:0:
150,245,140017,2,0,L|137:155,1,90,14|0,0:2|0:0,0:0:0:0:
0,46,140338,1,2,0:0:0:0:
62,240,140498,1,0,1:2:0:0:
149,64,140659,2,0,P|196:44|245:51,1,90,10|0,0:0|0:0,0:0:0:0:
386,207,140979,5,2,1:2:0:0:
314,5,141140,1,0,1:2:0:0:
230,213,141300,1,10,0:0:0:0:
453,94,141461,2,0,L|356:82,1,90,2|0,0:0|0:0,0:0:0:0:
177,142,141782,1,2,1:2:0:0:
402,222,141942,2,0,P|346:213|309:226,1,90,10|2,0:0|0:0,0:0:0:0:
156,350,142263,6,0,B|207:361|246:329|246:329|228:333|205:327,1,135,6|0,1:2|2:0,0:0:0:0:
114,277,142584,2,0,P|98:232|106:181,1,90,10|0,0:0|0:0,0:0:0:0:
240,26,142905,1,2,0:0:0:0:
186,224,143065,1,0,1:2:0:0:
74,66,143225,2,0,L|166:77,1,90,10|0,0:0|0:0,0:0:0:0:
382,126,143546,5,2,1:2:0:0:
186,224,143707,1,0,1:2:0:0:
253,13,143867,1,10,0:0:0:0:
314,233,144028,2,0,L|302:143,1,90,2|0,0:0|0:0,0:0:0:0:
421,0,144348,1,2,1:2:0:0:
486,199,144509,2,0,P|445:216|385:206,1,90,10|0,0:0|1:2,0:0:0:0:
194,130,144830,5,14,0:0:0:0:
302,349,144990,1,0,1:2:0:0:
282,88,145151,1,10,0:0:0:0:
160,313,145311,1,0,1:2:0:0:
204,44,145471,1,10,0:0:0:0:
334,269,145632,1,0,1:2:0:0:
280,3,145792,1,10,0:0:0:0:
135,228,145953,6,0,B|68:250|18:211|18:211|52:213|78:191,1,180,6|6,1:2|1:2,0:0:0:0:
189,30,146434,1,2,0:0:0:0:
230,212,146594,2,0,B|259:326|259:326|221:374,1,180,6|8,1:2|0:0,0:0:0:0:
44,371,147076,1,8,0:3:0:0:
163,308,147236,1,4,0:3:0:0:
36,241,147397,6,0,B|14:205|21:157|21:157|32:184|60:197,1,135,6|0,1:2|2:0,0:0:0:0:
149,209,147717,2,0,L|244:196,1,90,14|2,0:0|0:0,0:0:0:0:
350,97,148038,1,2,1:2:0:0:
201,22,148199,2,0,P|181:71|190:115,1,90,4|0,1:2|0:0,0:0:0:0:
355,271,148520,6,0,B|363:200|363:200|343:161|343:161|351:87,1,180,14|0,0:0|1:2,0:0:0:0:
512,0,149001,1,10,0:0:0:0:
458,157,149161,1,2,0:0:0:0:
382,7,149322,2,0,P|335:0|293:16,1,90,2|0,1:2|1:2,0:0:0:0:
200,178,149643,1,8,0:0:0:0:
349,96,149803,1,2,0:0:0:0:
200,22,149963,6,0,B|164:53|116:56|116:56|137:72|167:69,1,135,6|0,1:2|2:0,0:0:0:0:
256,114,150284,2,0,P|284:158|283:204,1,90,10|0,0:0|1:2,0:0:0:0:
195,355,150605,1,10,0:0:0:0:
123,143,150766,1,0,1:2:0:0:
34,346,150926,1,10,0:0:0:0:
251,248,151086,6,0,B|301:221|353:249|333:253|379:281|426:261,1,180,6|2,1:2|1:2,0:0:0:0:
512,79,151568,1,8,0:0:0:0:
318,135,151728,2,0,P|268:146|216:47,1,180,4|2,1:2|1:2,0:0:0:0:
429,10,152209,1,10,0:0:0:0:
393,185,152370,1,0,1:0:0:0:
393,185,152450,1,0,1:0:0:0:
393,185,152530,6,0,B|416:148|403:106|403:106|427:124|433:159,1,135,6|0,1:2|2:0,0:0:0:0:
452,260,152851,2,0,P|399:280|345:267,1,90,10|0,0:0|1:2,0:0:0:0:
178,147,153172,1,10,0:0:0:0:
267,341,153332,1,0,1:2:0:0:
318,135,153493,1,10,0:0:0:0:
168,298,153653,6,0,P|122:306|73:287,1,90,2|10,1:2|0:0,0:0:0:0:
96,57,153974,1,0,1:2:0:0:
244,227,154134,1,8,0:0:0:0:
211,2,154295,1,0,1:2:0:0:
131,220,154455,1,8,0:0:0:0:
305,41,154616,1,0,1:2:0:0:
341,264,154776,1,8,0:0:0:0:
191,90,154937,1,0,1:2:0:0:
191,90,155017,1,0,1:2:0:0:
191,90,155097,6,0,B|217:133|203:177|203:177|216:151|253:137,1,135,10|0,0:0|2:0,0:0:0:0:
326,124,155418,2,0,L|417:138,1,90,10|0,0:0|1:2,0:0:0:0:
431,366,155739,1,10,0:0:0:0:
274,214,155899,1,0,1:2:0:0:
505,258,156060,1,10,0:0:0:0:
295,359,156220,6,0,B|175:378|175:378|129:331,1,180,6|0,1:2|1:2,0:0:0:0:
63,181,156701,1,8,0:0:0:0:
205,290,156862,2,0,L|191:200,1,90,6|8,1:2|0:0,0:0:0:0:
163,55,157183,1,8,0:3:0:0:
106,255,157343,1,8,0:3:0:0:
286,150,157503,1,4,0:3:0:0:
78,98,157664,6,0,B|25:88|25:88|-28:112|-28:112|13:120,2,144,4|4|2,1:2|1:2|0:0,0:0:0:0:
207,184,158466,1,2,0:0:0:0:
161,52,158626,1,2,0:0:0:0:
101,179,158787,1,2,0:0:0:0:
253,35,158947,6,0,L|242:115,1,72,2|2,0:0|0:0,0:0:0:0:
335,219,159268,2,0,L|325:147,1,72,2|2,0:0|0:0,0:0:0:0:
371,38,159589,1,0,0:0:0:0:
455,122,159749,2,0,B|462:178|462:178|450:203|450:203|457:262,1,144,2|2,0:0|0:0,0:0:0:0:
401,338,160231,6,0,B|433:360|433:360|501:354|501:354|531:322,2,144,6|6|2,1:2|1:2|0:0,0:0:0:0:
256,259,161033,1,2,0:0:0:0:
326,379,161193,1,2,0:0:0:0:
366,247,161354,1,2,0:0:0:0:
252,344,161514,6,0,P|212:356|172:346,1,72,2|2,0:0|0:0,0:0:0:0:
92,251,161835,2,0,P|132:263|172:253,1,72,2|2,0:0|0:0,0:0:0:0:
245,148,162156,1,0,0:0:0:0:
149,56,162316,2,0,B|109:90|109:90|134:183,1,144,2|0,0:0|0:0,0:0:0:0:
286,235,162798,6,0,B|392:244|392:244|348:275,2,144,6|6|2,1:2|1:2|0:0,0:0:0:0:
144,261,163600,1,2,0:0:0:0:
245,148,163760,1,2,0:0:0:0:
227,302,163921,1,2,0:0:0:0:
152,173,164081,6,0,P|112:176|81:198,1,72,2|2,0:0|0:0,0:0:0:0:
66,347,164402,2,0,L|55:275,1,72,2|2,0:0|0:0,0:0:0:0:
25,133,164723,1,0,0:0:0:0:
144,261,164883,2,0,B|241:283|241:283|288:249,1,144,2|2,0:0|0:0,0:0:0:0:
323,118,165364,6,0,B|381:110|381:110|416:126|416:126|474:118,2,144,6|6|2,1:2|1:2|0:0,0:0:0:0:
210,185,166167,1,2,0:0:0:0:
362,201,166327,1,2,0:0:0:0:
248,86,166487,1,2,0:0:0:0:
289,242,166648,6,0,L|300:316,1,72,2|2,0:0|0:0,0:0:0:0:
435,275,166969,2,0,L|445:203,1,72,2|2,0:0|0:0,0:0:0:0:
427,45,167290,1,0,0:0:0:0:
348,185,167450,1,2,1:2:0:0:
303,26,167610,2,0,P|267:6|213:12,1,72,8|0,0:0|0:0,0:0:0:0:
122,77,167931,6,0,L|138:174,1,85.4999977169037,4|0,1:2|0:0,0:0:0:0:
30,276,168252,2,0,P|75:256|126:265,1,85.4999977169037,10|0,0:0|0:0,0:0:0:0:
287,366,168573,1,2,1:2:0:0:
81,344,168733,1,2,0:0:0:0:
255,193,168894,1,10,0:0:0:0:
181,384,169054,1,2,0:0:0:0:
135,161,169215,5,2,1:2:0:0:
241,305,169375,2,0,P|286:315|339:298,1,85.4999977169037,2|8,0:0|0:0,0:0:0:0:
369,132,169696,2,0,P|351:170|351:213,1,85.4999977169037,2|0,0:0|1:2,0:0:0:0:
413,384,170017,1,2,0:0:0:0:
493,193,170177,2,0,P|512:242|505:290,1,85.4999977169037,10|2,0:0|0:0,0:0:0:0:
368,232,170498,6,0,L|278:222,1,85.4999977169037,2|0,1:2|0:0,0:0:0:0:
165,353,170819,2,0,P|185:306|175:252,1,85.4999977169037,10|0,0:0|0:0,0:0:0:0:
162,98,171140,1,2,1:2:0:0:
95,297,171300,1,2,0:0:0:0:
269,206,171461,1,10,0:0:0:0:
59,138,171621,1,2,0:0:0:0:
199,290,171782,5,2,1:2:0:0:
251,90,171942,2,0,P|294:75|341:84,1,85.4999977169037,2|8,0:0|0:0,0:0:0:0:
380,256,172263,2,0,L|395:165,1,85.4999977169037,2|0,0:0|1:2,0:0:0:0:
440,0,172584,1,2,0:0:0:0:
481,202,172744,1,10,0:0:0:0:
349,68,172905,1,2,0:0:0:0:
298,235,173065,6,0,P|256:250|202:239,1,85.4999977169037,6|0,1:2|0:0,0:0:0:0:
118,78,173386,2,0,P|151:106|169:159,1,85.4999977169037,10|0,0:0|0:0,0:0:0:0:
132,370,173707,1,2,1:2:0:0:
75,161,173867,1,2,0:0:0:0:
245,329,174028,1,10,0:0:0:0:
23,283,174188,1,2,0:0:0:0:
252,164,174348,5,2,1:2:0:0:
119,383,174509,2,0,L|107:283,1,85.4999977169037,2|8,0:0|0:0,0:0:0:0:
178,113,174830,2,0,L|167:197,1,85.4999977169037,2|0,0:0|1:2,0:0:0:0:
265,346,175151,1,2,0:0:0:0:
265,346,175231,1,2,0:0:0:0:
265,346,175311,2,0,P|321:360|355:349,1,85.4999977169037,10|2,0:0|0:0,0:0:0:0:
490,233,175632,6,0,L|403:222,1,85.4999977169037,6|0,1:2|1:2,0:0:0:0:
193,95,175953,2,0,L|280:84,1,85.4999977169037,10|0,0:0|1:2,0:0:0:0:
458,0,176274,2,0,L|447:84,1,85.4999977169037,10|10,0:0|0:0,0:0:0:0:
351,271,176594,1,10,0:0:0:0:
292,67,176755,1,10,0:0:0:0:
466,253,176915,5,10,0:0:0:0:
378,0,177076,1,10,0:0:0:0:
240,233,177236,1,10,0:0:0:0:
447,84,177397,1,10,0:0:0:0:
252,321,177557,1,10,0:0:0:0:
369,111,177717,1,2,1:2:0:0:
442,338,177878,1,14,0:0:0:0:
296,165,178038,1,0,1:2:0:0:
314,384,178199,6,0,B|357:344|357:344|330:222,1,170.999995433807,4|8,1:2|0:0,0:0:0:0:
177,289,178680,2,0,P|132:308|79:296,1,85.4999977169037,2|0,0:0|0:0,0:0:0:0:
14,132,179001,2,0,P|64:126|113:153,1,85.4999977169037,2|10,1:2|0:0,0:0:0:0:
124,177,179268,5,2,0:0:0:0:
165,204,179375,5,2,0:0:0:0:
214,201,179482,6,0,L|227:116,1,85.4999977169037,2|2,1:2|1:2,0:0:0:0:
357,0,179803,1,10,0:0:0:0:
395,169,179963,2,0,P|343:182|302:172,1,85.4999977169037,2|0,0:0|0:0,0:0:0:0:
463,76,180284,2,0,P|500:114|512:155,1,85.4999977169037,2|8,1:2|0:0,0:0:0:0:
398,276,180605,1,2,0:0:0:0:
347,95,180766,6,0,L|260:82,1,85.4999977169037,0|2,1:2|0:0,0:0:0:0:
106,266,181086,1,10,0:0:0:0:
290,170,181247,1,2,0:0:0:0:
82,103,181407,1,2,0:0:0:0:
209,263,181568,1,2,1:2:0:0:
209,263,181648,1,2,0:0:0:0:
209,263,181728,2,0,L|198:178,1,85.4999977169037,10|0,0:0|0:0,0:0:0:0:
176,1,182049,5,2,1:2:0:0:
118,183,182209,1,2,1:2:0:0:
250,62,182370,1,10,0:0:0:0:
287,222,182530,1,2,0:0:0:0:
162,95,182691,1,2,0:0:0:0:
118,280,182851,1,2,1:2:0:0:
118,280,182931,1,2,0:0:0:0:
118,280,183011,2,0,P|162:302|207:300,1,85.4999977169037,10|2,0:0|0:0,0:0:0:0:
370,175,183332,6,0,B|379:242|379:242|365:273|365:273|376:348,1,170.999995433807,6|8,1:2|0:0,0:0:0:0:
441,123,183814,2,0,P|403:93|354:89,1,85.4999977169037,2|0,0:0|0:0,0:0:0:0:
161,132,184134,1,2,1:2:0:0:
383,192,184295,1,10,0:0:0:0:
252,12,184455,1,2,0:0:0:0:
200,221,184616,5,2,1:2:0:0:
352,68,184776,1,2,1:2:0:0:
322,261,184937,1,10,0:0:0:0:
217,93,185097,2,0,L|130:82,1,85.4999977169037,2|0,0:0|0:0,0:0:0:0:
15,240,185418,1,2,1:2:0:0:
186,199,185578,2,0,L|273:188,1,85.4999977169037,10|2,0:0|0:0,0:0:0:0:
392,317,185899,6,0,P|410:277|405:232,1,85.4999977169037,2|2,1:2|0:0,0:0:0:0:
299,80,186220,2,0,P|324:115|366:133,1,85.4999977169037,10|2,0:0|0:0,0:0:0:0:
512,217,186541,1,2,0:0:0:0:
458,38,186701,1,2,1:2:0:0:
387,219,186862,2,0,L|292:232,1,85.4999977169037,10|2,0:0|0:0,0:0:0:0:
139,132,187183,5,2,1:2:0:0:
187,321,187343,1,2,1:2:0:0:
224,94,187503,1,10,0:0:0:0:
88,270,187664,1,2,0:0:0:0:
146,44,187824,1,2,0:0:0:0:
271,254,187985,1,2,1:2:0:0:
60,94,188145,2,0,P|49:141|66:186,1,85.4999977169037,10|10,0:0|0:0,0:0:0:0:
280,338,188466,6,0,L|269:241,1,85.4999977169037,6|0,1:2|0:0,0:0:0:0:
295,30,188787,1,8,0:0:0:0:
372,260,188947,1,0,1:2:0:0:
408,2,189108,1,8,0:0:0:0:
283,236,189268,1,0,1:2:0:0:
205,14,189429,1,10,0:0:0:0:
442,127,189589,1,0,1:2:0:0:
203,180,189749,6,0,P|184:231|193:273,1,85.4999977169037,10|0,0:0|1:2,0:0:0:0:
379,350,190070,1,8,0:0:0:0:
290,147,190231,2,0,P|255:105|214:91,1,85.4999977169037,2|8,1:2|0:0,0:0:0:0:
64,314,190552,1,2,1:2:0:0:
298,256,190712,1,10,0:0:0:0:
100,122,190872,1,2,1:2:0:0:
202,346,191033,6,0,B|212:282|212:282|194:238|194:238|203:175,1,170.999995433807,14|0,0:0|1:2,0:0:0:0:
299,56,191514,2,0,P|247:76|147:24,1,170.999995433807,8|0,0:3|1:2,0:0:0:0:
9,8,191995,2,0,L|20:96,1,85.4999977169037,4|0,0:3|1:2,0:0:0:0:
85,194,192316,6,0,P|37:187|-17:216,2,90.0000034332277,12|8|4,0:0|0:3|0:3,0:0:0:0:
181,257,192958,6,0,P|229:250|283:279,2,90.0000034332277,8|4|4,0:3|0:3|1:3,0:0:0:0:
50,287,193600,5,4,1:2:0:0:
85,59,200979,5,10,0:0:0:0:
97,90,201060,1,0,1:2:0:0:
96,123,201140,1,0,1:2:0:0:
83,154,201220,1,8,0:3:0:0:
60,179,201300,6,0,B|105:154|146:181|129:191|167:216|215:200,1,161.999995056153,6|0,1:2|0:0,0:0:0:0:
270,123,201942,2,0,P|243:179|301:249,1,161.999995056153,2|0,0:0|1:2,0:0:0:0:
451,290,202584,5,14,0:0:0:0:
397,85,202744,1,10,0:3:0:0:
465,269,202905,1,6,0:3:0:0:
496,45,203065,2,0,L|485:127,1,76.5000014591217,6|0,1:2|0:0,0:0:0:0:
386,233,203386,1,6,1:2:0:0:
313,52,203546,2,0,P|273:36|234:40,1,76.5000014591217,8|0,0:0|0:0,0:0:0:0:
118,177,203867,6,0,B|93:136|106:90|106:90|84:102|73:131,1,135,4|0,1:2|2:0,0:0:0:0:
49,237,204188,2,0,P|90:265|152:259,1,90,14|0,0:2|0:0,0:0:0:0:
304,204,204509,1,2,0:0:0:0:
166,352,204669,1,0,1:2:0:0:
202,143,204830,2,0,L|217:242,1,90,10|0,0:0|0:0,0:0:0:0:
398,306,205151,5,2,1:2:0:0:
300,108,205311,1,0,1:2:0:0:
245,314,205471,1,10,0:0:0:0:
384,155,205632,2,0,P|433:147|476:165,1,90,2|0,0:0|0:0,0:0:0:0:
473,364,205953,1,2,1:2:0:0:
327,226,206113,2,0,P|278:218|235:236,1,90,10|2,0:0|0:0,0:0:0:0:
130,358,206434,6,0,B|83:376|40:353|40:353|63:354|81:342,1,135,6|0,1:2|2:0,0:0:0:0:
144,269,206755,2,0,L|132:177,1,90,14|0,0:2|0:0,0:0:0:0:
0,25,207076,1,2,0:0:0:0:
50,212,207236,1,0,1:2:0:0:
129,32,207397,2,0,P|181:21|237:40,1,90,10|0,0:0|0:0,0:0:0:0:
356,207,207717,5,2,1:2:0:0:
173,114,207878,1,0,1:2:0:0:
373,30,208038,1,10,0:0:0:0:
252,205,208199,2,0,L|158:217,1,90,2|0,0:0|0:0,0:0:0:0:
231,13,208520,1,2,1:2:0:0:
338,188,208680,2,0,P|333:243|296:283,1,90,10|2,0:0|0:0,0:0:0:0:
138,334,209001,6,0,B|119:322|98:323|98:323|144:296|196:325,1,135,6|0,1:2|2:0,0:0:0:0:
277,356,209322,2,0,P|329:362|373:341,1,90,10|0,0:0|0:0,0:0:0:0:
445,152,209643,1,2,0:0:0:0:
510,339,209803,1,0,1:2:0:0:
356,208,209963,2,0,P|304:188|260:198,1,90,10|0,0:0|0:0,0:0:0:0:
142,291,210284,5,2,1:2:0:0:
211,102,210445,1,0,1:2:0:0:
306,277,210605,1,10,0:0:0:0:
92,174,210766,2,0,L|187:187,1,90,2|0,0:0|0:0,0:0:0:0:
341,107,211086,1,2,1:2:0:0:
195,0,211247,2,0,P|184:47|197:89,1,90,10|0,0:0|1:2,0:0:0:0:
388,262,211568,5,14,0:0:0:0:
284,41,211728,1,0,1:2:0:0:
221,279,211888,1,10,0:0:0:0:
364,84,212049,1,0,1:2:0:0:
314,326,212209,1,10,0:0:0:0:
211,102,212370,1,0,1:2:0:0:
444,188,212530,1,10,0:0:0:0:
208,296,212691,6,0,B|86:322|86:322|39:283,1,180,6|6,1:2|1:2,0:0:0:0:
0,117,213172,1,2,0:0:0:0:
118,225,213332,2,0,B|125:156|125:156|111:126|111:126|119:47,1,180,6|8,1:2|0:0,0:0:0:0:
319,47,213814,1,8,0:3:0:0:
215,193,213974,1,4,0:3:0:0:
203,11,214134,5,6,1:2:0:0:
336,98,216220,5,8,0:0:0:0:
166,247,216380,1,8,0:0:0:0:
238,38,216541,1,10,0:0:0:0:
336,237,216701,6,0,B|380:267|424:255|424:255|407:278|376:287,1,135,6|0,1:2|2:0,0:0:0:0:
296,329,217022,2,0,L|203:339,1,90,10|0,0:0|1:2,0:0:0:0:
49,172,217343,1,10,0:0:0:0:
252,247,217503,1,0,1:2:0:0:
59,343,217664,1,10,0:0:0:0:
214,164,217824,6,0,B|263:135|309:167|295:172|335:203|388:176,1,180,6|2,1:2|1:2,0:0:0:0:
420,355,218306,1,8,0:0:0:0:
252,247,218466,2,0,B|181:242|181:242|140:262|140:262|67:256,1,180,4|2,1:2|1:2,0:0:0:0:
103,78,218947,2,0,L|116:170,1,90,10|0,0:0|0:0,0:0:0:0:
237,339,219268,6,0,B|259:298|252:247|252:247|260:275|293:293,1,135,6|0,1:2|2:0,0:0:0:0:
363,304,219589,2,0,P|407:286|438:239,1,90,10|0,0:0|1:2,0:0:0:0:
423,10,219910,1,10,0:0:0:0:
345,214,220070,1,0,1:2:0:0:
255,18,220231,1,10,0:0:0:0:
496,157,220391,6,0,L|402:145,1,90,2|10,1:2|0:0,0:0:0:0:
141,216,220712,1,0,1:2:0:0:
344,45,220872,1,8,0:0:0:0:
253,298,221033,1,0,1:2:0:0:
176,61,221193,1,8,0:0:0:0:
387,253,221354,1,0,1:2:0:0:
127,199,221514,1,8,0:0:0:0:
395,124,221675,1,0,1:2:0:0:
395,124,221755,1,0,1:2:0:0:
395,124,221835,6,0,B|436:154|479:148|479:148|463:166|432:168,1,135,10|0,0:0|2:0,0:0:0:0:
328,186,222156,2,0,P|280:171|233:182,1,90,10|0,0:0|1:2,0:0:0:0:
60,350,222477,1,10,0:0:0:0:
278,263,222637,1,0,1:2:0:0:
49,164,222798,1,10,0:0:0:0:
209,358,222958,6,0,B|182:239|182:239|224:184,1,180,6|0,1:2|1:2,0:0:0:0:
320,75,223439,1,0,1:2:0:0:
351,216,223600,1,6,1:2:0:0:
80,49,224081,6,0,B|90:97|90:97|70:146,1,94.499997116089,2|0,0:0|2:0,0:0:0:0:
63,160,224402,6,0,B|106:134|152:159|135:166|178:191|223:170,1,161.999995056153,6|8,1:2|0:0,0:0:0:0:
318,40,224883,2,0,P|300:89|312:132,1,80.9999975280763,2|0,0:0|0:0,0:0:0:0:
438,247,225204,1,2,1:2:0:0:
394,89,225364,1,10,0:0:0:0:
331,237,225525,6,0,L|246:248,1,80.9999975280763,2|0,1:2|0:0,0:0:0:0:
87,120,225846,1,2,1:2:0:0:
276,161,226006,1,10,0:0:0:0:
134,275,226167,1,2,0:0:0:0:
134,275,226247,1,2,0:0:0:0:
134,275,226327,2,0,L|145:192,1,80.9999975280763,2|0,0:0|1:2,0:0:0:0:
140,54,226648,1,8,0:0:0:0:
51,200,226808,1,0,0:0:0:0:
0,28,226969,6,0,B|61:22|61:22|95:40|95:40|165:33,1,161.999995056153,2|8,1:2|0:0,0:0:0:0:
328,0,227450,2,0,L|315:83,1,80.9999975280763,2|0,0:0|0:0,0:0:0:0:
273,259,227771,1,2,1:2:0:0:
217,96,227931,1,10,0:0:0:0:
360,214,228092,6,0,B|467:239|467:239|506:202,1,161.999995056153,2|2,1:2|1:2,0:0:0:0:
483,1,228573,1,10,0:0:0:0:
440,152,228733,1,2,0:0:0:0:
355,14,228894,2,0,P|315:2|274:8,1,80.9999975280763,2|0,0:0|1:2,0:0:0:0:
183,176,229215,2,0,P|222:180|261:169,1,80.9999975280763,10|0,0:0|0:0,0:0:0:0:
150,0,229536,5,2,1:2:0:0:
48,193,229696,1,2,0:0:0:0:
217,96,229856,1,10,0:0:0:0:
21,30,230017,2,0,L|36:116,1,80.9999975280763,2|0,0:0|0:0,0:0:0:0:
75,280,230338,1,2,1:2:0:0:
130,113,230498,1,10,0:0:0:0:
197,287,230659,6,0,P|227:326|346:303,1,161.999995056153,2|2,1:2|1:2,0:0:0:0:
373,127,231140,1,10,0:0:0:0:
273,260,231300,1,0,0:0:0:0:
255,79,231461,2,0,L|272:165,1,80.9999975280763,2|0,0:0|1:2,0:0:0:0:
388,258,231782,1,8,0:0:0:0:
452,71,231942,1,2,1:2:0:0:
286,176,232102,6,0,P|237:186|187:171,1,80.9999975280763,10|0,0:0|1:2,0:0:0:0:
70,59,232423,1,8,0:0:0:0:
260,16,232584,2,0,L|246:101,1,80.9999975280763,6|0,1:2|0:0,0:0:0:0:
187,294,232905,1,10,0:0:0:0:
122,121,233065,1,8,0:0:0:0:
24,301,233225,6,0,P|67:318|117:307,1,80.9999975280763,6|2,1:2|0:0,0:0:0:0:
272,189,233546,1,10,0:0:0:0:
74,231,233707,1,10,0:0:0:0:
264,360,233867,2,0,L|277:278,1,80.9999975280763,6|0,1:2|0:0,0:0:0:0:
358,118,234188,1,0,1:2:0:0:
358,118,234268,1,0,1:2:0:0:
358,118,234348,1,8,0:3:0:0:
432,283,234509,1,10,0:3:0:0:
432,283,234589,1,4,0:3:0:0:
432,283,234669,6,0,B|369:291|369:291|340:273|340:273|272:280,1,161.999995056153,6|10,1:2|0:0,0:0:0:0:
129,381,235151,2,0,P|145:336|135:290,1,80.9999975280763,2|0,0:0|1:2,0:0:0:0:
26,154,235471,1,2,0:0:0:0:
210,211,235632,1,10,0:0:0:0:
56,334,235792,6,0,L|44:252,1,80.9999975280763,2|0,0:0|1:2,0:0:0:0:
180,79,236113,1,2,0:0:0:0:
131,259,236274,1,10,0:0:0:0:
61,76,236434,1,2,0:0:0:0:
221,197,236594,2,0,P|265:209|319:192,1,80.9999975280763,2|0,1:2|0:0,0:0:0:0:
276,34,236915,2,0,L|265:119,1,80.9999975280763,8|0,0:0|0:0,0:0:0:0:
374,286,237236,6,0,B|401:180|401:180|365:133,1,161.999995056153,2|8,1:2|0:0,0:0:0:0:
291,325,237717,2,0,P|316:359|365:378,1,80.9999975280763,2|0,0:0|1:2,0:0:0:0:
299,202,238038,1,2,0:0:0:0:
220,373,238199,1,10,0:0:0:0:
181,167,238359,6,0,L|194:249,1,80.9999975280763,2|0,0:0|1:2,0:0:0:0:
108,384,238680,1,2,0:0:0:0:
9,203,238840,1,10,0:0:0:0:
159,316,239001,1,2,0:0:0:0:
104,114,239161,2,0,L|91:196,1,80.9999975280763,2|0,1:2|0:0,0:0:0:0:
0,327,239482,2,0,P|36:308|87:314,1,80.9999975280763,8|0,0:0|0:0,0:0:0:0:
294,271,239803,5,2,1:2:0:0:
104,210,239963,1,2,0:0:0:0:
220,373,240124,1,10,0:0:0:0:
272,176,240284,2,0,P|325:175|367:207,1,80.9999975280763,2|0,0:0|1:2,0:0:0:0:
388,348,240605,1,2,0:0:0:0:
211,243,240766,1,10,0:0:0:0:
437,160,240926,6,0,L|424:253,1,80.9999975280763,2|0,0:0|1:2,0:0:0:0:
309,384,241247,1,2,0:0:0:0:
272,176,241407,2,0,P|236:155|190:156,1,80.9999975280763,10|0,0:0|0:0,0:0:0:0:
107,295,241728,2,0,L|121:206,1,80.9999975280763,2|0,1:2|0:0,0:0:0:0:
29,55,242049,2,0,L|41:135,1,80.9999975280763,8|0,0:0|0:0,0:0:0:0:
219,259,242370,5,14,0:0:0:0:
121,49,242530,1,2,1:2:0:0:
27,276,242691,1,10,0:0:0:0:
234,116,242851,1,2,1:2:0:0:
186,352,243011,1,8,0:0:0:0:
40,157,243172,1,2,1:2:0:0:
300,224,243332,1,10,0:0:0:0:
108,384,243493,6,0,B|99:323|99:323|117:283|117:283|109:219,1,161.999995056153,6|10,1:2|0:0,0:0:0:0:
88,67,243974,1,10,0:0:0:0:
208,211,244134,1,2,1:2:0:0:
208,211,244214,1,0,1:2:0:0:
208,211,244295,2,0,L|220:127,1,80.9999975280763,10|0,0:0|1:2,0:0:0:0:
352,1,244616,2,0,L|363:81,1,80.9999975280763,10|8,0:0|0:3,0:0:0:0:
383,223,244937,5,6,1:2:0:0:
256,192,245017,12,0,249830,2:0:0:0:
