osu file format v14

[General]
AudioFilename: audio.mp3
AudioLeadIn: 0
PreviewTime: 72878
Countdown: 0
SampleSet: Soft
StackLeniency: 0.5
Mode: 0
LetterboxInBreaks: 0
WidescreenStoryboard: 0

[Editor]
DistanceSpacing: 1
BeatDivisor: 4
GridSize: 4
TimelineZoom: 1

[Metadata]
Title:One In A Billion
TitleUnicode:One In A Billion
Artist:Wake Up, May'n!
ArtistUnicode:Wake Up, May'n!
Creator:A r M i N
Version:Fantasy
Source:異世界食堂
Tags:isekai shokudou restaurant to another world wake up girls! opening op anime japanese pop j-pop Armin A_r_M_i_N Kuki1537 Elinor [_Eli_] Pepekcz Rosiie shokudo jpop eli PEACE of SMILE full ver version
BeatmapID:2628691
BeatmapSetID:1264800

[Difficulty]
HPDrainRate:5.8
CircleSize:3.8
OverallDifficulty:9.2
ApproachRate:9.3
SliderMultiplier:1.9
SliderTickRate:1

[Events]
//Background and Video events
0,0,"bg.jpg",0,0
//Break Periods
2,193800,200425
//Storyboard Layer 0 (Background)
//Storyboard Layer 1 (Fail)
//Storyboard Layer 2 (Pass)
//Storyboard Layer 3 (Foreground)
//Storyboard Layer 4 (Overlay)
//Storyboard Sound Samples

[TimingPoints]
616,394.736842105263,4,2,1,60,1,0
6931,-142.857142857143,4,2,1,60,0,0
30582,320.855614973262,4,2,1,60,1,0
30582,-111.111111111111,4,2,1,60,0,0
31704,-100,4,2,1,60,0,0
31889,320.855614973262,4,2,1,70,1,0
42156,-125,4,2,1,60,0,0
52423,-111.111111111111,4,2,1,65,0,0
62691,-111.111111111111,4,2,1,70,0,0
70391,-100,4,2,1,70,0,0
72958,-83.3333333333333,4,2,1,80,0,1
73198,-83.3333333333333,4,2,1,5,0,1
73279,-90.9090909090909,4,2,1,80,0,1
75765,-90.9090909090909,4,2,1,5,0,1
75846,-90.9090909090909,4,2,1,80,0,1
78332,-90.9090909090909,4,2,1,5,0,1
78413,-90.9090909090909,4,2,1,80,0,1
83465,-90.9090909090909,4,2,1,5,0,1
83546,-90.9090909090909,4,2,1,80,0,1
86032,-90.9090909090909,4,2,1,5,0,1
86113,-90.9090909090909,4,2,1,80,0,1
93493,-125,4,2,1,60,0,0
96060,-90.9090909090909,4,2,1,80,0,1
102958,-90.9090909090909,4,2,1,70,0,0
103760,-100,4,2,1,70,0,0
106327,-125,4,2,1,60,0,0
116594,-111.111111111111,4,2,1,70,0,0
124295,-100,4,2,1,70,0,0
126862,-83.3333333333333,4,2,1,80,0,1
127102,-83.3333333333333,4,2,1,5,0,1
127183,-90.9090909090909,4,2,1,80,0,1
129669,-90.9090909090909,4,2,1,5,0,1
129749,-90.9090909090909,4,2,1,80,0,1
132235,-90.9090909090909,4,2,1,5,0,1
132316,-90.9090909090909,4,2,1,80,0,1
137369,-90.9090909090909,4,2,1,5,0,1
137450,-90.9090909090909,4,2,1,80,0,1
139936,-90.9090909090909,4,2,1,5,0,1
140017,-90.9090909090909,4,2,1,80,0,1
147637,-90.9090909090909,4,2,1,5,0,1
147717,-90.9090909090909,4,2,1,80,0,1
157664,-111.111111111111,4,2,1,60,0,0
167850,-111.111111111111,4,2,1,5,0,0
167931,-100,4,2,1,70,0,0
188466,-90.9090909090909,4,2,1,80,0,1
191033,-111.111111111111,4,2,1,70,0,0
193600,-166.666666666667,4,2,1,50,0,0
201300,-142.857142857143,4,2,1,60,0,0
202584,-100,4,2,1,70,0,0
203867,-83.3333333333333,4,2,1,80,0,1
204107,-83.3333333333333,4,2,1,5,0,1
204188,-90.9090909090909,4,2,1,80,0,1
206674,-90.9090909090909,4,2,1,5,0,1
206755,-90.9090909090909,4,2,1,80,0,1
209241,-90.9090909090909,4,2,1,5,0,1
209322,-90.9090909090909,4,2,1,80,0,1
214134,-125,4,2,1,60,0,0
216701,-90.9090909090909,4,2,1,80,0,1
223600,-100,4,2,1,70,0,0
224081,-200,4,2,1,70,0,0
224321,-200,4,2,1,5,0,0
224402,-100,4,2,1,70,0,0
249830,-100,4,2,1,5,0,0

[Colours]
Combo1 : 249,21,123
Combo2 : 0,128,192
Combo3 : 128,64,64
Combo4 : 255,128,128

[HitObjects]
19,120,6931,6,0,L|42:250,1,132.999995941162,4|2,1:2|0:0,0:0:0:0:
131,301,7523,1,0,0:0:0:0:
131,301,7721,2,0,L|142:236,1,66.4999979705811,2|0,0:0|0:0,0:0:0:0:
231,187,8115,2,0,L|242:252,1,66.4999979705811,2|0,0:0|0:0,0:0:0:0:
144,134,8510,6,0,P|193:91|259:88,1,132.999995941162,2|2,0:0|0:0,0:0:0:0:
347,39,9102,2,0,L|358:104,1,66.4999979705811,2|0,0:0|0:0,0:0:0:0:
452,154,9497,1,2,0:0:0:0:
452,154,9694,2,0,L|441:219,1,66.4999979705811,2|0,0:0|0:0,0:0:0:0:
328,334,10089,6,0,B|261:322|269:368|200:357,1,132.999995941162,0|2,0:0|0:0,0:0:0:0:
116,301,10681,1,0,0:0:0:0:
116,301,10879,2,0,L|127:236,1,66.4999979705811,2|0,0:0|0:0,0:0:0:0:
211,179,11273,2,0,L|200:114,1,66.4999979705811,2|0,0:0|0:0,0:0:0:0:
373,35,11668,6,0,B|418:83|418:83|399:146,1,132.999995941162,2|2,0:0|0:0,0:0:0:0:
311,196,12260,2,0,L|300:131,1,66.4999979705811,2|0,0:0|0:0,0:0:0:0:
211,82,12655,1,2,0:0:0:0:
211,82,12852,2,0,L|200:147,1,66.4999979705811,2|0,0:0|0:0,0:0:0:0:
37,306,13247,6,0,P|7:248|25:185,1,132.999995941162,0|2,0:0|0:0,0:0:0:0:
102,121,13839,1,0,0:0:0:0:
102,121,14037,2,0,P|139:131|167:137,1,66.4999979705811,2|0,0:0|0:0,0:0:0:0:
229,216,14431,2,0,P|266:206|294:200,1,66.4999979705811,2|0,0:0|0:0,0:0:0:0:
457,365,14826,6,0,B|444:340|425:321|425:321|457:248,1,132.999995941162,2|2,0:0|0:0,0:0:0:0:
409,159,15418,2,0,P|377:148|344:146,1,66.4999979705811,2|0,0:0|0:0,0:0:0:0:
264,83,15813,1,2,0:0:0:0:
264,83,16010,2,0,P|232:93|199:95,1,66.4999979705811,2|0,0:0|0:0,0:0:0:0:
47,5,16405,6,0,L|24:135,1,132.999995941162,2|2,0:0|0:0,0:0:0:0:
95,209,16997,1,0,0:0:0:0:
199,95,17194,2,0,L|222:225,1,132.999995941162,2|2,0:0|0:0,0:0:0:0:
308,280,17787,6,0,L|294:345,1,66.4999979705811,2|0,0:0|0:0,0:0:0:0:
395,227,18181,1,2,0:0:0:0:
395,227,18379,2,0,L|408:292,1,66.4999979705811,2|2,0:0|0:0,0:0:0:0:
223,226,18773,2,0,L|246:96,1,132.999995941162
0,9,19563,6,0,P|10:42|18:75,1,66.4999979705811,2|2,0:0|0:0,0:0:0:0:
108,119,19958,2,0,P|98:152|90:185,1,66.4999979705811,2|2,0:0|0:0,0:0:0:0:
163,254,20352,2,0,P|227:258|277:216,1,132.999995941162,2|0,0:0|0:0,0:0:0:0:
304,118,20944,1,2,0:0:0:0:
419,209,21142,6,0,P|409:176|401:143,1,66.4999979705811
484,86,21537,2,0,P|493:117|501:150,1,66.4999979705811,2|0,0:0|0:0,0:0:0:0:
394,44,21931,2,0,B|327:32|335:78|266:67,1,132.999995941162,2|0,0:0|0:0,0:0:0:0:
190,2,22523,1,2,0:0:0:0:
132,126,22721,6,0,B|143:148|160:169|160:169|131:247,1,132.999995941162,2|2,0:0|0:0,0:0:0:0:
49,304,23313,1,0,0:0:0:0:
188,382,23510,2,0,P|249:370|321:354,1,132.999995941162,2|2,0:0|0:0,0:0:0:0:
402,225,24102,6,0,P|369:216|337:207,1,66.4999979705811,2|0,0:0|0:0,0:0:0:0:
435,340,24497,2,0,P|508:276|510:179,1,199.499993911743,2|0,0:0|0:0,0:0:0:0:
437,112,25287,1,2,0:0:0:0:
437,112,25484,2,0,P|404:120|372:129,1,66.4999979705811,2|0,0:0|0:0,0:0:0:0:
258,28,25879,6,0,P|291:29|322:40,1,66.4999979705811,2|0,0:0|0:0,0:0:0:0:
292,190,26273,2,0,P|276:160|271:128,1,66.4999979705811,2|0,0:0|0:0,0:0:0:0:
386,229,26668,2,0,P|342:277|278:290,1,132.999995941162,2|2,0:0|0:0,0:0:0:0:
199,228,27260,1,2,0:0:0:0:
103,350,27458,6,0,P|95:317|88:285,1,66.4999979705811,2|0,0:0|0:0,0:0:0:0:
11,220,27852,2,0,P|24:154|37:89,1,132.999995941162
248,23,29037,6,0,P|260:59|270:92,1,66.4999979705811,2|0,0:0|0:0,0:0:0:0:
183,155,29431,2,0,P|173:187|162:219,1,66.4999979705811,2|0,0:0|0:0,0:0:0:0:
215,304,29826,2,0,P|271:336|334:319,1,132.999995941162,2|2,0:0|0:0,0:0:0:0:
310,221,30418,1,2,0:0:0:0:
133,248,30582,6,0,L|117:332,1,85.4999973907472,2|0,0:0|0:0,0:0:0:0:
7,202,30902,1,0,0:0:0:0:
219,190,31063,2,0,L|234:274,1,85.4999973907472,2|0,0:0|0:0,0:0:0:0:
97,151,31384,1,2,1:2:0:0:
300,86,31544,1,10,0:0:0:0:
133,248,31704,1,2,0:0:0:0:
340,181,31889,6,0,P|430:171|493:239,1,190,4|8,1:2|0:0,0:0:0:0:
262,248,32370,2,0,P|240:206|242:151,1,95,2|0,0:0|0:0,0:0:0:0:
395,269,32691,1,0,1:2:0:0:
214,365,32851,2,0,P|167:357|119:348,1,95,10|2,0:0|1:2,0:0:0:0:
287,193,33172,6,0,P|294:239|303:286,1,95,2|0,0:0|1:2,0:0:0:0:
114,152,33493,2,0,P|106:198|97:245,1,95,10|0,0:0|0:0,0:0:0:0:
216,92,33814,1,2,0:0:0:0:
12,182,33974,1,0,1:2:0:0:
211,308,34134,2,0,P|202:261|194:214,1,95,10|0,0:0|0:0,0:0:0:0:
432,118,34455,6,0,B|449:153|475:178|475:178|430:290,1,190,6|8,1:2|0:0,0:0:0:0:
339,73,34937,2,0,P|412:16|500:41,1,190,2|0,0:0|1:2,0:0:0:0:
347,177,35418,2,0,L|254:160,1,95,10|0,0:0|1:2,0:0:0:0:
120,348,35739,5,2,0:0:0:0:
284,259,35899,1,0,1:2:0:0:
143,131,36060,2,0,L|160:224,1,95,8|0,0:0|0:0,0:0:0:0:
293,361,36380,1,2,0:0:0:0:
253,159,36541,1,0,1:2:0:0:
120,348,36701,1,8,0:0:0:0:
365,242,36862,1,8,0:0:0:0:
176,86,37022,6,0,B|156:116|130:139|130:139|177:256,1,190,6|8,1:2|0:0,0:0:0:0:
379,321,37503,2,0,L|362:227,1,95
292,380,37824,1,0,1:2:0:0:
480,297,37985,1,10,0:0:0:0:
266,191,38145,1,2,1:2:0:0:
473,79,38306,6,0,L|456:172,1,95,2|0,0:0|1:2,0:0:0:0:
275,18,38626,2,0,L|368:1,1,95,10|0,0:0|0:0,0:0:0:0:
266,191,38947,1,2,0:0:0:0:
172,30,39108,1,0,1:2:0:0:
364,122,39268,1,10,0:0:0:0:
145,233,39429,1,0,1:2:0:0:
275,18,39589,5,14,1:2:0:0:
377,276,39749,1,0,1:2:0:0:
172,133,39910,5,8,0:0:0:0:
444,158,40070,2,0,B|345:130|361:217|262:189,1,190,6|0,1:2|1:2,0:0:0:0:
171,331,40552,5,14,1:2:0:0:
292,90,40712,1,0,1:2:0:0:
348,377,40872,5,10,1:2:0:0:
172,229,41033,2,0,P|82:219|19:287,1,190,4|0,1:2|1:2,0:0:0:0:
250,296,41514,6,0,P|272:254|270:199,1,95,10|0,0:0|1:2,0:0:0:0:
118,317,41835,1,0,1:2:0:0:
304,384,41995,1,8,0:0:0:0:
172,229,42156,6,0,B|157:204|135:185|135:185|173:95,1,152,4|8,1:2|0:0,0:0:0:0:
215,4,42637,1,2,0:0:0:0:
347,100,42798,2,0,P|309:101|274:88,1,76,2|0,0:0|1:2,0:0:0:0:
424,33,43118,2,0,P|443:65|449:102,1,76,10|0,0:0|0:0,0:0:0:0:
410,265,43439,6,0,L|397:191,1,76,2|0,1:2|1:2,0:0:0:0:
497,212,43760,1,8,0:0:0:0:
319,314,43921,2,0,B|241:300|251:353|174:339,1,152,2|0,0:0|1:2,0:0:0:0:
60,290,44402,2,0,L|73:364,1,76,8|0,0:0|0:0,0:0:0:0:
193,240,44723,6,0,L|166:90,1,152,2|8,1:2|0:0,0:0:0:0:
339,7,45204,2,0,P|381:63|372:144,1,152,2|2,0:0|1:2,0:0:0:0:
219,216,45685,1,10,0:0:0:0:
283,93,45846,1,2,0:0:0:0:
395,243,46006,6,0,L|321:230,1,76,0|0,1:2|1:2,0:0:0:0:
189,338,46327,2,0,P|226:331|259:312,1,76,10|0,0:0|0:0,0:0:0:0:
101,285,46648,2,0,P|87:320|88:358,1,76,2|0,0:0|1:2,0:0:0:0:
191,234,46969,2,0,P|166:204|133:186,1,76,10|0,0:0|0:0,0:0:0:0:
259,312,47290,6,0,L|408:285,1,152,0|10,1:2|0:0,0:0:0:0:
478,208,47771,1,2,0:0:0:0:
351,117,47931,2,0,P|358:154|378:187,1,76,2|0,0:0|1:2,0:0:0:0:
404,29,48252,2,0,P|368:15|330:16,1,76,10|0,0:0|0:0,0:0:0:0:
180,98,48573,6,0,L|254:85,1,76,0|0,1:2|1:2,0:0:0:0:
104,23,48894,1,10,0:0:0:0:
153,199,49054,1,2,0:0:0:0:
7,111,49215,2,0,L|81:124,1,76,2|0,0:0|1:2,0:0:0:0:
105,291,49536,2,0,P|75:267|56:234,1,76,10|0,0:0|0:0,0:0:0:0:
235,137,49856,6,0,B|270:185|270:185|236:272,2,152,2|8|2,1:2|0:0|0:0,0:0:0:0:
173,55,50659,1,0,1:2:0:0:
79,186,50819,2,0,L|153:199,1,76,8|2,0:0|0:0,0:0:0:0:
29,94,51140,5,6,1:2:0:0:
99,288,51300,1,0,1:2:0:0:
235,137,51461,1,10,0:0:0:0:
196,347,51621,1,2,1:2:0:0:
196,347,51701,1,0,1:2:0:0:
196,347,51782,1,8,0:3:0:0:
79,186,51942,1,10,0:3:0:0:
255,239,52102,1,6,0:3:0:0:
99,288,52263,1,4,0:3:0:0:
235,137,52423,6,0,P|318:123|385:180,1,170.999994781494,4|8,1:2|0:0,0:0:0:0:
277,307,52905,1,2,0:0:0:0:
151,197,53065,2,0,L|136:112,1,85.4999973907472,2|0,0:0|1:2,0:0:0:0:
292,223,53386,2,0,L|277:307,1,85.4999973907472,10|0,0:0|0:0,0:0:0:0:
382,174,53707,6,0,L|466:159,1,85.4999973907472,2|0,1:2|1:2,0:0:0:0:
356,37,54028,1,8,0:0:0:0:
292,222,54188,2,0,P|210:237|144:186,1,170.999994781494,2|0,0:0|1:2,0:0:0:0:
220,52,54669,2,0,L|235:137,1,85.4999973907472,8|0,0:0|0:0,0:0:0:0:
45,213,54990,6,0,P|54:131|122:85,1,170.999994781494,2|8,1:2|0:0,0:0:0:0:
313,156,55471,2,0,L|145:186,1,170.999994781494,2|2,0:0|1:2,0:0:0:0:
39,26,55953,1,10,0:0:0:0:
225,68,56113,1,2,0:0:0:0:
45,213,56274,6,0,L|59:128,1,85.4999973907472,0|0,1:2|1:2,0:0:0:0:
207,268,56594,2,0,P|168:286|126:286,1,85.4999973907472,10|0,0:0|0:0,0:0:0:0:
247,174,56915,2,0,P|281:197|303:234,1,85.4999973907472,2|0,0:0|1:2,0:0:0:0:
145,186,57236,2,0,P|148:143|169:107,1,85.4999973907472,10|0,0:0|0:0,0:0:0:0:
389,29,57557,6,0,L|418:197,1,170.999994781494,0|10,1:2|0:0,0:0:0:0:
337,361,58038,1,2,0:0:0:0:
506,316,58199,2,0,L|421:301,1,85.4999973907472,2|0,0:0|1:2,0:0:0:0:
234,234,58520,2,0,L|318:219,1,85.4999973907472,10|0,0:0|0:0,0:0:0:0:
157,303,58840,6,0,P|135:266|132:224,1,85.4999973907472,2|0,1:2|1:2,0:0:0:0:
249,79,59161,2,0,P|227:115|192:139,1,85.4999973907472,10|0,0:0|0:0,0:0:0:0:
10,111,59482,2,0,P|52:111|91:130,1,85.4999973907472,2|0,0:0|1:2,0:0:0:0:
54,292,59803,2,0,P|33:256|30:214,1,85.4999973907472,10|0,0:0|0:0,0:0:0:0:
162,55,60124,6,0,L|132:223,1,170.999994781494,2|8,1:2|0:0,0:0:0:0:
191,308,60605,1,0,0:0:0:0:
315,196,60766,2,0,P|273:196|235:215,1,85.4999973907472,2|0,0:0|1:2,0:0:0:0:
394,266,61086,2,0,P|415:229|418:187,1,85.4999973907472,8|0,0:0|0:0,0:0:0:0:
218,85,61407,5,2,1:2:0:0:
296,298,61568,1,0,1:2:0:0:
316,53,61728,1,8,0:0:0:0:
394,266,61889,1,0,1:2:0:0:
201,187,62049,5,8,0:0:0:0:
391,124,62209,1,0,1:2:0:0:
279,255,62370,1,8,0:3:0:0:
218,85,62530,1,4,0:3:0:0:
380,234,62691,6,0,L|363:319,1,85.4999973907472,4|2,1:2|0:0,0:0:0:0:
176,256,63011,1,2,0:0:0:0:
312,157,63172,1,2,1:2:0:0:
228,345,63332,1,10,0:0:0:0:
125,166,63493,1,2,1:2:0:0:
279,255,63653,2,0,P|321:260|364:246,1,85.4999973907472,2|0,0:0|0:0,0:0:0:0:
464,67,63974,5,2,1:2:0:0:
312,157,64134,1,10,0:0:0:0:
463,251,64295,1,2,0:0:0:0:
361,66,64455,1,2,1:2:0:0:
279,255,64616,2,0,L|190:238,1,85.4999973907472,8|0,0:0|1:2,0:0:0:0:
98,103,64937,2,0,L|182:87,1,85.4999973907472
412,136,65257,5,0,1:2:0:0:
313,11,65418,2,0,B|269:62|269:62|316:166,1,170.999994781494,2|2,0:0|1:2,0:0:0:0:
232,335,65899,1,10,0:0:0:0:
380,234,66060,1,2,1:2:0:0:
210,163,66220,1,2,0:0:0:0:
334,327,66380,1,2,0:0:0:0:
375,74,66541,5,2,1:2:0:0:
277,242,66701,1,10,0:0:0:0:
203,42,66862,1,2,0:0:0:0:
91,245,67022,2,0,L|176:261,1,85.4999973907472,2|8,1:2|0:0,0:0:0:0:
58,119,67343,1,2,1:2:0:0:
0,319,67503,1,10,0:0:0:0:
153,160,67664,1,10,0:0:0:0:
214,380,67824,6,0,L|390:346,2,170.999994781494,6|8|2,1:2|0:0|0:0,0:0:0:0:
91,245,68626,1,0,1:2:0:0:
286,139,68787,2,0,L|270:223,1,85.4999973907472,8|0,0:0|0:0,0:0:0:0:
189,59,69108,5,2,1:2:0:0:
388,150,69268,1,0,1:2:0:0:
186,281,69429,2,0,L|170:196,1,85.4999973907472,8|0,0:0|0:0,0:0:0:0:
295,366,69749,1,2,0:0:0:0:
80,280,69910,1,0,1:2:0:0:
286,139,70070,1,8,0:0:0:0:
163,383,70231,1,0,1:2:0:0:
172,120,70391,5,14,0:0:0:0:
292,384,70552,1,0,1:2:0:0:
324,43,70712,5,14,0:0:0:0:
228,302,70872,1,0,1:2:0:0:
196,27,71033,5,14,0:0:0:0:
329,287,71193,1,0,1:2:0:0:
417,0,71354,1,14,0:0:0:0:
228,302,71514,6,0,L|135:284,1,95,6|0,1:2|0:0,0:0:0:0:
403,216,71835,2,0,P|428:259|429:303,1,95,6|0,1:2|0:0,0:0:0:0:
198,202,72156,2,0,P|200:155|224:114,1,95,6|0,1:2|0:0,0:0:0:0:
329,287,72477,1,6,1:2:0:0:
118,267,72637,2,0,L|100:174,1,95,8|0,0:0|0:0,0:0:0:0:
316,26,72958,6,0,B|336:58|364:75|364:75|328:170,1,170.999994781494,4|0,1:2|2:0,0:0:0:0:
293,267,73279,6,0,L|395:247,1,104.500003189087,14|0,0:2|0:0,0:0:0:0:
227,150,73600,1,2,0:0:0:0:
195,338,73760,1,0,1:2:0:0:
328,170,73921,2,0,P|326:122|296:73,1,104.500003189087,10|0,0:0|0:0,0:0:0:0:
88,166,74241,5,2,1:2:0:0:
293,267,74402,1,0,1:2:0:0:
165,55,74562,1,10,0:0:0:0:
56,277,74723,2,0,L|158:257,1,104.500003189087,2|0,0:0|0:0,0:0:0:0:
364,343,75044,5,2,1:2:0:0:
216,158,75204,1,10,0:0:0:0:
437,270,75364,1,2,0:0:0:0:
289,85,75525,2,0,P|328:41|421:36,1,156.750004783631,6|0,1:2|2:0,0:0:0:0:
483,111,75846,6,0,L|381:131,1,104.500003189087,14|0,0:2|0:0,0:0:0:0:
216,272,76167,1,2,0:0:0:0:
289,85,76327,1,0,1:2:0:0:
437,270,76487,2,0,P|393:297|341:300,1,104.500003189087,10|0,0:0|0:0,0:0:0:0:
136,121,76808,5,2,1:2:0:0:
362,199,76969,1,0,1:2:0:0:
129,307,77129,1,10,0:0:0:0:
231,48,77290,2,0,L|251:150,1,104.500003189087,2|0,0:0|0:0,0:0:0:0:
468,320,77610,5,2,1:2:0:0:
340,97,77771,1,10,0:0:0:0:
379,373,77931,1,2,0:0:0:0:
251,150,78092,2,0,P|174:146|118:198,1,156.750004783631,6|0,1:2|2:0,0:0:0:0:
148,299,78413,6,0,L|250:319,1,104.500003189087,14|0,0:2|0:0,0:0:0:0:
473,179,78733,1,2,0:0:0:0:
287,223,78894,1,0,1:2:0:0:
446,374,79054,2,0,L|426:272,1,104.500003189087,10|0,0:0|0:0,0:0:0:0:
309,82,79375,5,2,1:2:0:0:
250,319,79536,1,0,1:2:0:0:
473,179,79696,1,10,0:0:0:0:
204,137,79856,2,0,B|97:107|113:201|7:171,1,209.000006378174,2|2,0:0|1:2,0:0:0:0:
151,337,80338,2,0,L|171:235,1,104.500003189087,10|0,0:0|0:0,0:0:0:0:
358,130,80659,6,0,P|385:174|388:226,1,104.500003189087,2|0,1:2|0:0,0:0:0:0:
224,73,80979,2,0,P|248:27|292:0,1,104.500003189087,8|0,0:0|0:0,0:0:0:0:
287,205,81300,1,2,0:0:0:0:
122,86,81461,1,0,1:2:0:0:
358,130,81621,2,0,L|460:150,1,104.500003189087,8|0,0:0|0:0,0:0:0:0:
291,333,81942,5,14,0:0:0:0:
224,73,82102,1,10,0:3:0:0:
139,348,82263,1,6,0:3:0:0:
358,130,82423,2,0,L|460:150,1,104.500003189087,6|0,1:2|0:0,0:0:0:0:
221,256,82744,1,6,1:2:0:0:
319,34,82905,1,8,0:0:0:0:
456,287,83065,1,8,0:0:0:0:
456,287,83145,1,8,0:0:0:0:
456,287,83225,2,0,B|375:268|386:331|306:313,1,156.750004783631,4|0,1:2|2:0,0:0:0:0:
221,256,83546,6,0,L|241:154,1,104.500003189087,14|0,0:2|0:0,0:0:0:0:
56,19,83867,1,2,0:0:0:0:
144,187,84028,1,0,1:2:0:0:
261,32,84188,2,0,P|209:35|165:62,1,104.500003189087,10|0,0:0|0:0,0:0:0:0:
328,242,84509,5,2,1:2:0:0:
422,14,84669,1,0,1:2:0:0:
239,134,84830,1,10,0:0:0:0:
464,232,84990,2,0,L|444:130,1,104.500003189087,2|0,0:0|0:0,0:0:0:0:
246,240,85311,5,2,1:2:0:0:
447,335,85471,1,10,0:0:0:0:
263,137,85632,1,2,0:0:0:0:
464,232,85792,2,0,B|499:185|499:185|464:92,1,156.750004783631,6|0,1:2|2:0,0:0:0:0:
387,24,86113,6,0,L|367:126,1,104.500003189087,14|0,0:2|0:0,0:0:0:0:
172,230,86434,1,2,0:0:0:0:
284,60,86594,1,0,1:2:0:0:
381,271,86755,2,0,P|329:267|285:240,1,104.500003189087,10|0,0:0|0:0,0:0:0:0:
142,62,87076,5,2,1:2:0:0:
360,169,87236,1,0,1:2:0:0:
125,264,87397,1,10,0:0:0:0:
242,37,87557,2,0,L|262:139,1,104.500003189087,2|0,0:0|0:0,0:0:0:0:
256,318,87878,5,2,1:2:0:0:
363,79,88038,1,10,0:0:0:0:
352,354,88199,1,2,0:0:0:0:
459,115,88359,2,0,L|479:217,1,104.500003189087,6|0,1:2|0:0,0:0:0:0:
263,100,88680,6,0,P|266:48|293:4,1,104.500003189087,10|0,0:0|0:0,0:0:0:0:
381,184,89001,1,2,0:0:0:0:
162,116,89161,1,0,1:2:0:0:
363,79,89322,2,0,L|465:59,1,104.500003189087,10|0,0:0|0:0,0:0:0:0:
361,286,89643,5,2,1:2:0:0:
263,100,89803,1,0,1:2:0:0:
482,204,89963,1,10,0:0:0:0:
260,305,90124,2,0,L|280:203,1,104.500003189087,2|0,0:0|0:0,0:0:0:0:
441,352,90445,1,2,1:2:0:0:
189,380,90605,2,0,P|162:335|159:284,1,104.500003189087,10|0,0:0|1:2,0:0:0:0:
363,79,90926,5,14,0:0:0:0:
260,305,91086,1,0,1:2:0:0:
237,36,91247,5,10,0:0:0:0:
351,257,91407,1,0,1:2:0:0:
444,15,91568,5,10,0:0:0:0:
265,202,91728,1,0,1:2:0:0:
512,147,91889,5,10,0:0:0:0:
237,36,92049,2,0,B|207:56|182:86|182:86|57:35,1,209.000006378174,6|6,1:2|1:2,0:0:0:0:
168,234,92530,1,2,0:0:0:0:
326,88,92691,2,0,P|423:64|493:136,1,209.000006378174,6|8,1:2|0:0,0:0:0:0:
279,255,93172,1,8,0:3:0:0:
237,36,93332,1,4,0:3:0:0:
395,165,93493,6,0,L|380:239,1,76,6|2,1:2|0:0,0:0:0:0:
221,169,93814,2,0,P|255:153|293:152,1,76,2|2,0:0|0:0,0:0:0:0:
176,263,94134,2,0,P|125:208|124:134,1,152,2|0,0:0|0:0,0:0:0:0:
251,20,94616,2,0,L|221:169,1,152,2|0,0:0|0:0,0:0:0:0:
382,242,95097,2,0,B|416:156|416:156|382:107,1,152,2|2,0:0|0:0,0:0:0:0:
280,254,95578,5,8,0:0:0:0:
503,181,95739,1,8,0:0:0:0:
259,52,95899,1,10,0:0:0:0:
375,326,96060,6,0,L|395:224,1,104.500003189087,6|0,1:2|0:0,0:0:0:0:
149,94,96380,5,10,0:0:0:0:
223,359,96541,1,0,1:2:0:0:
259,52,96701,5,10,0:0:0:0:
131,313,96862,1,0,1:2:0:0:
76,0,97022,5,10,0:0:0:0:
217,255,97183,2,0,L|319:234,1,104.500003189087,6|0,1:2|0:0,0:0:0:0:
189,90,97503,1,2,1:2:0:0:
131,313,97664,1,8,0:0:0:0:
302,127,97824,2,0,P|399:103|469:175,1,209.000006378174,4|2,1:2|1:2,0:0:0:0:
257,221,98306,2,0,L|155:200,1,104.500003189087,10|0,0:0|0:0,0:0:0:0:
400,95,98626,5,6,1:2:0:0:
319,342,98787,1,0,1:0:0:0:
311,64,98947,5,10,0:0:0:0:
217,320,99108,1,0,1:2:0:0:
222,33,99268,5,10,0:0:0:0:
116,298,99429,1,0,1:2:0:0:
133,2,99589,5,10,0:0:0:0:
14,276,99749,1,2,1:2:0:0:
287,163,99910,5,10,0:0:0:0:
13,42,100070,1,0,1:2:0:0:
327,33,100231,5,8,0:2:0:0:
44,159,100391,1,0,1:2:0:0:
293,285,100552,5,8,0:0:0:0:
162,13,100712,1,0,1:2:0:0:
137,331,100872,5,8,0:0:0:0:
240,81,101033,2,0,L|251:132,1,52.2500015945435,0|0,1:0|1:0,0:0:0:0:
372,367,101193,5,10,0:0:0:0:
95,240,101354,1,0,0:0:0:0:
421,206,101514,5,10,0:0:0:0:
137,331,101675,1,0,1:2:0:0:
209,54,101835,5,10,0:0:0:0:
323,337,101995,1,0,1:2:0:0:
325,0,102156,5,10,0:0:0:0:
174,230,102316,2,0,B|280:260|264:166|371:196,1,209.000006378174,6|0,1:2|1:2,0:0:0:0:
512,346,102798,1,0,1:2:0:0:
421,89,102958,1,6,1:2:0:0:
362,60,103760,6,0,L|268:40,1,95,6|2,1:2|0:0,0:0:0:0:
84,148,104081,2,0,L|177:128,1,95,8|0,0:0|1:2,0:0:0:0:
209,126,104322,1,8,0:3:0:0:
209,126,104402,1,4,0:3:0:0:
291,316,104562,1,0,1:2:0:0:
149,229,104723,1,8,0:3:0:0:
117,360,104883,1,4,0:3:0:0:
252,220,105044,5,8,0:0:0:0:
57,276,105204,2,0,B|38:243|10:219|10:219|58:113,1,190,4|0,1:2|1:2,0:0:0:0:
220,1,105685,1,12,0:0:0:0:
155,148,105846,1,0,1:2:0:0:
29,14,106006,2,0,L|122:33,1,95,8|4,0:3|0:3,0:0:0:0:
390,78,106327,6,0,L|421:226,1,152,4|0,1:2|0:0,0:0:0:0:
362,312,106808,1,2,0:0:0:0:
362,312,106969,2,0,P|317:312|288:300,1,76,2|0,0:0|0:0,0:0:0:0:
218,225,107290,2,0,P|173:225|144:237,1,76,2|0,0:0|0:0,0:0:0:0:
12,328,107610,6,0,L|43:180,1,152,2|0,0:0|0:0,0:0:0:0:
0,85,108092,2,0,P|62:44|135:57,1,152,2|0,0:0|0:0,0:0:0:0:
206,133,108573,1,0,0:0:0:0:
349,20,108894,6,0,B|329:44|308:59|308:59|338:149,1,152,2|0,0:0|0:0,0:0:0:0:
430,196,109375,2,0,L|402:349,1,152,2|2,0:0|0:0,0:0:0:0:
306,377,109856,2,0,P|261:377|232:365,1,76,2|2,0:0|0:0,0:0:0:0:
108,203,110177,6,0,L|257:176,1,152,2|0,0:0|0:0,0:0:0:0:
50,117,110819,2,0,P|12:165|21:257,1,152,2|0,0:0|0:0,0:0:0:0:
152,109,111461,5,2,0:0:0:0:
152,109,111782,2,0,L|165:34,1,76,2|0,0:0|0:0,0:0:0:0:
204,199,112102,2,0,P|168:211|130:210,1,76,2|0,0:0|0:0,0:0:0:0:
255,109,112423,2,0,P|283:133|301:166,1,76,2|0,0:0|0:0,0:0:0:0:
253,338,112744,6,0,P|259:300|280:269,1,76,2|0,0:0|0:0,0:0:0:0:
451,224,113065,2,0,P|415:237|378:236,1,76,2|0,0:0|0:0,0:0:0:0:
353,77,113386,2,0,P|382:101|400:135,1,76,2|0,0:0|0:0,0:0:0:0:
251,77,113707,2,0,P|257:39|277:7,1,76,2|0,0:0|0:0,0:0:0:0:
302,167,114028,6,0,P|230:179|166:136,1,152,2|0,0:0|0:0,0:0:0:0:
0,49,114669,2,0,L|27:198,1,152,2|0,0:0|0:0,0:0:0:0:
251,77,115311,6,0,P|222:23|140:32,1,152,2|0,0:0|0:0,0:0:0:0:
231,185,115792,1,0,1:2:0:0:
231,185,115872,1,0,1:2:0:0:
231,185,115953,2,0,P|268:176|316:168,1,76,8|8,0:3|0:3,0:0:0:0:
432,120,116274,2,0,P|423:156|416:194,1,76,4|4,0:3|0:3,0:0:0:0:
480,360,116594,6,0,P|418:306|336:319,1,170.999994781494,4|2,1:2|0:0,0:0:0:0:
97,127,117236,1,10,0:0:0:0:
173,303,117397,1,8,0:3:0:0:
246,162,117557,1,6,0:3:0:0:
23,217,117717,6,0,L|107:232,1,85.4999973907472,6|2,1:2|0:0,0:0:0:0:
260,61,118038,2,0,L|175:76,1,85.4999973907472,4|2,1:2|0:0,0:0:0:0:
350,227,118359,2,0,B|367:198|392:178|392:178|356:75,1,170.999994781494,6|0,1:2|1:2,0:0:0:0:
211,238,118840,1,8,0:0:0:0:
402,317,119001,1,8,0:0:0:0:
264,150,119161,6,0,P|182:137|119:191,1,170.999994781494,4|2,1:2|0:0,0:0:0:0:
407,26,119803,1,10,0:0:0:0:
474,224,119963,1,10,0:3:0:0:
468,255,120043,1,8,0:3:0:0:
462,287,120123,1,6,0:3:0:0:
456,318,120203,1,4,0:3:0:0:
451,350,120284,6,0,P|412:350|368:329,1,85.4999973907472,6|0,1:2|0:0,0:0:0:0:
252,125,120605,2,0,P|272:162|275:204,1,85.4999973907472,6|0,1:2|0:0,0:0:0:0:
112,359,120926,2,0,P|175:305|257:318,1,170.999994781494,6|10,1:2|0:0,0:0:0:0:
347,116,121407,1,10,0:0:0:0:
173,192,121568,1,10,0:0:0:0:
364,356,121728,6,0,B|408:263|408:263|384:240|367:208,2,170.999994781494,6|8|2,1:2|0:0|0:0,0:0:0:0:
512,261,122530,1,0,1:2:0:0:
261,184,122691,2,0,L|276:268,1,85.4999973907472,8|0,0:0|0:0,0:0:0:0:
370,88,123011,5,2,1:2:0:0:
138,183,123172,1,0,1:2:0:0:
366,327,123332,2,0,L|381:242,1,85.4999973907472,8|0,0:0|0:0,0:0:0:0:
214,57,123653,1,2,0:0:0:0:
276,268,123814,1,0,1:2:0:0:
378,37,123974,1,8,0:0:0:0:
146,190,124134,1,0,1:2:0:0:
146,190,124215,1,0,1:2:0:0:
146,190,124295,5,14,0:0:0:0:
400,270,124455,1,0,1:2:0:0:
113,308,124616,5,14,0:0:0:0:
364,172,124776,1,0,1:2:0:0:
65,116,124937,5,14,0:0:0:0:
299,253,125097,1,0,1:2:0:0:
0,319,125257,1,14,0:0:0:0:
364,172,125418,6,0,P|394:213|402:257,1,95,6|0,1:2|0:0,0:0:0:0:
184,108,125739,2,0,P|205:61|239:33,1,95,6|0,1:2|0:0,0:0:0:0:
219,295,126060,2,0,P|168:301|126:285,1,95,6|0,1:2|0:0,0:0:0:0:
286,125,126380,1,2,1:2:0:0:
321,131,126460,1,0,1:2:0:0:
356,137,126540,1,8,0:3:0:0:
391,143,126620,1,8,0:3:0:0:
426,149,126701,2,0,L|435:200,1,47.5,4|0,0:3|0:0,0:0:0:0:
233,214,126862,6,0,P|186:152|203:64,1,170.999994781494,4|0,1:2|2:0,0:0:0:0:
304,22,127183,6,0,L|286:125,1,104.500003189087,14|0,0:2|0:0,0:0:0:0:
452,302,127503,1,2,0:0:0:0:
382,89,127664,1,0,1:2:0:0:
224,254,127824,2,0,P|276:251|320:224,1,104.500003189087,10|0,0:0|0:0,0:0:0:0:
124,60,128145,5,2,1:2:0:0:
65,300,128306,1,0,1:2:0:0:
245,152,128466,1,10,0:0:0:0:
27,24,128626,2,0,L|45:127,1,104.500003189087,2|0,0:0|0:0,0:0:0:0:
260,266,128947,5,2,1:2:0:0:
124,60,129108,1,10,0:0:0:0:
181,333,129268,1,2,0:0:0:0:
45,127,129429,2,0,P|1:177|25:271,1,156.750004783631,6|0,1:2|2:0,0:0:0:0:
96,328,129749,6,0,L|114:225,1,104.500003189087,14|0,0:2|0:0,0:0:0:0:
254,42,130070,1,2,0:0:0:0:
45,127,130231,1,0,1:2:0:0:
258,252,130391,2,0,P|309:248|353:221,1,104.500003189087,10|0,0:0|0:0,0:0:0:0:
182,117,130712,5,2,1:2:0:0:
138,341,130872,1,0,1:2:0:0:
280,150,131033,1,10,0:0:0:0:
342,380,131193,2,0,L|239:362,1,104.500003189087,2|0,0:0|0:0,0:0:0:0:
82,144,131514,5,2,1:2:0:0:
305,282,131675,1,10,0:0:0:0:
145,62,131835,1,2,0:0:0:0:
368,200,131995,2,0,P|412:166|411:72,1,156.750004783631,6|0,1:2|2:0,0:0:0:0:
336,0,132316,6,0,L|233:18,1,104.500003189087,14|0,0:2|0:0,0:0:0:0:
99,215,132637,1,2,0:0:0:0:
300,97,132798,1,0,1:2:0:0:
335,335,132958,2,0,L|232:353,1,104.500003189087,10|0,0:0|0:0,0:0:0:0:
398,130,133279,5,2,1:2:0:0:
459,355,133439,1,0,1:2:0:0:
257,238,133600,1,10,0:0:0:0:
508,96,133760,2,0,L|490:199,1,104.500003189087,2|0,0:0|0:0,0:0:0:0:
307,351,134081,1,2,1:2:0:0:
198,108,134241,2,0,P|250:111|294:139,1,104.500003189087,10|0,0:0|0:0,0:0:0:0:
59,213,134562,5,2,1:2:0:0:
146,19,134723,1,0,0:0:0:0:
257,238,134883,2,0,L|360:220,1,104.500003189087,8|0,0:0|0:0,0:0:0:0:
248,17,135204,1,2,0:0:0:0:
155,251,135364,1,0,1:2:0:0:
338,118,135525,2,0,P|390:121|434:149,1,104.500003189087,8|0,0:0|0:0,0:0:0:0:
275,357,135846,5,14,0:0:0:0:
167,81,136006,1,10,0:3:0:0:
366,307,136167,1,6,0:3:0:0:
76,131,136327,2,0,L|58:234,1,104.500003189087,6|0,1:2|0:0,0:0:0:0:
291,140,136648,1,6,1:2:0:0:
79,28,136808,1,8,0:0:0:0:
202,257,136969,1,8,0:0:0:0:
202,257,137049,1,8,0:0:0:0:
202,257,137129,2,0,B|282:238|271:301|351:283,1,156.750004783631,4|0,1:2|2:0,0:0:0:0:
448,247,137450,6,0,L|430:350,1,104.500003189087,14|0,0:2|0:0,0:0:0:0:
291,140,137771,1,2,0:0:0:0:
512,97,137931,1,0,1:2:0:0:
314,243,138092,2,0,P|262:240|218:212,1,104.500003189087,10|0,0:0|0:0,0:0:0:0:
78,65,138413,5,2,1:2:0:0:
291,140,138573,1,0,1:2:0:0:
61,226,138733,1,10,0:0:0:0:
174,11,138894,2,0,L|192:114,1,104.500003189087,2|0,0:0|0:0,0:0:0:0:
324,331,139215,5,2,1:2:0:0:
420,87,139375,1,10,0:0:0:0:
230,287,139536,1,2,0:0:0:0:
326,43,139696,2,0,P|271:10|179:34,1,156.750004783631,6|0,1:2|2:0,0:0:0:0:
139,123,140017,6,0,L|242:141,1,104.500003189087,14|0,0:2|0:0,0:0:0:0:
85,2,140338,1,2,0:0:0:0:
176,220,140498,1,0,1:2:0:0:
326,43,140659,2,0,L|344:146,1,104.500003189087,10|0,0:0|0:0,0:0:0:0:
266,336,140979,5,2,1:2:0:0:
441,184,141140,1,0,1:2:0:0:
193,122,141300,1,10,0:0:0:0:
371,281,141461,2,0,L|353:384,1,104.500003189087,2|0,0:0|0:0,0:0:0:0:
188,260,141782,5,2,1:2:0:0:
441,184,141942,1,10,0:0:0:0:
181,156,142102,1,2,0:0:0:0:
434,80,142263,2,0,L|331:62,1,104.500003189087,6|0,1:2|0:0,0:0:0:0:
412,283,142584,6,0,P|463:284|509:261,1,104.500003189087,10|0,0:0|0:0,0:0:0:0:
296,174,142905,1,2,0:0:0:0:
356,382,143065,1,0,1:2:0:0:
441,184,143225,2,0,L|423:81,1,104.500003189087,10|0,0:0|0:0,0:0:0:0:
180,188,143546,5,2,1:2:0:0:
412,283,143707,1,0,1:2:0:0:
262,41,143867,1,10,0:0:0:0:
151,287,144028,2,0,P|202:288|248:265,1,104.500003189087,2|0,0:0|0:0,0:0:0:0:
127,68,144348,1,2,1:2:0:0:
41,254,144509,2,0,L|59:357,1,104.500003189087,10|0,0:0|1:2,0:0:0:0:
291,175,144830,5,14,0:0:0:0:
10,87,144990,1,0,1:2:0:0:
329,8,145151,5,10,0:0:0:0:
82,161,145311,1,0,1:2:0:0:
384,194,145471,5,10,0:0:0:0:
110,60,145632,1,0,1:2:0:0:
421,0,145792,5,10,0:0:0:0:
184,133,145953,2,0,B|131:193|131:193|185:311,1,209.000006378174,6|6,1:2|1:2,0:0:0:0:
393,226,146434,1,2,0:0:0:0:
251,54,146594,2,0,P|147:36|85:107,1,209.000006378174,6|8,1:2|0:0,0:0:0:0:
265,234,147076,1,8,0:3:0:0:
352,74,147236,1,4,0:3:0:0:
151,181,147397,6,0,P|173:256|185:333,1,156.750004783631,6|0,1:2|2:0,0:0:0:0:
275,384,147717,2,0,P|326:385|372:362,1,104.500003189087,14|2,0:0|0:0,0:0:0:0:
270,132,148038,1,2,1:2:0:0:
185,333,148199,2,0,L|82:315,1,104.500003189087,4|0,1:2|0:0,0:0:0:0:
203,53,148520,6,0,P|307:35|369:106,1,209.000006378174,14|0,0:0|1:2,0:0:0:0:
151,225,149001,1,10,0:0:0:0:
111,0,149161,1,2,0:0:0:0:
270,132,149322,2,0,L|252:235,1,104.500003189087,2|0,1:2|1:2,0:0:0:0:
393,34,149643,1,8,0:0:0:0:
167,123,149803,1,2,0:0:0:0:
367,301,149963,6,0,L|349:198,1,104.500003189087,6|0,1:2|0:0,0:0:0:0:
79,70,150284,5,10,0:0:0:0:
205,326,150445,1,0,1:2:0:0:
220,34,150605,5,10,0:0:0:0:
109,289,150766,1,0,1:2:0:0:
0,4,150926,5,10,0:0:0:0:
189,224,151086,2,0,L|292:206,1,104.500003189087,6|0,1:2|0:0,0:0:0:0:
118,50,151407,1,2,1:2:0:0:
80,298,151568,1,8,0:0:0:0:
226,127,151728,2,0,P|323:106|392:180,1,209.000006378174,4|2,1:2|1:2,0:0:0:0:
206,326,152209,2,0,L|188:223,1,104.500003189087,10|0,0:0|0:0,0:0:0:0:
473,65,152530,5,6,1:2:0:0:
347,305,152691,1,0,1:0:0:0:
372,50,152851,5,10,0:0:0:0:
310,312,153011,1,0,1:2:0:0:
271,35,153172,5,10,0:0:0:0:
273,319,153332,1,0,1:2:0:0:
170,20,153493,5,10,0:0:0:0:
236,326,153653,1,2,1:2:0:0:
372,50,153814,5,10,0:0:0:0:
95,187,153974,1,0,1:2:0:0:
423,262,154134,5,8,0:0:0:0:
182,132,154295,1,0,1:2:0:0:
456,108,154455,5,8,0:0:0:0:
184,235,154615,1,0,1:2:0:0:
512,310,154775,5,8,0:0:0:0:
271,180,154937,2,0,L|322:171,1,52.2500015945435,0|0,1:2|1:2,0:0:0:0:
469,6,155097,5,10,0:0:0:0:
381,301,155257,1,0,0:0:0:0:
199,39,155418,5,10,0:0:0:0:
502,141,155578,1,0,1:2:0:0:
221,305,155739,5,10,0:0:0:0:
321,16,155899,1,0,1:2:0:0:
484,281,156060,5,10,0:0:0:0:
197,176,156220,2,0,B|129:191|129:191|66:160|66:160|-1:176,1,209.000006378174,6|0,1:2|1:2,0:0:0:0:
221,10,156701,1,8,0:0:0:0:
282,242,156862,1,6,1:2:0:0:
123,60,157022,5,8,0:0:0:0:
331,19,157183,1,8,0:3:0:0:
197,176,157343,1,8,0:3:0:0:
221,10,157503,1,4,0:3:0:0:
384,226,157664,6,0,L|468:211,1,85.4999973907472,4|0,1:2|0:0,0:0:0:0:
300,166,157985,2,0,P|282:204|283:246,1,85.4999973907472,4|0,1:2|0:0,0:0:0:0:
393,122,158306,1,2,0:0:0:0:
229,90,158466,1,2,0:0:0:0:
384,226,158626,1,2,0:0:0:0:
322,46,158787,1,2,0:0:0:0:
200,190,158947,6,0,L|115:175,1,85.4999973907472,2|2,0:0|0:0,0:0:0:0:
229,90,159268,1,2,0:0:0:0:
284,248,159429,2,0,P|255:277|213:292,1,85.4999973907472,2|0,0:0|0:0,0:0:0:0:
314,149,159749,2,0,P|377:203|379:286,1,170.999994781494,2|2,0:0|0:0,0:0:0:0:
199,376,160231,6,0,L|213:291,1,85.4999973907472,6|0,1:2|0:0,0:0:0:0:
113,149,160552,2,0,L|127:233,1,85.4999973907472,6|0,1:2|0:0,0:0:0:0:
197,74,160872,1,2,0:0:0:0:
28,207,161033,1,2,0:0:0:0:
97,47,161193,1,2,0:0:0:0:
213,177,161354,1,2,0:0:0:0:
282,17,161514,6,0,L|366:2,1,85.4999973907472,2|2,0:0|0:0,0:0:0:0:
482,127,161835,1,2,0:0:0:0:
325,187,161995,2,0,L|340:103,1,85.4999973907472,2|0,0:0|0:0,0:0:0:0:
463,260,162316,2,0,B|374:239|386:310|301:288,1,170.999994781494,2|0,0:0|0:0,0:0:0:0:
145,200,162798,6,0,P|187:198|226:217,1,85.4999973907472,6|0,1:2|0:0,0:0:0:0:
69,270,163118,2,0,P|46:233|43:191,1,85.4999973907472,6|0,1:2|0:0,0:0:0:0:
186,39,163439,1,2,0:0:0:0:
145,200,163600,1,2,0:0:0:0:
26,83,163760,1,2,0:0:0:0:
225,135,163921,1,2,0:0:0:0:
60,260,164081,6,0,L|45:176,1,85.4999973907472,2|2,0:0|0:0,0:0:0:0:
202,285,164402,1,2,0:0:0:0:
87,361,164562,2,0,L|3:346,1,85.4999973907472,2|0,0:0|0:0,0:0:0:0:
144,200,164883,2,0,P|226:183|291:234,1,170.999994781494,2|2,0:0|0:0,0:0:0:0:
415,363,165364,6,0,L|400:279,1,85.4999973907472,6|0,1:2|0:0,0:0:0:0:
437,114,165685,2,0,P|417:151|383:176,1,85.4999973907472,6|0,1:2|0:0,0:0:0:0:
180,150,166006,1,2,0:0:0:0:
340,83,166167,1,2,0:0:0:0:
222,243,166326,1,2,0:0:0:0:
382,176,166487,1,2,0:0:0:0:
239,65,166648,6,0,L|155:50,1,85.4999973907472,2|2,0:0|0:0,0:0:0:0:
320,0,166969,1,2,0:0:0:0:
299,151,167129,2,0,L|215:166,1,85.4999973907472,2|0,0:0|0:0,0:0:0:0:
378,85,167450,1,2,1:2:0:0:
401,285,167610,2,0,L|275:263,1,128.249996086121,8|0,0:0|2:0,0:0:0:0:
229,256,167931,6,0,P|207:298|209:353,1,95,4|0,1:2|0:0,0:0:0:0:
352,195,168252,2,0,P|326:154|277:129,1,95,10|0,0:0|0:0,0:0:0:0:
131,226,168573,1,2,1:2:0:0:
236,42,168733,1,2,0:0:0:0:
229,256,168894,1,10,0:0:0:0:
138,72,169054,1,2,0:0:0:0:
33,256,169215,5,2,1:2:0:0:
205,155,169375,2,0,P|250:154|307:189,1,95,2|8,0:0|0:0,0:0:0:0:
147,319,169696,2,0,L|131:226,1,95,2|0,0:0|1:2,0:0:0:0:
271,75,170017,1,2,0:0:0:0:
229,256,170177,1,10,0:0:0:0:
369,106,170338,1,2,0:0:0:0:
169,70,170498,6,0,P|177:117|205:155,1,95,2|0,1:2|0:0,0:0:0:0:
394,196,170819,2,0,P|350:179|304:185,1,95,10|0,0:0|0:0,0:0:0:0:
161,335,171140,1,2,1:2:0:0:
338,283,171300,1,2,0:0:0:0:
205,155,171461,1,10,0:0:0:0:
262,355,171621,1,2,0:0:0:0:
394,196,171782,5,2,1:2:0:0:
240,254,171942,2,0,P|191:258|148:241,1,95,2|8,0:0|0:0,0:0:0:0:
273,77,172263,2,0,P|300:115|308:162,1,95,2|0,0:0|1:2,0:0:0:0:
172,57,172584,1,2,0:0:0:0:
341,0,172744,1,10,0:0:0:0:
205,155,172905,1,2,0:0:0:0:
374,98,173065,6,0,L|467:114,1,95,6|0,1:2|0:0,0:0:0:0:
322,270,173386,2,0,L|306:177,1,95,10|0,0:0|0:0,0:0:0:0:
423,295,173707,1,2,1:2:0:0:
224,239,173867,1,2,0:0:0:0:
374,98,174028,1,10,0:0:0:0:
309,316,174188,1,2,0:0:0:0:
264,130,174348,5,2,1:2:0:0:
442,200,174509,2,0,L|349:216,1,95,2|8,0:0|0:0,0:0:0:0:
231,32,174830,2,0,P|280:28|323:45,1,95,2|0,0:0|1:2,0:0:0:0:
187,223,175151,1,2,0:0:0:0:
102,28,175311,1,10,0:0:0:0:
264,130,175471,1,2,0:0:0:0:
88,196,175632,5,6,1:2:0:0:
231,32,175792,1,0,1:2:0:0:
296,257,175953,1,10,0:0:0:0:
163,111,176113,1,0,1:2:0:0:
132,349,176274,5,10,0:0:0:0:
264,130,176434,1,10,0:0:0:0:
333,384,176594,1,10,0:0:0:0:
168,167,176755,1,10,0:0:0:0:
415,312,176915,5,10,0:0:0:0:
122,253,177076,1,10,0:0:0:0:
467,151,177236,1,10,0:0:0:0:
218,325,177397,1,10,0:0:0:0:
512,262,177557,5,10,0:0:0:0:
261,6,177717,1,2,1:2:0:0:
333,384,177878,1,14,0:0:0:0:
483,25,178038,1,0,1:2:0:0:
218,325,178199,6,0,B|119:297|135:384|36:356,1,190,4|8,1:2|0:0,0:0:0:0:
289,220,178680,2,0,B|314:254|344:275|344:275|304:396,1,190,2|2,0:0|1:2,0:0:0:0:
170,214,179161,2,0,L|186:121,1,95,10|2,0:0|0:0,0:0:0:0:
391,50,179482,5,2,1:2:0:0:
289,220,179643,1,2,1:2:0:0:
211,19,179803,1,10,0:0:0:0:
364,150,179963,2,0,P|411:151|453:132,1,95,2|0,0:0|0:0,0:0:0:0:
289,220,180284,2,0,P|263:259|259:306,1,95,2|8,1:2|0:0,0:0:0:0:
266,120,180605,6,0,P|244:78|205:51,1,95,2|0,0:0|1:2,0:0:0:0:
0,96,180926,1,2,0:0:0:0:
167,147,181086,1,10,0:0:0:0:
39,0,181247,1,2,0:0:0:0:
206,51,181407,1,2,0:0:0:0:
68,175,181568,1,2,1:2:0:0:
269,133,181728,1,10,0:0:0:0:
104,65,181888,1,0,0:0:0:0:
151,240,182049,6,0,L|167:147,1,95,2|2,1:2|1:2,0:0:0:0:
351,71,182370,2,0,L|367:164,1,95,10|2,0:0|0:0,0:0:0:0:
512,295,182691,1,2,0:0:0:0:
449,102,182851,1,2,1:2:0:0:
308,249,183011,1,10,0:0:0:0:
462,205,183172,1,2,0:0:0:0:
351,71,183332,6,0,B|252:43|268:130|172:102,1,190,6|8,1:2|0:0,0:0:0:0:
23,25,183814,2,0,B|39:61|68:82|68:82|23:194,1,190,2|2,0:0|1:2,0:0:0:0:
149,292,184295,2,0,L|133:199,1,95,10|2,0:0|0:0,0:0:0:0:
283,74,184616,5,2,1:2:0:0:
231,229,184776,1,2,1:2:0:0:
166,50,184937,1,10,0:0:0:0:
317,172,185097,2,0,L|410:156,1,95,2|0,0:0|0:0,0:0:0:0:
283,74,185418,1,2,1:2:0:0:
231,229,185578,1,10,0:0:0:0:
166,50,185739,1,2,0:0:0:0:
317,172,185899,5,2,1:2:0:0:
129,221,186060,1,2,0:0:0:0:
283,74,186220,1,10,0:0:0:0:
323,275,186380,1,2,0:0:0:0:
196,131,186541,5,2,0:0:0:0:
236,332,186701,1,2,1:2:0:0:
391,197,186862,1,10,0:0:0:0:
166,242,187022,1,2,0:0:0:0:
423,296,187183,5,2,1:2:0:0:
283,74,187343,1,2,1:2:0:0:
236,332,187503,1,10,0:0:0:0:
394,119,187664,1,2,0:0:0:0:
130,171,187824,5,2,0:0:0:0:
423,296,187985,1,2,1:2:0:0:
299,20,188145,1,10,0:0:0:0:
162,364,188306,1,10,0:0:0:0:
348,125,188466,6,0,L|451:107,1,104.500003189087,6|0,1:2|0:0,0:0:0:0:
166,81,188787,5,8,0:0:0:0:
275,320,188947,1,0,1:2:0:0:
299,20,189108,5,8,0:0:0:0:
187,250,189268,1,0,1:2:0:0:
66,19,189429,5,10,0:0:0:0:
303,137,189589,1,0,1:2:0:0:
37,328,189749,5,10,0:0:0:0:
142,66,189910,1,0,1:2:0:0:
139,341,190070,5,8,0:0:0:0:
235,61,190231,1,2,1:2:0:0:
241,354,190391,5,8,0:0:0:0:
328,56,190552,1,2,1:2:0:0:
343,367,190712,5,8,0:0:0:0:
421,51,190872,1,2,1:2:0:0:
421,51,190953,1,0,1:2:0:0:
421,51,191033,6,0,B|436:80|460:100|460:100|423:204,1,170.999994781494,14|0,0:0|1:2,0:0:0:0:
197,188,191514,2,0,P|245:121|327:125,1,170.999994781494,8|0,0:3|1:2,0:0:0:0:
450,302,191995,2,0,L|365:287,1,85.4999973907472,4|0,0:3|1:2,0:0:0:0:
94,251,192316,6,0,P|111:303|126:377,2,113.999996520996,12|8|4,0:0|0:3|0:3,0:0:0:0:
287,84,192958,2,0,P|269:138|257:193,2,113.999996520996,8|4|4,0:3|0:3|1:3,0:0:0:0:
450,302,193600,5,4,1:2:0:0:
22,112,200979,5,10,0:0:0:0:
57,118,201059,1,0,1:2:0:0:
92,124,201139,1,0,1:2:0:0:
127,130,201219,1,8,0:3:0:0:
162,136,201300,6,0,P|172:41|88:29,1,199.499993911743,6|0,1:2|0:0,0:0:0:0:
1,214,201942,2,0,B|103:183|86:277|189:247,1,199.499993911743,2|0,0:0|1:2,0:0:0:0:
462,107,202584,5,14,0:0:0:0:
266,314,202744,1,10,0:3:0:0:
348,50,202905,1,6,0:3:0:0:
405,357,203065,2,0,L|498:339,1,95,6|0,1:2|0:0,0:0:0:0:
369,150,203386,1,6,1:2:0:0:
266,314,203546,2,0,L|173:296,1,95,8|0,0:0|0:0,0:0:0:0:
136,29,203867,6,0,P|204:71|188:149,1,170.999994781494,4|0,1:2|2:0,0:0:0:0:
109,225,204188,2,0,L|89:122,1,104.500003189087,14|0,0:2|0:0,0:0:0:0:
215,304,204509,1,2,0:0:0:0:
6,224,204669,1,0,1:2:0:0:
238,128,204830,2,0,L|341:148,1,104.500003189087,10|0,0:0|0:0,0:0:0:0:
167,32,205151,5,2,1:2:0:0:
270,241,205311,1,0,1:2:0:0:
354,0,205471,1,10,0:0:0:0:
158,167,205632,2,0,L|54:146,1,104.500003189087,2|0,0:0|0:0,0:0:0:0:
266,58,205953,5,2,1:2:0:0:
172,270,206113,1,10,0:0:0:0:
359,104,206274,1,2,0:0:0:0:
265,316,206434,2,0,P|321:366|395:353,1,156.750004783631,6|0,1:2|2:0,0:0:0:0:
461,272,206755,6,0,L|440:168,1,104.500003189087,14|0,0:2|0:0,0:0:0:0:
256,21,207076,1,2,0:0:0:0:
347,242,207236,1,0,1:2:0:0:
463,67,207397,2,0,P|411:71|367:98,1,104.500003189087,10|0,0:0|0:0,0:0:0:0:
265,304,207717,5,2,1:2:0:0:
441,169,207878,1,0,1:2:0:0:
210,103,208038,1,10,0:0:0:0:
393,287,208199,2,0,L|496:266,1,104.500003189087,2|0,0:0|0:0,0:0:0:0:
311,128,208520,5,2,1:2:0:0:
251,384,208680,1,10,0:0:0:0:
210,103,208840,1,2,0:0:0:0:
150,359,209001,2,0,P|98:363|56:334,1,104.500003189087,6|0,1:2|2:0,0:0:0:0:
123,95,209322,6,0,L|143:198,1,104.500003189087,10|0,0:0|0:0,0:0:0:0:
235,23,209643,1,2,0:0:0:0:
46,163,209803,1,0,1:2:0:0:
278,227,209963,2,0,L|257:123,1,104.500003189087,10|0,0:0|0:0,0:0:0:0:
179,335,210284,5,2,1:2:0:0:
398,235,210445,1,0,1:2:0:0:
148,140,210605,1,10,0:0:0:0:
391,27,210766,2,0,L|370:130,1,104.500003189087,2|0,0:0|0:0,0:0:0:0:
458,325,211086,1,2,1:2:0:0:
268,188,211247,1,10,0:0:0:0:
487,113,211407,1,0,1:2:0:0:
327,303,211568,5,14,0:0:0:0:
227,40,211728,1,0,1:2:0:0:
215,343,211888,5,10,0:0:0:0:
335,90,212049,1,0,1:2:0:0:
428,354,212209,5,10,0:0:0:0:
175,218,212370,1,0,1:2:0:0:
453,160,212530,5,10,0:0:0:0:
215,343,212691,2,0,B|108:313|124:407|18:377,1,209.000006378174,6|6,1:2|1:2,0:0:0:0:
175,218,213172,1,2,0:0:0:0:
0,96,213332,2,0,B|22:135|53:151|53:151|8:274,1,209.000006378174,6|8,1:2|0:0,0:0:0:0:
150,117,213814,1,8,0:3:0:0:
243,295,213974,1,4,0:3:0:0:
343,104,214134,6,0,L|268:88,1,76,6|2,1:2|0:0,0:0:0:0:
389,196,214455,2,0,P|419:173|438:140,1,76,2|2,0:0|0:0,0:0:0:0:
286,190,214776,2,0,L|316:338,1,152,2|0,0:0|0:0,0:0:0:0:
389,196,215257,2,0,P|374:136|299:87,1,152,2|0,0:0|0:0,0:0:0:0:
152,189,215739,2,0,B|246:223|246:223|285:189,1,152,2|2,0:0|0:0,0:0:0:0:
115,93,216220,5,8,0:0:0:0:
201,319,216380,1,8,0:0:0:0:
302,56,216541,1,10,0:0:0:0:
102,228,216701,6,0,L|-1:207,1,104.500003189087,6|0,1:2|0:0,0:0:0:0:
220,113,217022,5,10,0:0:0:0:
127,384,217183,1,0,1:2:0:0:
97,63,217343,5,10,0:0:0:0:
227,330,217503,1,0,1:2:0:0:
291,24,217664,5,10,0:0:0:0:
130,269,217824,2,0,L|27:248,1,104.500003189087,6|0,1:2|0:0,0:0:0:0:
171,83,218145,1,2,1:2:0:0:
227,330,218306,1,8,0:0:0:0:
343,108,218466,2,0,P|439:82|512:150,1,209.000006378174,4|2,1:2|1:2,0:0:0:0:
273,183,218947,2,0,P|246:138|242:87,1,104.500003189087,10|0,0:0|0:0,0:0:0:0:
414,184,219268,5,6,1:2:0:0:
172,264,219429,1,0,1:0:0:0:
343,108,219589,5,10,0:0:0:0:
150,284,219749,1,0,1:2:0:0:
252,52,219910,5,10,0:0:0:0:
128,304,220070,1,0,1:2:0:0:
148,40,220231,5,10,0:0:0:0:
106,324,220391,1,2,1:2:0:0:
46,56,220552,5,10,0:0:0:0:
84,344,220712,1,0,1:2:0:0:
148,40,220872,5,8,0:0:0:0:
198,337,221033,1,0,1:2:0:0:
250,24,221193,5,8,0:0:0:0:
312,330,221354,1,0,1:2:0:0:
352,8,221514,5,8,0:0:0:0:
426,323,221675,2,0,L|436:271,1,52.2500015945435,0|0,1:2|1:2,0:0:0:0:
218,131,221835,5,10,0:0:0:0:
508,195,221995,1,0,0:0:0:0:
260,288,222156,5,10,0:0:0:0:
352,8,222316,1,0,1:2:0:0:
407,340,222477,5,10,0:0:0:0:
283,85,222637,1,0,1:2:0:0:
185,378,222798,5,10,0:0:0:0:
396,174,222958,2,0,B|289:144|305:238|199:208,1,209.000006378174,6|0,1:2|1:2,0:0:0:0:
32,9,223439,1,0,1:2:0:0:
124,279,223600,1,6,1:2:0:0:
405,18,224081,6,0,P|391:50|386:85,1,71.25,2|0,0:0|2:0,0:0:0:0:
442,174,224402,6,0,P|378:107|288:120,1,190,6|8,1:2|0:0,0:0:0:0:
142,265,224883,2,0,L|125:171,1,95,2|0,0:0|0:0,0:0:0:0:
234,311,225204,1,2,1:2:0:0:
43,235,225364,1,10,0:0:0:0:
218,124,225525,6,0,B|316:96|300:183|399:155,1,190,2|2,1:2|1:2,0:0:0:0:
324,33,226006,1,10,0:0:0:0:
248,223,226167,2,0,L|264:316,1,95,0|2,0:0|0:0,0:0:0:0:
152,183,226487,1,0,1:2:0:0:
346,254,226648,1,8,0:0:0:0:
166,344,226808,1,0,0:0:0:0:
265,172,226969,6,0,B|304:56|304:56|284:28|247:10,1,190,2|8,1:2|0:0,0:0:0:0:
92,106,227450,2,0,L|185:90,1,95,2|0,0:0|0:0,0:0:0:0:
299,269,227771,1,2,1:2:0:0:
154,188,227931,1,10,0:0:0:0:
344,175,228092,6,0,P|399:249|375:338,1,190,2|2,1:2|1:2,0:0:0:0:
242,182,228573,1,10,0:0:0:0:
433,124,228733,1,2,0:0:0:0:
299,269,228894,2,0,P|253:285|204:277,1,95,2|0,0:0|1:2,0:0:0:0:
290,90,229215,2,0,P|326:121|344:168,1,95,10|0,0:0|0:0,0:0:0:0:
186,95,229536,5,2,1:2:0:0:
371,26,229696,1,2,0:0:0:0:
242,182,229856,1,10,0:0:0:0:
153,0,230017,2,0,L|246:16,1,95,2|0,0:0|0:0,0:0:0:0:
140,187,230338,1,2,1:2:0:0:
57,39,230498,1,10,0:0:0:0:
247,136,230659,6,0,B|291:198|291:198|245:307,1,190,2|2,1:2|1:2,0:0:0:0:
147,160,231140,1,10,0:0:0:0:
335,83,231300,2,0,L|428:99,1,95,0|2,0:0|0:0,0:0:0:0:
243,11,231621,1,0,1:2:0:0:
315,179,231782,1,8,0:0:0:0:
397,0,231942,1,2,1:2:0:0:
209,126,232102,5,10,0:0:0:0:
460,209,232263,1,0,1:2:0:0:
290,15,232423,1,8,0:0:0:0:
210,263,232584,2,0,L|303:247,1,95,6|0,1:2|0:0,0:0:0:0:
107,124,232905,1,10,0:0:0:0:
162,354,233065,1,8,0:0:0:0:
275,147,233225,6,0,P|322:144|364:164,1,95,6|2,1:2|0:0,0:0:0:0:
187,246,233546,1,10,0:0:0:0:
270,44,233707,1,10,0:0:0:0:
355,274,233867,2,0,P|422:299|505:229,1,190,6|0,1:2|1:2,0:0:0:0:
497,194,234268,1,0,1:2:0:0:
497,194,234348,1,8,0:3:0:0:
273,211,234509,1,10,0:3:0:0:
273,211,234589,1,4,0:3:0:0:
273,211,234669,6,0,L|257:304,1,95,6|2,1:2|0:0,0:0:0:0:
374,118,234990,1,10,0:0:0:0:
159,148,235151,2,0,L|175:241,1,95,2|0,0:0|1:2,0:0:0:0:
265,93,235471,1,2,0:0:0:0:
60,173,235632,1,10,0:0:0:0:
273,211,235792,6,0,P|321:212|361:189,1,95,2|0,0:0|1:2,0:0:0:0:
226,30,236113,1,2,0:0:0:0:
175,241,236274,1,10,0:0:0:0:
318,88,236434,1,2,0:0:0:0:
381,297,236594,2,0,L|474:281,1,95,2|0,1:2|0:0,0:0:0:0:
273,211,236915,1,8,0:0:0:0:
325,384,237076,1,0,0:0:0:0:
412,198,237236,6,0,P|414:150|394:108,1,95,2|0,1:2|0:0,0:0:0:0:
262,0,237557,1,8,0:0:0:0:
220,186,237717,2,0,L|313:170,1,95,2|0,0:0|1:2,0:0:0:0:
173,52,238038,1,2,0:0:0:0:
133,243,238199,1,10,0:0:0:0:
287,70,238359,6,0,P|334:68|377:88,1,95,2|0,0:0|1:2,0:0:0:0:
237,238,238680,1,2,0:0:0:0:
173,52,238840,1,10,0:0:0:0:
313,169,239001,1,2,0:0:0:0:
139,269,239161,2,0,L|155:176,1,95,2|0,1:2|0:0,0:0:0:0:
202,351,239482,2,0,P|159:370|112:368,1,95,8|0,0:0|0:0,0:0:0:0:
237,238,239803,5,2,1:2:0:0:
300,384,239963,1,2,0:0:0:0:
139,269,240124,1,10,0:0:0:0:
344,191,240284,2,0,L|328:284,1,95,2|0,0:0|1:2,0:0:0:0:
250,118,240605,1,2,0:0:0:0:
446,188,240766,1,10,0:0:0:0:
237,238,240926,6,0,L|144:222,1,95,2|0,0:0|1:2,0:0:0:0:
42,53,241247,1,2,0:0:0:0:
206,139,241407,1,10,0:0:0:0:
42,236,241568,1,0,0:0:0:0:
144,57,241728,2,0,P|186:37|233:39,1,95,2|0,1:2|0:0,0:0:0:0:
378,209,242049,1,8,0:0:0:0:
206,139,242209,1,0,0:0:0:0:
435,90,242370,5,14,0:0:0:0:
353,373,242530,1,2,1:2:0:0:
330,47,242691,5,10,0:0:0:0:
466,331,242851,1,2,1:2:0:0:
512,6,243011,5,8,0:0:0:0:
241,139,243172,1,2,1:2:0:0:
512,242,243332,1,10,0:0:0:0:
228,36,243493,6,0,P|154:17|71:93,1,190,6|10,1:2|0:0,0:0:0:0:
221,262,243974,1,10,0:0:0:0:
330,47,244134,1,2,1:2:0:0:
157,163,244295,5,10,0:0:0:0:
371,238,244455,1,0,1:2:0:0:
244,105,244616,1,10,0:0:0:0:
221,262,244776,1,8,0:3:0:0:
454,101,244937,1,6,1:2:0:0:
256,192,245017,12,0,249830,2:0:0:0:
