osu file format v14

[General]
AudioFilename: audio.mp3
AudioLeadIn: 0
PreviewTime: 72878
Countdown: 0
SampleSet: Soft
StackLeniency: 0.5
Mode: 0
LetterboxInBreaks: 0
WidescreenStoryboard: 1

[Editor]
Bookmarks: 116594,193600,234669
DistanceSpacing: 1
BeatDivisor: 4
GridSize: 32
TimelineZoom: 1.7

[Metadata]
Title:One In A Billion
TitleUnicode:One In A Billion
Artist:Wake Up, May'n!
ArtistUnicode:Wake Up, May'n!
Creator:A r M i N
Version:Eli & Pepe's Hard
Source:異世界食堂
Tags:isekai shokudou restaurant to another world wake up girls! opening op anime japanese pop j-pop Armin A_r_M_i_N Kuki1537 Elinor [_Eli_] Pepekcz Rosiie shokudo jpop eli PEACE of SMILE full ver version
BeatmapID:2644369
BeatmapSetID:1264800

[Difficulty]
HPDrainRate:4
CircleSize:3.6
OverallDifficulty:6.2
ApproachRate:8
SliderMultiplier:1.4
SliderTickRate:1

[Events]
//Background and Video events
0,0,"bg.jpg",0,0
//Break Periods
2,106527,115844
2,193800,200550
//Storyboard Layer 0 (Background)
//Storyboard Layer 1 (Fail)
//Storyboard Layer 2 (Pass)
//Storyboard Layer 3 (Foreground)
//Storyboard Layer 4 (Overlay)
//Storyboard Sound Samples

[TimingPoints]
616,394.736842105263,4,2,1,60,1,0
6931,-125,4,2,1,60,0,0
19563,-125,4,2,1,60,0,0
30582,320.855614973262,4,2,1,60,1,0
30582,-125,4,2,1,60,0,0
31889,320.855614973262,4,2,1,70,1,0
31889,-100,4,2,1,70,0,0
42156,-111.111111111111,4,2,1,60,0,0
52423,-111.111111111111,4,2,1,65,0,0
62691,-125,4,2,1,70,0,0
67824,-111.111111111111,4,2,1,70,0,0
70391,-105.263157894737,4,2,1,70,0,0
71755,-105.263157894737,4,2,1,5,0,0
71835,-105.263157894737,4,2,1,70,0,0
72076,-105.263157894737,4,2,1,5,0,0
72156,-105.263157894737,4,2,1,70,0,0
72397,-105.263157894737,4,2,1,5,0,0
72477,-105.263157894737,4,2,1,70,0,0
72878,-105.263157894737,4,2,1,5,0,0
72958,-100,4,2,1,80,0,1
82664,-100,4,2,1,5,0,1
82744,-100,4,2,1,80,0,1
93493,-100,4,2,1,60,0,0
96060,-100,4,2,1,80,0,1
102557,-100,4,2,1,5,0,1
102637,-100,4,2,1,80,0,1
102958,-100,4,2,1,70,0,1
103760,-111.111111111111,4,2,1,70,0,0
106327,-125,4,2,1,60,0,0
116594,-125,4,2,1,70,0,0
121728,-111.111111111111,4,2,1,70,0,0
124295,-105.263157894737,4,2,1,70,0,0
126862,-105.263157894737,4,2,1,80,0,0
127183,-100,4,2,1,80,0,1
157664,-125,4,2,1,60,0,0
167931,-111.111111111111,4,2,1,70,0,0
178199,-99.9999999999999,4,2,1,70,0,0
188466,-90.9090909090909,4,2,1,80,0,1
191033,-100,4,2,1,70,0,0
193600,-125,4,2,1,50,0,0
201300,-111.111111111111,4,2,1,60,0,0
202584,-105.263157894737,4,2,1,70,0,0
203867,-100,4,2,1,80,0,1
214134,-100,4,2,1,60,0,0
216701,-90.9090909090909,4,2,1,80,0,1
223600,-125,4,2,1,70,0,0
224322,-125,4,2,1,5,0,0
224402,-100,4,2,1,70,0,0
244937,-100,4,2,1,70,0,0
245097,-100,4,2,1,5,0,0
249830,-100,4,2,1,5,0,0

[Colours]
Combo1 : 249,21,123
Combo2 : 0,128,192
Combo3 : 128,64,64
Combo4 : 255,128,128

[HitObjects]
40,40,6931,6,0,L|64:156,1,112,4|2,1:2|0:0,0:0:0:0:
92,224,7523,1,0,0:0:0:0:
92,224,7721,2,0,P|136:264|188:264,1,112,2|2,0:0|0:0,0:0:0:0:
344,256,8510,6,0,B|392:252|400:304|444:300,1,112,2|2,0:0|0:0,0:0:0:0:
500,244,9102,2,0,L|492:124,1,112,2|2,0:0|0:0,0:0:0:0:
484,56,9694,1,2,0:0:0:0:
328,28,10089,6,0,B|276:16|269:62|220:48,1,112,0|2,0:0|0:0,0:0:0:0:
148,48,10681,1,0,0:0:0:0:
148,48,10879,2,0,L|132:168,1,112,2|2,0:0|0:0,0:0:0:0:
140,316,11668,6,0,B|172:344|172:344|240:328,1,112,2|2,0:0|0:0,0:0:0:0:
316,304,12260,2,0,L|300:192,1,112,2|2,0:0|0:0,0:0:0:0:
280,116,12852,1,2,0:0:0:0:
436,104,13247,6,0,P|472:136|472:200,1,112,0|2,0:0|0:0,0:0:0:0:
464,276,13839,1,0,0:0:0:0:
464,276,14037,2,0,L|352:296,1,112,2|2,0:0|0:0,0:0:0:0:
200,332,14826,6,0,B|160:312|144:364|92:336,1,112,2|2,0:0|0:0,0:0:0:0:
48,272,15418,2,0,L|56:160,1,112,2|2,0:0|0:0,0:0:0:0:
64,80,16010,1,2,0:0:0:0:
216,44,16405,6,0,P|236:96|224:152,2,112,2|2|2,0:0|0:0|0:0,0:0:0:0:
64,40,17589,1,2,0:0:0:0:
64,40,17787,6,0,L|52:156,1,112,2|2,0:0|0:0,0:0:0:0:
52,232,18379,2,0,L|64:288,1,56,2|2,0:0|0:0,0:0:0:0:
132,324,18773,2,0,B|184:308|188:360|240:344,1,112
392,324,19563,6,0,L|404:264,1,56,2|2,0:0|0:0,0:0:0:0:
420,192,19958,2,0,L|364:180,1,56,2|2,0:0|0:0,0:0:0:0:
288,168,20352,2,0,B|260:196|260:196|276:268,1,112,2|0,0:0|0:0,0:0:0:0:
244,340,20944,1,2,0:0:0:0:
244,340,21142,6,0,P|196:312|140:312,1,112,0|2,0:0|0:0,0:0:0:0:
64,336,21734,1,0,0:0:0:0:
64,336,21931,1,2,0:0:0:0:
88,148,22523,1,2,0:0:0:0:
88,148,22721,6,0,P|120:128|144:128,1,56,2|0,0:0|0:0,0:0:0:0:
212,156,23115,2,0,P|244:176|268:176,1,56,2|0,0:0|0:0,0:0:0:0:
332,144,23510,2,0,L|320:32,1,112,2|2,0:0|0:0,0:0:0:0:
244,8,24102,2,0,L|188:16,1,56,2|0,0:0|0:0,0:0:0:0:
112,24,24497,6,0,P|76:60|76:120,1,112,2|0,0:0|0:0,0:0:0:0:
192,232,25287,1,2,0:0:0:0:
192,232,25484,2,0,L|252:220,1,56,2|0,0:0|0:0,0:0:0:0:
304,168,25879,6,0,B|364:168|348:212|404:212,1,112,2|2,0:0|0:0,0:0:0:0:
452,152,26471,1,0,0:0:0:0:
452,152,26668,2,0,P|440:200|428:264,1,112,2|2,0:0|0:0,0:0:0:0:
384,332,27260,1,2,0:0:0:0:
384,332,27458,6,0,P|328:296|272:296,1,112,2|0,0:0|0:0,0:0:0:0:
128,300,28247,2,0,L|116:360,2,56,2|2|2,0:0|0:0|0:0,0:0:0:0:
164,148,29037,6,0,L|224:136,1,56,2|0,0:0|0:0,0:0:0:0:
284,180,29431,2,0,L|340:192,1,56,2|0,0:0|0:0,0:0:0:0:
416,176,29826,2,0,P|444:152|444:80,1,112,2|2,0:0|0:0,0:0:0:0:
384,32,30418,1,2,0:0:0:0:
384,32,30582,2,0,B|236:0|296:144|136:112,1,280,2|2,0:0|1:2,0:0:0:0:
60,100,31544,2,0,L|52:156,1,56,10|2,0:0|0:0,0:0:0:0:
56,280,31889,6,0,B|92:256|92:256|184:288,1,140,4|8,1:2|0:0,0:0:0:0:
268,336,32370,2,0,P|332:316|404:296,1,140,2|0,0:0|1:2,0:0:0:0:
488,252,32851,2,0,L|476:184,1,70,10|2,0:0|1:2,0:0:0:0:
420,100,33172,6,0,P|380:100|356:116,1,70,2|0,0:0|1:2,0:0:0:0:
288,188,33493,2,0,P|248:188|224:172,1,70,10|0,0:0|0:0,0:0:0:0:
160,96,33814,2,0,P|160:56|176:32,1,70,2|0,0:0|1:2,0:0:0:0:
272,12,34134,1,10,0:0:0:0:
392,108,34455,6,0,L|360:252,1,140,6|8,1:2|0:0,0:0:0:0:
288,312,34937,2,0,B|224:300|228:364|160:352,1,140,2|0,0:0|1:2,0:0:0:0:
88,288,35418,2,0,L|80:216,1,70,10|0,0:0|1:2,0:0:0:0:
128,132,35739,6,0,P|196:132|232:188,1,140,2|8,0:0|0:0,0:0:0:0:
300,352,36380,2,0,L|368:336,1,70,2|0,0:0|1:2,0:0:0:0:
460,316,36701,1,8,0:0:0:0:
460,316,36862,1,8,0:0:0:0:
504,196,37022,6,0,B|520:144|520:144|492:64,1,140,6|8,1:2|0:0,0:0:0:0:
412,20,37503,2,0,B|336:20|360:76|289:75,1,140,0|0,0:0|1:2,0:0:0:0:
212,40,37984,1,10,0:0:0:0:
212,40,38145,1,2,1:2:0:0:
120,40,38306,6,0,L|108:112,1,70,2|0,0:0|1:2,0:0:0:0:
64,188,38626,2,0,L|88:264,1,70,10|0,0:0|0:0,0:0:0:0:
160,308,38947,2,0,L|181:241,1,70,2|0,0:0|1:2,0:0:0:0:
216,148,39268,1,10,0:0:0:0:
216,148,39429,1,0,1:2:0:0:
316,76,39589,6,0,P|344:60|384:60,1,70,14|0,1:2|1:2,0:0:0:0:
468,88,39910,1,8,0:0:0:0:
472,212,40070,2,0,B|448:356,1,140,6|0,1:2|1:2,0:0:0:0:
352,364,40552,2,0,L|284:352,1,70,14|0,1:2|1:2,0:0:0:0:
188,332,40872,5,10,1:2:0:0:
200,212,41033,2,0,P|232:176|320:176,1,140,4|0,1:2|1:2,0:0:0:0:
400,232,41514,2,0,L|388:300,2,70,10|0|0,0:0|1:2|1:2,0:0:0:0:
420,136,41995,1,8,0:0:0:0:
344,40,42156,6,0,B|284:32|296:104|236:96,1,125.999996154785,4|8,1:2|0:0,0:0:0:0:
192,172,42637,1,2,0:0:0:0:
192,172,42798,2,0,P|152:232|104:232,1,125.999996154785,2|10,0:0|0:0,0:0:0:0:
28,92,43439,6,0,P|56:48|124:48,1,125.999996154785,2|8,1:2|0:0,0:0:0:0:
188,104,43921,2,0,P|248:128|300:104,1,125.999996154785,2|0,0:0|1:2,0:0:0:0:
360,48,44402,1,8,0:0:0:0:
360,48,44723,6,0,P|416:60|484:72,1,125.999996154785,2|8,1:2|0:0,0:0:0:0:
504,156,45204,2,0,P|441:166|380:179,1,125.999996154785,2|2,0:0|1:2,0:0:0:0:
292,196,45685,1,10,0:0:0:0:
292,196,45846,1,2,0:0:0:0:
228,256,46006,6,0,P|219:285|212:320,1,62.9999980773926,0|0,1:2|1:2,0:0:0:0:
136,360,46327,2,0,P|129:329|120:298,1,62.9999980773926,10|0,0:0|0:0,0:0:0:0:
44,256,46648,2,0,P|50:225|59:194,1,62.9999980773926,2|0,0:0|1:2,0:0:0:0:
92,112,46969,1,10,0:0:0:0:
92,112,47290,6,0,P|120:96|152:96,1,62.9999980773926,0|0,1:2|0:0,0:0:0:0:
204,156,47610,2,0,L|264:140,1,62.9999980773926,10|2,0:0|0:0,0:0:0:0:
320,76,47931,2,0,L|380:96,1,62.9999980773926,2|0,0:0|1:2,0:0:0:0:
452,132,48252,1,10,0:0:0:0:
404,304,48573,5,0,1:2:0:0:
404,304,48733,1,0,1:2:0:0:
328,352,48894,2,0,P|292:352|268:336,1,62.9999980773926,10|2,0:0|0:0,0:0:0:0:
196,292,49215,2,0,P|160:292|136:304,1,62.9999980773926,2|0,0:0|1:2,0:0:0:0:
60,348,49536,1,10,0:0:0:0:
24,176,49856,6,0,L|44:48,1,125.999996154785,2|8,1:2|0:0,0:0:0:0:
124,88,50338,1,0,0:0:0:0:
124,88,50498,2,0,L|143:212,1,125.999996154785,2|8,0:0|0:0,0:0:0:0:
176,332,50979,1,2,0:0:0:0:
176,332,51140,6,0,L|240:320,1,62.9999980773926,6|0,1:2|1:2,0:0:0:0:
304,260,51461,1,10,0:0:0:0:
304,260,51622,2,0,L|368:272,1,62.9999980773926,2|8,1:2|0:3,0:0:0:0:
416,344,51942,1,10,0:3:0:0:
416,344,52103,2,0,L|480:332,1,62.9999980773926,6|4,0:3|0:3,0:0:0:0:
492,208,52423,6,0,P|492:144|440:100,1,125.999996154785,4|8,1:2|0:0,0:0:0:0:
360,88,52905,1,2,0:0:0:0:
360,88,53065,2,0,L|344:148,1,62.9999980773926,2|0,0:0|1:2,0:0:0:0:
268,196,53386,2,0,L|252:136,1,62.9999980773926,10|0,0:0|0:0,0:0:0:0:
164,116,53707,6,0,B|104:116|128:168|48:168,1,125.999996154785,2|8,1:2|0:0,0:0:0:0:
24,84,54188,2,0,P|56:40|124:40,1,125.999996154785,2|0,0:0|1:2,0:0:0:0:
196,92,54669,1,8,0:0:0:0:
196,92,54990,6,0,B|228:116|228:116|208:208,1,125.999996154785,2|8,1:2|0:0,0:0:0:0:
156,272,55471,2,0,L|280:240,1,125.999996154785,2|2,0:0|1:2,0:0:0:0:
368,228,55953,1,10,0:0:0:0:
368,228,56113,1,2,0:0:0:0:
456,244,56274,6,0,P|472:272|472:304,1,62.9999980773926,0|0,1:2|1:2,0:0:0:0:
408,360,56594,2,0,P|376:368|348:360,1,62.9999980773926,10|0,0:0|0:0,0:0:0:0:
284,296,56915,2,0,P|252:288|224:296,1,62.9999980773926,2|0,0:0|1:2,0:0:0:0:
152,344,57236,1,10,0:0:0:0:
152,344,57557,6,0,L|88:332,1,62.9999980773926,0|0,1:2|0:0,0:0:0:0:
24,272,57878,1,10,0:0:0:0:
24,272,58038,1,2,0:0:0:0:
60,192,58199,2,0,P|88:176|128:176,1,62.9999980773926,2|0,0:0|1:2,0:0:0:0:
188,228,58520,2,0,P|224:228|248:212,1,62.9999980773926,10|0,0:0|0:0,0:0:0:0:
272,128,58840,5,2,1:2:0:0:
272,128,59001,1,0,1:2:0:0:
360,140,59161,2,0,L|424:128,1,62.9999980773926,10|0,0:0|0:0,0:0:0:0:
464,48,59482,2,0,L|404:32,1,62.9999980773926,2|0,0:0|1:2,0:0:0:0:
316,28,59803,1,10,0:0:0:0:
144,72,60124,6,0,P|120:124|144:184,1,125.999996154785,2|8,1:2|0:0,0:0:0:0:
224,220,60605,1,0,0:0:0:0:
224,220,60766,2,0,P|248:272|224:332,1,125.999996154785,2|8,0:0|0:0,0:0:0:0:
136,352,61247,1,0,0:0:0:0:
136,352,61407,6,0,B|92:324|92:324|20:344,1,125.999996154785,2|8,1:2|0:0,0:0:0:0:
8,256,61889,1,0,1:2:0:0:
8,256,62049,2,0,P|0:220|8:192,1,62.9999980773926,8|0,0:0|1:2,0:0:0:0:
64,128,62370,2,0,P|96:120|124:128,1,62.9999980773926,8|4,0:3|0:3,0:0:0:0:
232,188,62691,6,0,L|224:244,1,56,4|2,1:2|0:0,0:0:0:0:
252,316,63011,2,0,L|308:324,1,56,2|2,0:0|1:2,0:0:0:0:
384,348,63332,2,0,L|444:336,1,56,10|2,0:0|1:2,0:0:0:0:
496,276,63653,2,0,L|492:216,1,56,2|0,0:0|0:0,0:0:0:0:
484,140,63974,6,0,P|452:128|428:128,1,56,2|10,1:2|0:0,0:0:0:0:
356,148,64295,1,2,0:0:0:0:
356,148,64455,1,2,1:2:0:0:
300,204,64616,2,0,L|188:184,1,112,8|0,0:0|0:0,0:0:0:0:
68,88,65257,5,0,1:2:0:0:
68,88,65418,2,0,P|104:120|104:184,1,112,2|2,0:0|1:2,0:0:0:0:
56,240,65899,2,0,L|72:300,1,56,10|2,0:0|1:2,0:0:0:0:
136,336,66220,2,0,L|150:281,1,56,2|2,0:0|0:0,0:0:0:0:
168,204,66541,6,0,P|196:192|224:192,1,56,2|10,1:2|0:0,0:0:0:0:
288,236,66862,1,2,0:0:0:0:
288,236,67022,2,0,P|316:248|344:248,1,56,2|8,1:2|0:0,0:0:0:0:
412,216,67343,1,2,1:2:0:0:
412,216,67503,2,0,L|420:160,1,56,10|10,0:0|0:0,0:0:0:0:
296,104,67824,6,0,B|240:96|236:144|176:136,1,125.999996154785,6|8,1:2|0:0,0:0:0:0:
112,76,68306,1,0,0:0:0:0:
112,76,68466,2,0,P|148:36|216:36,1,125.999996154785,2|8,0:0|0:0,0:0:0:0:
296,72,68947,1,0,0:0:0:0:
296,72,69108,6,0,L|360:64,1,62.9999980773926,2|0,1:2|1:2,0:0:0:0:
424,124,69429,2,0,L|416:188,1,62.9999980773926,8|0,0:0|0:0,0:0:0:0:
396,272,69749,2,0,P|368:288|336:288,1,62.9999980773926,2|0,0:0|1:2,0:0:0:0:
260,248,70070,2,0,P|228:248|200:264,1,62.9999980773926,8|0,0:0|1:2,0:0:0:0:
108,344,70391,6,0,L|40:332,1,66.4999982242585,14|0,0:0|1:2,0:0:0:0:
16,244,70712,2,0,P|16:212|32:180,1,66.4999982242585,14|0,0:0|1:2,0:0:0:0:
104,124,71033,2,0,L|172:136,1,66.4999982242585,14|0,0:0|1:2,0:0:0:0:
264,212,71354,1,14,0:0:0:0:
264,212,71514,6,0,L|364:228,1,99.7499973363877,6|0,1:2|0:0,0:0:0:0:
400,200,71835,2,0,P|420:168|420:104,1,99.7499973363877,6|0,1:2|0:0,0:0:0:0:
388,72,72156,2,0,L|288:56,1,99.7499973363877,6|0,1:2|0:0,0:0:0:0:
244,44,72477,1,6,1:2:0:0:
244,44,72637,2,0,B|200:28|188:64|148:52,1,99.7499973363877,8|0,0:0|0:0,0:0:0:0:
100,40,72958,5,4,1:2:0:0:
36,224,73279,2,0,P|44:256|52:292,1,70,14|0,0:2|0:0,0:0:0:0:
132,348,73600,2,0,P|140:310|148:280,1,70,2|0,0:0|1:2,0:0:0:0:
224,220,73921,2,0,P|232:252|240:292,1,70,10|0,0:0|0:0,0:0:0:0:
320,340,74241,6,0,P|356:352|392:340,1,70,2|0,1:2|1:2,0:0:0:0:
448,268,74562,1,10,0:0:0:0:
412,176,74723,2,0,P|372:176|344:192,1,70,2|0,0:0|0:0,0:0:0:0:
272,252,75044,1,2,1:2:0:0:
224,336,75204,2,0,L|144:320,1,70,10|2,0:0|0:0,0:0:0:0:
88,256,75525,5,6,1:2:0:0:
120,64,75846,2,0,P|128:96|136:132,1,70,14|0,0:2|0:0,0:0:0:0:
212,196,76167,2,0,P|216:168|224:128,1,70,2|0,0:0|1:2,0:0:0:0:
288,52,76487,2,0,P|300:88|311:125,1,70,10|0,0:0|0:0,0:0:0:0:
368,196,76808,6,0,L|444:212,1,70,2|0,1:2|1:2,0:0:0:0:
500,284,77129,1,10,0:0:0:0:
424,344,77290,2,0,L|348:352,1,70,2|0,0:0|0:0,0:0:0:0:
256,352,77610,1,2,1:2:0:0:
172,300,77771,2,0,P|164:268|168:232,1,70,10|2,0:0|0:0,0:0:0:0:
196,136,78092,5,6,1:2:0:0:
372,52,78413,2,0,P|416:52|444:68,1,70,14|0,0:2|0:0,0:0:0:0:
492,144,78733,2,0,P|492:184|476:216,1,70,2|0,0:0|1:2,0:0:0:0:
400,268,79054,2,0,P|356:268|328:252,1,70,10|0,0:0|0:0,0:0:0:0:
244,220,79375,6,0,P|236:252|228:296,1,70,2|0,1:2|1:2,0:0:0:0:
156,352,79696,1,10,0:0:0:0:
88,280,79856,2,0,P|81:242|72:204,1,70,2|0,0:0|0:0,0:0:0:0:
96,116,80177,1,2,1:2:0:0:
176,172,80338,2,0,L|244:184,1,70,10|0,0:0|0:0,0:0:0:0:
344,140,80659,6,0,P|360:64|304:20,1,140,2|8,1:2|0:0,0:0:0:0:
220,20,81140,1,0,0:0:0:0:
220,20,81300,2,0,P|140:40|60:56,1,140,2|8,0:0|0:0,0:0:0:0:
28,136,81782,1,2,0:0:0:0:
28,136,81862,1,2,0:0:0:0:
28,136,81942,6,0,L|48:212,2,70,14|10|6,0:0|0:3|0:3,0:0:0:0:
92,32,82423,2,0,L|197:53,1,105,6|0,1:2|0:0,0:0:0:0:
221,93,82744,2,0,L|296:80,1,70,6|8,1:2|0:0,0:0:0:0:
388,64,83065,1,8,0:0:0:0:
388,64,83145,1,8,0:0:0:0:
388,64,83225,1,4,1:2:0:0:
444,248,83546,6,0,P|416:268|368:268,1,70,14|0,0:2|0:0,0:0:0:0:
292,228,83867,2,0,P|254:228|222:250,1,70,2|0,0:0|1:2,0:0:0:0:
184,332,84188,2,0,P|146:331|114:309,1,70,10|0,0:0|0:0,0:0:0:0:
48,244,84509,6,0,L|56:168,1,70,2|0,1:2|1:2,0:0:0:0:
104,88,84830,1,10,0:0:0:0:
188,140,84990,2,0,L|204:216,1,70,2|0,0:0|0:0,0:0:0:0:
240,300,85311,1,2,1:2:0:0:
328,340,85471,2,0,P|376:340|400:324,1,70,10|2,0:0|0:0,0:0:0:0:
468,264,85792,5,6,1:2:0:0:
400,80,86113,2,0,P|368:64|328:64,1,70,14|0,0:2|0:0,0:0:0:0:
240,92,86434,2,0,P|220:124|220:168,1,70,2|0,0:0|1:2,0:0:0:0:
252,248,86755,2,0,P|280:264|324:264,1,70,10|0,0:0|0:0,0:0:0:0:
412,240,87076,6,0,L|424:160,1,70,2|0,1:2|1:2,0:0:0:0:
444,76,87397,1,10,0:0:0:0:
360,28,87557,2,0,L|284:44,1,70,2|0,0:0|0:0,0:0:0:0:
196,68,87878,1,2,1:2:0:0:
108,112,88038,2,0,P|119:161|125:189,1,70,10|2,0:0|0:0,0:0:0:0:
148,276,88359,5,6,1:2:0:0:
328,352,88680,2,0,P|360:344|400:336,1,70,10|0,0:0|0:0,0:0:0:0:
448,252,89001,2,0,P|416:244|373:232,1,70,2|0,0:0|1:2,0:0:0:0:
336,148,89322,2,0,P|368:140|410:128,1,70,10|0,0:0|0:0,0:0:0:0:
500,132,89643,6,0,P|508:168|500:208,1,70,2|0,1:2|1:2,0:0:0:0:
472,292,89963,1,10,0:0:0:0:
388,344,90124,2,0,P|344:344|316:328,1,70,2|0,0:0|0:0,0:0:0:0:
252,264,90445,1,2,1:2:0:0:
292,176,90605,2,0,L|376:192,1,70,10|0,0:0|1:2,0:0:0:0:
444,116,90926,6,0,P|444:72|428:44,1,70,14|0,0:0|1:2,0:0:0:0:
336,24,91247,2,0,P|292:24|264:44,1,70,10|0,0:0|1:2,0:0:0:0:
220,124,91568,2,0,P|180:124|148:104,1,70,10|0,0:0|1:2,0:0:0:0:
44,60,91889,1,10,0:0:0:0:
44,60,92049,6,0,L|72:212,1,140,6|6,1:2|1:2,0:0:0:0:
120,308,92530,1,2,0:0:0:0:
120,308,92691,2,0,B|160:296|196:320|184:344|216:364|244:352,1,140,6|8,1:2|0:0,0:0:0:0:
332,312,93172,1,8,0:3:0:0:
332,312,93332,1,4,0:3:0:0:
316,216,93493,5,6,1:2:0:0:
316,216,95578,5,8,0:0:0:0:
232,268,95739,1,8,0:0:0:0:
232,268,95899,1,10,0:0:0:0:
124,208,96060,6,0,P|108:172|108:140,1,70,6|0,1:2|0:0,0:0:0:0:
148,52,96380,2,0,P|184:32|212:32,1,70,10|0,0:0|1:2,0:0:0:0:
308,56,96701,2,0,L|320:128,1,70,10|0,0:0|1:2,0:0:0:0:
344,220,97022,1,10,0:0:0:0:
276,324,97183,6,0,B|216:304|216:364|140:344,1,140,6|2,1:2|1:2,0:0:0:0:
52,304,97664,1,8,0:0:0:0:
60,208,97824,2,0,L|72:128,1,70,4|0,1:2|0:0,0:0:0:0:
168,132,98145,1,2,1:2:0:0:
168,132,98306,2,0,L|179:208,1,70,10|0,0:0|0:0,0:0:0:0:
224,316,98626,6,0,P|256:336|296:336,1,70,6|0,1:2|1:0,0:0:0:0:
360,272,98947,2,0,P|372:236|360:200,1,70,10|0,0:0|1:2,0:0:0:0:
316,120,99268,2,0,P|274:109|240:120,1,70,10|0,0:0|1:2,0:0:0:0:
168,164,99589,1,10,0:0:0:0:
168,164,99749,1,2,1:2:0:0:
80,120,99910,6,0,P|88:72|188:44,1,140,10|8,0:0|0:0,0:0:0:0:
248,88,100391,1,0,1:2:0:0:
272,184,100552,2,0,L|284:264,1,70,8|0,0:0|1:2,0:0:0:0:
368,300,100872,2,0,L|379:223,1,70,8|0,0:0|1:2,0:0:0:0:
416,200,101113,1,0,1:2:0:0:
416,200,101193,6,0,P|456:188|496:180,1,70,10|0,0:0|0:0,0:0:0:0:
508,88,101514,2,0,P|470:80|433:68,1,70,10|0,0:0|1:2,0:0:0:0:
348,36,101835,2,0,P|311:47|273:55,1,70,10|0,0:0|1:2,0:0:0:0:
184,72,102156,1,10,0:0:0:0:
68,104,102316,6,0,B|48:140|48:140|68:212,1,105,6|0,1:2|0:0,0:0:0:0:
92,244,102637,2,0,P|132:244|160:232,1,70,0|0,1:2|1:2,0:0:0:0:
248,188,102958,1,6,1:2:0:0:
248,188,103760,6,0,P|252:204|264:260,1,62.9999980773926,6|2,1:2|0:0,0:0:0:0:
336,300,104081,2,0,P|343:265|351:231,1,62.9999980773926,8|0,0:0|1:2,0:0:0:0:
384,212,104322,1,8,0:3:0:0:
384,212,104402,2,0,P|404:208|460:200,1,62.9999980773926,4|0,0:3|1:2,0:0:0:0:
464,116,104723,2,0,P|429:111|394:104,1,62.9999980773926,8|4,0:3|0:3,0:0:0:0:
280,92,105044,5,8,0:0:0:0:
280,92,105204,2,0,L|256:232,1,125.999996154785,4|0,1:2|1:2,0:0:0:0:
212,292,105685,2,0,L|148:284,1,62.9999980773926,12|0,0:0|1:2,0:0:0:0:
64,256,106006,2,0,L|76:192,1,62.9999980773926,8|4,0:3|0:3,0:0:0:0:
92,88,106327,5,4,1:2:0:0:
92,88,116594,6,0,L|100:156,1,56,4|2,1:2|0:0,0:0:0:0:
112,220,116915,1,2,0:0:0:0:
216,344,117236,2,0,P|241:354|269:354,1,56,10|8,0:0|0:3,0:0:0:0:
356,288,117557,1,6,0:3:0:0:
356,288,117717,1,6,1:2:0:0:
396,220,117878,6,0,L|389:164,1,56,2|4,0:0|1:2,0:0:0:0:
376,88,118199,1,2,0:0:0:0:
272,24,118359,2,0,B|204:20|228:60|156:56,1,112,6|0,1:2|1:2,0:0:0:0:
100,28,118840,1,8,0:0:0:0:
100,28,119001,1,8,0:0:0:0:
32,120,119161,6,0,L|100:136,1,56,4|2,1:2|0:0,0:0:0:0:
164,156,119482,1,2,0:0:0:0:
284,56,119803,1,10,0:0:0:0:
284,56,119963,2,0,L|324:48,3,28,10|8|6|4,0:3|0:3|0:3|0:3,0:0:0:0:
348,32,120284,6,0,L|416:44,1,56,6|0,1:2|0:0,0:0:0:0:
480,120,120605,2,0,L|468:188,1,56,6|0,1:2|0:0,0:0:0:0:
400,260,120926,2,0,L|344:250,1,56,6|0,1:2|0:0,0:0:0:0:
272,236,121247,1,10,0:0:0:0:
272,236,121407,1,10,0:0:0:0:
204,276,121568,1,10,0:0:0:0:
108,220,121728,6,0,B|124:184|124:184|100:100,2,125.999996154785,6|8|2,1:2|0:0|0:0,0:0:0:0:
76,304,122530,1,0,1:2:0:0:
76,304,122691,2,0,L|140:320,1,62.9999980773926,8|0,0:0|0:0,0:0:0:0:
220,352,123011,6,0,B|288:356|260:312|340:316,1,125.999996154785,2|8,1:2|0:0,0:0:0:0:
420,348,123493,1,0,0:0:0:0:
420,348,123653,2,0,P|476:328|488:264,1,125.999996154785,2|8,0:0|0:0,0:0:0:0:
420,168,124134,1,0,1:2:0:0:
420,168,124215,1,0,1:2:0:0:
420,168,124295,6,0,P|384:156|348:164,1,66.4999982242585,14|0,0:0|1:2,0:0:0:0:
288,224,124616,2,0,P|252:236|224:228,1,66.4999982242585,14|0,0:0|1:2,0:0:0:0:
144,184,124937,2,0,P|132:152|140:120,1,66.4999982242585,14|0,0:0|1:2,0:0:0:0:
192,44,125257,1,14,0:0:0:0:
300,20,125418,6,0,L|308:96,1,66.4999982242585,6|0,1:2|0:0,0:0:0:0:
396,152,125739,2,0,L|388:228,1,66.4999982242585,6|0,1:2|0:0,0:0:0:0:
320,304,126060,2,0,L|248:292,1,66.4999982242585,6|0,1:2|0:0,0:0:0:0:
188,244,126380,1,2,1:2:0:0:
188,244,126461,1,0,1:2:0:0:
188,244,126541,2,0,L|156:252,3,33.2499991121292,8|8|4|4,0:3|0:3|0:3|0:3,0:0:0:0:
108,256,126862,6,0,L|100:172,1,66.4999982242585,4|0,1:2|0:0,0:0:0:0:
116,88,127183,2,0,P|152:72|204:80,1,70,14|0,0:2|0:0,0:0:0:0:
264,132,127503,1,2,0:0:0:0:
264,132,127664,1,0,1:2:0:0:
320,212,127824,2,0,L|332:300,1,70,10|0,0:0|0:0,0:0:0:0:
424,308,128145,6,0,L|433:238,1,70,2|0,1:2|1:2,0:0:0:0:
444,140,128466,1,10,0:0:0:0:
432,44,128626,2,0,B|356:28|368:88|300:76,1,140,2|2,0:0|1:2,0:0:0:0:
216,24,129108,2,0,P|184:24|152:44,1,70,10|2,0:0|0:0,0:0:0:0:
96,116,129429,5,6,1:2:0:0:
184,276,129749,2,0,L|256:264,1,70,14|0,0:2|0:0,0:0:0:0:
308,188,130070,1,2,0:0:0:0:
308,188,130231,1,0,1:2:0:0:
364,108,130391,2,0,L|436:120,1,70,10|0,0:0|0:0,0:0:0:0:
504,176,130712,6,0,L|492:252,1,70,2|0,1:2|1:2,0:0:0:0:
472,336,131033,1,10,0:0:0:0:
396,284,131193,2,0,B|332:276|344:344|272:336,1,140,2|2,0:0|1:2,0:0:0:0:
184,352,131675,2,0,P|152:360|120:344,1,70,10|2,0:0|0:0,0:0:0:0:
52,284,131995,5,6,1:2:0:0:
144,128,132316,2,0,P|148:156|153:197,1,70,14|0,0:2|0:0,0:0:0:0:
204,280,132637,1,2,0:0:0:0:
204,280,132798,1,0,1:2:0:0:
280,352,132958,2,0,P|320:360|348:348,1,70,10|0,0:0|0:0,0:0:0:0:
424,288,133279,6,0,P|436:260|436:220,1,70,2|0,1:2|1:2,0:0:0:0:
420,124,133600,1,10,0:0:0:0:
356,52,133760,2,0,B|320:24|320:24|224:52,1,140,2|2,0:0|1:2,0:0:0:0:
184,136,134241,2,0,P|178:173|172:224,1,70,10|0,0:0|0:0,0:0:0:0:
96,300,134562,6,0,P|56:268|56:176,1,140,2|8,1:2|0:0,0:0:0:0:
100,96,135044,1,0,0:0:0:0:
192,68,135204,2,0,P|232:68|256:84,1,70,2|0,0:0|1:2,0:0:0:0:
276,180,135525,2,0,L|284:252,1,70,8|2,0:0|0:0,0:0:0:0:
300,300,135766,1,2,0:0:0:0:
300,300,135846,6,0,P|332:308|368:300,1,70,14|10,0:0|0:3,0:0:0:0:
440,236,136167,1,6,0:3:0:0:
472,116,136327,2,0,L|464:44,1,70,6|0,1:2|0:0,0:0:0:0:
372,16,136648,1,6,1:2:0:0:
276,28,136808,2,0,L|208:40,1,70,8|8,0:0|0:0,0:0:0:0:
164,64,137049,1,8,0:0:0:0:
164,64,137129,6,0,L|172:144,1,70,4|0,1:2|0:0,0:0:0:0:
188,232,137450,2,0,P|232:252|276:236,1,70,14|0,0:2|0:0,0:0:0:0:
316,172,137771,1,2,0:0:0:0:
316,172,137931,1,0,1:2:0:0:
356,84,138092,2,0,P|392:68|424:68,1,70,10|0,0:0|0:0,0:0:0:0:
496,132,138413,6,0,P|504:168|496:204,1,70,2|0,1:2|1:2,0:0:0:0:
464,292,138733,1,10,0:0:0:0:
388,356,138894,2,0,B|320:372|332:304|260:320,1,140,2|2,0:0|1:2,0:0:0:0:
160,324,139375,2,0,L|96:352,1,70,10|2,0:0|0:0,0:0:0:0:
0,324,139696,5,6,1:2:0:0:
4,128,140017,2,0,L|11:58,1,70,14|0,0:2|0:0,0:0:0:0:
96,8,140338,1,2,0:0:0:0:
96,8,140498,1,0,1:2:0:0:
196,4,140659,2,0,L|268:12,1,70,10|0,0:0|0:0,0:0:0:0:
304,104,140979,6,0,L|296:173,1,70,2|0,1:2|1:2,0:0:0:0:
284,272,141300,1,10,0:0:0:0:
344,352,141461,2,0,P|428:352|460:312,1,140,2|2,0:0|1:2,0:0:0:0:
464,216,141942,2,0,L|456:144,1,70,10|2,0:0|0:0,0:0:0:0:
440,48,142263,5,6,1:2:0:0:
244,28,142584,2,0,L|168:36,1,70,10|0,0:0|0:0,0:0:0:0:
84,60,142905,1,2,0:0:0:0:
84,60,143065,1,0,1:2:0:0:
32,144,143225,2,0,L|41:213,1,70,10|0,0:0|0:0,0:0:0:0:
80,300,143546,6,0,L|148:288,1,70,2|0,1:2|1:2,0:0:0:0:
244,268,143867,1,10,0:0:0:0:
324,212,144028,2,0,B|352:176|352:176|327:84,1,140,2|2,0:0|1:2,0:0:0:0:
252,20,144509,1,10,0:0:0:0:
252,20,144669,1,0,1:2:0:0:
128,32,144830,6,0,L|52:44,1,70,14|0,0:0|1:2,0:0:0:0:
16,132,145151,2,0,L|24:204,1,70,10|0,0:0|1:2,0:0:0:0:
72,288,145471,2,0,L|141:277,1,70,10|0,0:0|1:2,0:0:0:0:
240,268,145792,1,10,0:0:0:0:
344,336,145953,6,0,P|424:308|424:244,1,140,6|6,1:2|1:2,0:0:0:0:
420,164,146434,1,2,0:0:0:0:
336,72,146594,2,0,B|272:60|276:124|208:112,1,140,6|8,1:2|0:0,0:0:0:0:
116,76,147076,1,8,0:3:0:0:
116,76,147236,1,4,0:3:0:0:
40,172,147397,6,0,P|32:212|48:256,1,70,6|0,1:2|0:0,0:0:0:0:
92,320,147717,2,0,P|124:340|156:340,1,70,14|2,0:0|0:0,0:0:0:0:
252,316,148038,1,2,1:2:0:0:
272,220,148199,2,0,L|264:148,1,70,4|0,1:2|0:0,0:0:0:0:
336,84,148520,6,0,P|420:84|456:120,1,140,14|0,0:0|1:2,0:0:0:0:
476,216,149001,2,0,P|476:256|464:284,1,70,10|2,0:0|0:0,0:0:0:0:
388,348,149322,2,0,P|352:356|320:348,1,70,2|0,1:2|1:2,0:0:0:0:
224,328,149643,1,8,0:0:0:0:
224,328,149803,1,2,0:0:0:0:
128,248,149963,6,0,L|116:176,1,70,6|0,1:2|0:0,0:0:0:0:
108,80,150284,2,0,P|140:64|176:64,1,70,10|0,0:0|1:2,0:0:0:0:
248,128,150605,2,0,P|280:148|312:148,1,70,10|0,0:0|1:2,0:0:0:0:
404,120,150926,1,10,0:0:0:0:
484,212,151086,6,0,B|500:252|500:252|472:348,1,140,6|2,1:2|1:2,0:0:0:0:
376,356,151568,1,8,0:0:0:0:
256,344,151728,2,0,L|184:332,1,70,4|0,1:2|0:0,0:0:0:0:
92,312,152049,1,2,1:2:0:0:
52,224,152209,2,0,P|52:188|68:156,1,70,10|0,0:0|0:0,0:0:0:0:
92,116,152450,1,0,1:0:0:0:
92,116,152530,6,0,L|164:120,1,70,6|0,1:2|1:0,0:0:0:0:
260,128,152851,2,0,L|270:197,1,70,10|0,0:0|1:2,0:0:0:0:
308,288,153172,2,0,L|384:272,1,70,10|0,0:0|1:2,0:0:0:0:
464,232,153493,1,10,0:0:0:0:
464,232,153653,1,2,1:2:0:0:
472,132,153814,6,0,P|472:96|444:56,1,70,10|0,0:0|1:2,0:0:0:0:
368,24,154134,2,0,P|332:24|292:52,1,70,8|0,0:0|1:2,0:0:0:0:
236,116,154455,2,0,P|200:116|160:88,1,70,8|0,0:0|1:2,0:0:0:0:
104,28,154776,1,8,0:0:0:0:
28,88,154937,1,0,1:2:0:0:
28,88,155017,1,0,1:2:0:0:
28,88,155097,6,0,L|40:176,1,70,10|0,0:0|0:0,0:0:0:0:
92,232,155418,2,0,L|164:220,1,70,10|0,0:0|1:2,0:0:0:0:
240,176,155739,2,0,L|312:188,1,70,10|0,0:0|1:2,0:0:0:0:
396,212,156060,1,10,0:0:0:0:
388,336,156220,6,0,B|316:356|336:284|260:304,1,140,6|0,1:2|1:2,0:0:0:0:
172,324,156701,1,8,0:0:0:0:
80,244,156862,2,0,P|72:208|80:176,1,70,6|8,1:2|0:0,0:0:0:0:
112,92,157183,1,8,0:3:0:0:
112,92,157343,1,8,0:3:0:0:
196,140,157503,1,4,0:3:0:0:
196,140,157664,5,4,1:2:0:0:
296,32,157985,1,4,1:2:0:0:
424,100,158306,2,0,P|436:128|436:156,1,56,2|2,0:0|0:0,0:0:0:0:
428,236,158626,1,2,0:0:0:0:
428,236,158787,1,2,0:0:0:0:
372,288,158947,6,0,L|312:280,1,56,2|2,0:0|0:0,0:0:0:0:
268,220,159268,1,2,0:0:0:0:
268,220,159429,2,0,L|188:228,1,56,2|0,0:0|0:0,0:0:0:0:
136,224,159749,2,0,P|112:272|136:324,1,112,2|2,0:0|0:0,0:0:0:0:
236,364,160231,5,6,1:2:0:0:
372,288,160552,1,6,1:2:0:0:
296,152,160872,2,0,P|265:144|240:152,1,56,2|2,0:0|0:0,0:0:0:0:
192,212,161193,1,2,0:0:0:0:
192,212,161354,1,2,0:0:0:0:
140,272,161514,6,0,L|84:262,1,56,2|2,0:0|0:0,0:0:0:0:
28,216,161835,1,2,0:0:0:0:
28,216,161995,2,0,L|37:160,1,56,2|0,0:0|0:0,0:0:0:0:
76,88,162316,2,0,B|136:80|120:128|180:120,1,112,2|0,0:0|0:0,0:0:0:0:
284,96,162798,5,6,1:2:0:0:
368,228,163118,1,6,1:2:0:0:
492,136,163439,2,0,L|484:80,1,56,2|2,0:0|0:0,0:0:0:0:
416,40,163760,2,0,L|404:96,1,56,2|2,0:0|0:0,0:0:0:0:
336,132,164081,6,0,P|308:132|284:116,1,56,2|2,0:0|0:0,0:0:0:0:
244,48,164402,1,2,0:0:0:0:
244,48,164562,2,0,P|212:48|188:60,1,56,2|0,0:0|0:0,0:0:0:0:
124,104,164883,2,0,B|136:220,1,112,2|2,0:0|0:0,0:0:0:0:
152,324,165364,5,6,1:2:0:0:
244,196,165685,1,6,1:2:0:0:
324,332,166006,2,0,L|380:316,1,56,2|2,0:0|0:0,0:0:0:0:
420,248,166327,2,0,B|404:192,1,56,2|2,0:0|0:0,0:0:0:0:
328,172,166648,6,0,L|272:188,1,56,2|2,0:0|0:0,0:0:0:0:
224,248,166969,1,2,0:0:0:0:
224,248,167129,2,0,L|168:236,1,56,2|0,0:0|0:0,0:0:0:0:
92,220,167450,1,2,1:2:0:0:
32,168,167610,2,0,L|40:108,1,56,8|0,0:0|0:0,0:0:0:0:
108,24,167931,6,0,P|128:12|168:12,1,62.9999980773926,4|0,1:2|0:0,0:0:0:0:
216,84,168252,2,0,P|244:100|280:100,1,62.9999980773926,10|0,0:0|0:0,0:0:0:0:
356,64,168573,1,2,1:2:0:0:
356,64,168733,1,2,0:0:0:0:
432,16,168894,2,0,P|468:16|496:32,1,62.9999980773926,10|2,0:0|0:0,0:0:0:0:
512,120,169215,5,2,1:2:0:0:
512,120,169375,2,0,L|504:184,1,62.9999980773926,2|8,0:0|0:0,0:0:0:0:
468,264,169696,2,0,B|424:280|424:280|352:248,1,125.999996154785,2|2,0:0|0:0,0:0:0:0:
284,204,170177,1,10,0:0:0:0:
284,204,170338,1,2,0:0:0:0:
200,228,170498,6,0,L|188:300,1,62.9999980773926,2|0,1:2|0:0,0:0:0:0:
104,316,170819,2,0,L|96:252,1,62.9999980773926,10|0,0:0|0:0,0:0:0:0:
84,172,171140,1,2,1:2:0:0:
84,172,171300,1,2,0:0:0:0:
144,104,171461,2,0,P|176:96|208:104,1,62.9999980773926,10|2,0:0|0:0,0:0:0:0:
276,164,171782,5,2,1:2:0:0:
276,164,171942,2,0,P|312:164|336:152,1,62.9999980773926,2|8,0:0|0:0,0:0:0:0:
408,100,172263,2,0,P|452:136|452:204,1,125.999996154785,2|2,0:0|0:0,0:0:0:0:
432,288,172744,1,10,0:0:0:0:
432,288,172905,1,2,0:0:0:0:
352,364,173065,6,0,P|320:364|292:348,1,62.9999980773926,6|0,1:2|0:0,0:0:0:0:
244,276,173386,2,0,P|212:276|184:292,1,62.9999980773926,10|0,0:0|0:0,0:0:0:0:
116,348,173707,1,2,1:2:0:0:
116,348,173867,1,2,0:0:0:0:
36,308,174028,2,0,L|32:240,1,62.9999980773926,10|2,0:0|0:0,0:0:0:0:
4,168,174348,5,2,1:2:0:0:
4,168,174509,2,0,L|8:100,1,62.9999980773926,2|8,0:0|0:0,0:0:0:0:
64,36,174830,2,0,B|124:36|100:88|180:88,1,125.999996154785,2|2,0:0|0:0,0:0:0:0:
260,72,175311,1,10,0:0:0:0:
260,72,175471,1,2,0:0:0:0:
356,144,175632,6,0,P|359:181|364:228,1,62.9999980773926,6|0,1:2|1:2,0:0:0:0:
456,228,175953,2,0,P|458:196|461:165,1,62.9999980773926,10|0,0:0|1:2,0:0:0:0:
432,80,176274,1,10,0:0:0:0:
432,80,176434,1,10,0:0:0:0:
360,20,176594,2,0,P|324:16|280:36,1,62.9999980773926,10|10,0:0|0:0,0:0:0:0:
252,108,176915,6,0,P|216:112|172:92,1,62.9999980773926,10|10,0:0|0:0,0:0:0:0:
132,32,177236,2,0,P|96:28|52:48,1,62.9999980773926,10|10,0:0|0:0,0:0:0:0:
20,116,177557,1,10,0:0:0:0:
20,116,177717,1,2,1:2:0:0:
80,224,177878,1,14,0:0:0:0:
80,224,178038,1,0,1:2:0:0:
176,144,178199,6,0,B|248:132|228:196|308:184,1,140,4|8,1:2|0:0,0:0:0:0:
380,120,178680,2,0,B|340:144|340:144|368:236,1,140,2|2,0:0|1:2,0:0:0:0:
440,300,179161,2,0,L|451:231,1,70,10|2,0:0|0:0,0:0:0:0:
496,144,179482,6,0,L|485:75,1,70,2|2,1:2|1:2,0:0:0:0:
408,24,179803,1,10,0:0:0:0:
408,24,179963,2,0,P|376:16|340:24,1,70,2|0,0:0|0:0,0:0:0:0:
268,92,180284,1,2,1:2:0:0:
268,92,180445,2,0,P|232:100|200:92,1,70,8|2,0:0|0:0,0:0:0:0:
104,88,180766,6,0,L|116:164,1,70,0|2,1:2|0:0,0:0:0:0:
204,200,181086,2,0,L|192:276,1,70,10|2,0:0|0:0,0:0:0:0:
148,356,181407,2,0,L|72:344,1,70,2|2,0:0|1:2,0:0:0:0:
20,268,181728,1,10,0:0:0:0:
20,268,181888,1,0,0:0:0:0:
12,168,182049,6,0,L|20:96,1,70,2|2,1:2|1:2,0:0:0:0:
92,28,182370,2,0,L|164:36,1,70,10|2,0:0|0:0,0:0:0:0:
220,116,182691,1,2,0:0:0:0:
220,116,182851,1,2,1:2:0:0:
260,204,183011,2,0,L|332:192,1,70,10|2,0:0|0:0,0:0:0:0:
444,152,183332,6,0,P|500:192|500:264,1,140,6|8,1:2|0:0,0:0:0:0:
444,340,183814,2,0,B|368:352|392:292|316:300,1,140,2|2,0:0|1:2,0:0:0:0:
228,344,184295,2,0,L|152:332,1,70,10|2,0:0|0:0,0:0:0:0:
60,320,184616,5,2,1:2:0:0:
60,320,184776,1,2,1:2:0:0:
20,228,184937,1,10,0:0:0:0:
84,156,185097,2,0,P|108:144|152:144,1,70,2|0,0:0|0:0,0:0:0:0:
228,204,185418,1,2,1:2:0:0:
228,204,185578,2,0,P|272:204|300:188,1,70,10|2,0:0|0:0,0:0:0:0:
372,132,185899,5,2,1:2:0:0:
372,132,186060,1,2,0:0:0:0:
336,40,186220,2,0,P|304:24|264:24,1,70,10|2,0:0|0:0,0:0:0:0:
212,100,186541,2,0,P|180:116|144:116,1,70,2|2,0:0|1:2,0:0:0:0:
72,52,186862,1,10,0:0:0:0:
72,52,187022,1,2,0:0:0:0:
12,132,187183,6,0,L|24:200,1,70,2|2,1:2|1:2,0:0:0:0:
76,284,187503,2,0,L|144:268,1,70,10|2,0:0|0:0,0:0:0:0:
220,204,187824,1,2,0:0:0:0:
220,204,187985,1,2,1:2:0:0:
292,268,188145,1,10,0:0:0:0:
292,268,188306,1,10,0:0:0:0:
348,156,188466,6,0,P|384:140|424:144,1,77.0000023498536,6|0,1:2|0:0,0:0:0:0:
496,220,188787,2,0,P|500:264|488:296,1,77.0000023498536,8|0,0:0|1:2,0:0:0:0:
400,356,189108,2,0,P|356:356|328:340,1,77.0000023498536,8|0,0:0|1:2,0:0:0:0:
268,248,189429,1,10,0:0:0:0:
268,248,189589,1,0,1:2:0:0:
232,148,189749,6,0,P|192:148|160:164,1,77.0000023498536,10|0,0:0|1:2,0:0:0:0:
136,268,190070,2,0,P|104:288|64:288,1,77.0000023498536,8|2,0:0|1:2,0:0:0:0:
12,196,190391,2,0,L|20:108,1,77.0000023498536,8|2,0:0|1:2,0:0:0:0:
84,32,190712,1,10,0:0:0:0:
208,36,190872,1,2,1:2:0:0:
208,36,190953,1,0,1:2:0:0:
208,36,191033,6,0,B|280:24|252:80|344:68,1,140,14|0,0:0|1:2,0:0:0:0:
436,80,191514,2,0,B|464:116|464:116|440:208,1,140,8|0,0:3|1:2,0:0:0:0:
392,292,191995,2,0,L|324:276,1,70,4|0,0:3|1:2,0:0:0:0:
204,248,192316,6,0,P|198:291|192:344,2,93.3333333333333,12|8|4,0:0|0:3|0:3,0:0:0:0:
252,124,192958,2,0,P|245:82|240:32,2,93.3333333333333,8|4|4,0:3|0:3|1:3,0:0:0:0:
340,208,193600,5,4,1:2:0:0:
340,208,201300,6,0,P|389:177|377:265,1,188.999994232178,6|0,1:2|0:0,0:0:0:0:
308,304,201942,2,0,B|212:272|228:372|132:344,1,188.999994232178,2|0,0:0|1:2,0:0:0:0:
100,320,202503,1,0,1:2:0:0:
100,320,202584,6,0,L|92:252,1,66.4999982242585,14|10,0:0|0:3,0:0:0:0:
98,159,202905,1,6,0:3:0:0:
98,159,203065,2,0,L|164:144,1,66.4999982242585,6|0,1:2|0:0,0:0:0:0:
256,136,203386,1,6,1:2:0:0:
256,136,203547,2,0,L|267:201,1,66.4999982242585,8|0,0:0|0:0,0:0:0:0:
292,296,203867,5,4,1:2:0:0:
420,348,204188,2,0,P|456:348|483:327,1,70,14|0,0:2|0:0,0:0:0:0:
500,232,204509,2,0,P|500:196|480:168,1,70,2|0,0:0|1:2,0:0:0:0:
392,128,204830,2,0,P|348:128|324:144,1,70,10|0,0:0|0:0,0:0:0:0:
260,212,205151,6,0,P|252:256|248:284,1,70,2|0,1:2|1:2,0:0:0:0:
176,344,205471,1,10,0:0:0:0:
112,272,205632,2,0,P|106:237|100:202,1,70,2|0,0:0|0:0,0:0:0:0:
132,112,205953,1,2,1:2:0:0:
224,76,206113,2,0,P|268:76|292:92,1,70,10|2,0:0|0:0,0:0:0:0:
360,160,206434,5,6,1:2:0:0:
288,340,206755,2,0,L|216:352,1,70,14|0,0:2|0:0,0:0:0:0:
120,348,207076,2,0,L|52:328,1,70,2|0,0:0|1:2,0:0:0:0:
16,236,207397,2,0,L|84:216,1,70,10|0,0:0|0:0,0:0:0:0:
180,200,207717,6,0,P|216:200|244:220,1,70,2|0,1:2|1:2,0:0:0:0:
300,296,208038,1,10,0:0:0:0:
380,352,208199,2,0,P|420:352|448:332,1,70,2|0,0:0|0:0,0:0:0:0:
488,248,208520,1,2,1:2:0:0:
440,164,208680,2,0,L|368:172,1,70,10|2,0:0|0:0,0:0:0:0:
272,176,209001,5,6,1:2:0:0:
156,336,209322,2,0,P|116:336|88:320,1,70,10|0,0:0|0:0,0:0:0:0:
72,224,209643,2,0,P|104:204|136:204,1,70,2|0,0:0|1:2,0:0:0:0:
224,240,209963,2,0,P|252:256|292:256,1,70,10|0,0:0|0:0,0:0:0:0:
360,188,210284,6,0,L|352:116,1,70,2|0,1:2|1:2,0:0:0:0:
304,32,210605,1,10,0:0:0:0:
224,88,210766,2,0,L|216:157,1,70,2|0,0:0|0:0,0:0:0:0:
200,256,211086,1,2,1:2:0:0:
128,324,211247,2,0,P|84:324|64:308,1,70,10|0,0:0|1:2,0:0:0:0:
24,192,211568,6,0,L|36:124,1,70,14|0,0:0|1:2,0:0:0:0:
124,80,211888,2,0,L|136:148,1,70,10|0,0:0|1:2,0:0:0:0:
216,208,212209,2,0,L|228:140,1,70,10|0,0:0|1:2,0:0:0:0:
256,44,212530,1,10,0:0:0:0:
376,20,212691,6,0,P|456:32|484:80,1,140,6|6,1:2|1:2,0:0:0:0:
484,176,213172,1,2,0:0:0:0:
420,252,213332,2,0,L|280:224,1,140,6|8,1:2|0:0,0:0:0:0:
192,268,213814,1,8,0:3:0:0:
192,268,213974,1,4,0:3:0:0:
252,348,214134,5,6,1:2:0:0:
252,348,216220,1,8,0:0:0:0:
332,292,216380,1,8,0:0:0:0:
332,292,216541,1,10,0:0:0:0:
444,348,216701,6,0,P|452:296|456:272,1,77.0000023498536,6|0,1:2|0:0,0:0:0:0:
380,196,217022,2,0,P|372:144|368:120,1,77.0000023498536,10|0,0:0|1:2,0:0:0:0:
428,28,217343,2,0,P|468:28|496:52,1,77.0000023498536,10|0,0:0|1:2,0:0:0:0:
512,152,217664,1,10,0:0:0:0:
480,272,217824,6,0,B|408:252|416:324|336:308,1,154.000004699707,6|2,1:2|1:2,0:0:0:0:
252,244,218306,1,8,0:0:0:0:
304,152,218466,2,0,L|384:140,1,77.0000023498536,4|0,1:2|0:0,0:0:0:0:
448,56,218787,1,2,1:2:0:0:
448,56,218947,2,0,L|368:44,1,77.0000023498536,10|0,0:0|0:0,0:0:0:0:
248,40,219268,6,0,L|236:120,1,77.0000023498536,6|0,1:2|1:0,0:0:0:0:
148,180,219589,2,0,L|136:104,1,77.0000023498536,10|0,0:0|1:2,0:0:0:0:
44,52,219910,2,0,L|32:128,1,77.0000023498536,10|0,0:0|1:2,0:0:0:0:
16,236,220231,1,10,0:0:0:0:
16,236,220391,1,2,1:2:0:0:
76,324,220552,6,0,P|108:348|144:348,1,77.0000023498536,10|0,0:0|1:2,0:0:0:0:
236,292,220872,2,0,P|248:252|236:220,1,77.0000023498536,8|0,0:0|1:2,0:0:0:0:
140,168,221193,2,0,P|128:128|140:96,1,77.0000023498536,8|0,0:0|1:2,0:0:0:0:
228,32,221514,1,8,0:0:0:0:
336,36,221675,1,0,1:2:0:0:
336,36,221755,1,0,1:2:0:0:
336,36,221835,6,0,L|412:52,1,77.0000023498536,10|0,0:0|0:0,0:0:0:0:
476,140,222156,2,0,L|400:152,1,77.0000023498536,10|0,0:0|1:2,0:0:0:0:
316,220,222477,2,0,L|396:236,1,77.0000023498536,10|0,0:0|1:2,0:0:0:0:
488,284,222798,1,10,0:0:0:0:
388,356,222958,6,0,B|308:372|332:304|232:324,1,154.000004699707,6|0,1:2|1:2,0:0:0:0:
140,348,223439,1,0,1:2:0:0:
140,348,223600,1,6,1:2:0:0:
32,138,224081,6,0,L|45:48,1,84
88,32,224402,6,0,B|156:16|152:84|224:60,1,140,6|8,1:2|0:0,0:0:0:0:
308,20,224883,2,0,P|272:76|272:152,1,140,2|2,0:0|1:2,0:0:0:0:
304,240,225364,1,10,0:0:0:0:
304,240,225525,6,0,L|448:264,1,140,2|2,1:2|1:2,0:0:0:0:
488,176,226006,2,0,P|488:136|472:112,1,70,10|0,0:0|0:0,0:0:0:0:
392,56,226327,2,0,P|324:56|280:108,1,140,2|8,0:0|0:0,0:0:0:0:
264,204,226808,1,0,0:0:0:0:
264,204,226969,6,0,L|336:192,2,70,2|0|8,1:2|0:0|0:0,0:0:0:0:
164,204,227450,2,0,P|148:172|148:136,1,70,2|0,0:0|0:0,0:0:0:0:
176,44,227771,2,0,P|204:28|248:28,1,70,2|10,1:2|0:0,0:0:0:0:
336,56,228092,6,0,B|360:84|360:84|336:184,1,140,2|2,1:2|1:2,0:0:0:0:
252,240,228573,2,0,L|268:308,1,70,10|2,0:0|0:0,0:0:0:0:
352,356,228894,2,0,B|412:372|408:308|480:320,1,140,2|10,0:0|0:0,0:0:0:0:
504,224,229375,1,0,0:0:0:0:
504,224,229536,6,0,L|496:144,1,70,2|2,1:2|0:0,0:0:0:0:
400,136,229856,1,10,0:0:0:0:
400,136,230017,2,0,L|260:156,1,140,2|2,0:0|1:2,0:0:0:0:
196,84,230498,1,10,0:0:0:0:
196,84,230659,6,0,P|236:40|312:40,1,140,2|2,1:2|1:2,0:0:0:0:
404,76,231140,2,0,P|416:112|424:144,1,70,10|0,0:0|0:0,0:0:0:0:
496,212,231461,2,0,P|480:268|460:348,1,140,2|8,0:0|0:0,0:0:0:0:
340,348,231942,1,2,1:2:0:0:
340,348,232102,6,0,L|272:332,1,70,10|0,0:0|1:2,0:0:0:0:
176,308,232423,1,8,0:0:0:0:
60,268,232584,2,0,P|28:224|28:140,1,140,6|10,1:2|0:0,0:0:0:0:
72,52,233065,1,8,0:0:0:0:
192,28,233225,6,0,B|268:16|248:80|328:68,1,140,6|10,1:2|0:0,0:0:0:0:
420,60,233707,1,10,0:0:0:0:
460,176,233867,2,0,L|448:244,1,70,6|0,1:2|0:0,0:0:0:0:
352,232,234188,2,0,L|340:164,1,70,0|8,1:2|0:3,0:0:0:0:
268,60,234509,1,10,0:3:0:0:
268,60,234589,1,4,0:3:0:0:
268,60,234669,6,0,L|124:40,1,140,6|10,1:2|0:0,0:0:0:0:
48,96,235151,2,0,B|24:132|24:132|48:228,1,140,2|2,0:0|0:0,0:0:0:0:
80,320,235632,1,10,0:0:0:0:
80,320,235792,6,0,B|144:292|152:360|216:332,1,140,2|2,0:0|0:0,0:0:0:0:
308,312,236274,2,0,L|376:332,1,70,10|2,0:0|0:0,0:0:0:0:
472,336,236594,2,0,L|492:192,1,140,2|8,1:2|0:0,0:0:0:0:
476,100,237076,1,0,0:0:0:0:
476,100,237236,6,0,L|400:112,1,70,2|0,1:2|0:0,0:0:0:0:
324,164,237557,1,8,0:0:0:0:
324,164,237717,2,0,L|248:152,1,70,2|0,0:0|1:2,0:0:0:0:
184,84,238038,2,0,L|108:96,1,70,2|10,0:0|0:0,0:0:0:0:
28,140,238359,6,0,P|20:216|56:264,1,140,2|2,0:0|0:0,0:0:0:0:
152,288,238840,2,0,L|168:216,1,70,10|2,0:0|0:0,0:0:0:0:
232,148,239161,2,0,B|298:125|294:193|362:177,1,140,2|8,1:2|0:0,0:0:0:0:
460,168,239643,1,0,0:0:0:0:
460,168,239803,6,0,L|469:237,1,70,2|2,1:2|0:0,0:0:0:0:
452,336,240124,1,10,0:0:0:0:
452,336,240284,2,0,P|384:356|328:324,1,140,2|2,0:0|0:0,0:0:0:0:
272,240,240766,1,10,0:0:0:0:
272,240,240926,6,0,P|208:216|144:240,1,140,2|2,0:0|0:0,0:0:0:0:
76,312,241407,2,0,P|64:278|56:244,1,70,10|0,0:0|0:0,0:0:0:0:
0,168,241728,2,0,P|11:134|19:100,1,70,2|0,1:2|0:0,0:0:0:0:
84,28,242049,1,8,0:0:0:0:
84,28,242209,1,0,0:0:0:0:
172,112,242370,6,0,P|204:132|248:128,1,70,14|2,0:0|1:2,0:0:0:0:
296,56,242691,2,0,P|328:36|372:40,1,70,10|2,0:0|1:2,0:0:0:0:
440,92,243011,2,0,P|460:124|456:168,1,70,8|2,0:0|1:2,0:0:0:0:
408,236,243332,1,10,0:0:0:0:
324,324,243493,6,0,B|256:340|260:272|188:296,1,140,6|10,1:2|0:0,0:0:0:0:
100,328,243974,2,0,L|88:252,1,70,10|2,0:0|1:2,0:0:0:0:
76,160,244295,1,10,0:0:0:0:
76,160,244455,1,0,1:2:0:0:
164,200,244616,1,10,0:0:0:0:
164,200,244776,1,8,0:3:0:0:
236,100,244937,5,6,1:2:0:0:
256,192,245097,12,0,249830,0:0:0:0:
