osu file format v14

[General]
AudioFilename: audio.mp3
AudioLeadIn: 0
PreviewTime: 60027
Countdown: 0
SampleSet: Soft
StackLeniency: 0.7
Mode: 3
LetterboxInBreaks: 0
SpecialStyle: 0
WidescreenStoryboard: 1

[Editor]
DistanceSpacing: 1.6
BeatDivisor: 3
GridSize: 4
TimelineZoom: 2.999999

[Metadata]
Title:Tachiagare! (TV Size)
TitleUnicode:タチアガレ! (TV Size)
Artist:Wake Up, Girls!
ArtistUnicode:Wake Up, Girls!
Creator:dudehacker
Version:National Idols
Source:Wake Up, Girls!
Tags:Tailsdk WUG Japanese Anime Idol 島田真夢 吉岡茉祐 Shimada Yoshioka Mayu 林田藍里 永野愛理 Hayashida Eino Airi 久海菜々美 山下七海 Hisami Yamashita Nanami 片山実波 田中美海 Katayama Tanaka Minami 菊間夏夜 奥野香耶 Kikuma Okuno Kaya 七瀬佳乃 青山吉能 Nanase Aoyama Yoshino 岡本未夕 高木美佑 Okamoto Takagi Miyu
BeatmapID:1915266
BeatmapSetID:914868

[Difficulty]
HPDrainRate:8
CircleSize:7
OverallDifficulty:8
ApproachRate:5
SliderMultiplier:1.4
SliderTickRate:1

[Events]
//Background and Video events
Video,9460,"wakeupgirls2.avi"
0,0,"96216-wake-up-girls-girls.jpg",0,0
//Break Periods
//Storyboard Layer 0 (Background)
//Storyboard Layer 1 (Fail)
//Storyboard Layer 2 (Pass)
//Storyboard Layer 3 (Foreground)
//Storyboard Layer 4 (Overlay)
//Storyboard Sound Samples

[TimingPoints]
521,394.736842105263,4,2,1,100,1,0
60520,-100,4,2,1,100,0,1
88942,-100,4,2,1,100,0,0

[HitObjects]
51,192,521,128,0,718:0:0:0:0:
153,192,718,128,0,915:0:0:0:0:
329,192,915,128,0,1113:0:0:0:0:
448,192,1113,128,0,2099:0:0:0:0:
109,192,2099,128,0,2297:0:0:0:0:
153,192,2297,128,0,2494:0:0:0:0:
329,192,2494,128,0,2692:0:0:0:0:
460,192,2692,128,0,3678:0:0:0:0:
109,192,3678,128,0,3876:0:0:0:0:
256,192,3876,128,0,4073:0:0:0:0:
329,192,4073,128,0,4270:0:0:0:0:
448,192,4270,128,0,5257:0:0:0:0:
109,192,5257,128,0,5455:0:0:0:0:
256,192,5455,128,0,5652:0:0:0:0:
329,192,5652,128,0,5849:0:0:0:0:
448,192,5849,128,0,6836:0:0:0:0:
36,192,6836,1,2,0:0:0:0:
109,192,6836,128,0,7034:0:0:0:0:
329,192,6836,1,0,0:0:0:0:
256,192,7034,128,0,7231:0:0:0:0:
402,192,7231,128,0,7428:0:0:0:0:
448,192,7428,128,0,8415:0:0:0:0:
36,192,8415,1,2,0:0:0:0:
109,192,8415,128,0,8613:0:0:0:0:
256,192,8613,128,0,8810:0:0:0:0:
402,192,8810,128,0,9007:0:0:0:0:
448,192,9007,128,0,9994:0:0:0:0:
36,192,9994,1,2,0:0:0:0:
182,192,9994,128,0,10192:0:0:0:0:
256,192,10192,128,0,10389:0:0:0:0:
329,192,10389,128,0,10586:0:0:0:0:
460,192,10586,128,0,11178:0:0:0:0:
109,192,11376,1,2,0:0:0:0:
402,192,11376,128,0,11573:0:0:0:0:
256,192,11573,1,2,0:0:0:0:
329,192,11573,128,0,11770:0:0:0:0:
182,192,11770,128,0,11968:0:0:0:0:
109,192,11968,128,0,12165:0:0:0:0:
36,192,12165,128,0,12363:0:0:0:0:
402,192,12363,1,8,0:0:0:0:
448,192,12363,1,0,0:0:0:0:
109,192,12494,1,8,0:0:0:0:
182,192,12494,1,0,0:0:0:0:
402,192,12626,1,8,0:0:0:0:
460,192,12626,1,0,0:0:0:0:
51,192,12757,1,0,0:0:0:70:LR_Drum Low Finish Long Echo.wav
109,192,12757,1,0,0:0:0:0:
256,192,12757,128,0,13152:0:0:0:0:
36,192,13152,1,2,0:0:0:0:
182,192,13152,128,0,13744:0:0:0:70:LR_Drum Low Finish Long Echo.wav
358,192,13152,1,0,0:0:0:0:
402,192,13349,1,0,0:0:0:0:
256,192,13547,1,8,0:0:0:0:
475,192,13547,1,0,0:0:0:0:
109,192,13744,1,0,0:0:0:0:
329,192,13744,128,0,14139:0:0:0:0:
36,192,13942,1,2,0:0:0:0:
182,192,14139,128,0,14534:0:0:0:0:
402,192,14139,1,0,0:0:0:0:
256,192,14336,1,8,0:0:0:0:
475,192,14336,1,0,0:0:0:0:
36,192,14534,128,0,14928:0:0:0:0:
402,192,14534,1,0,0:0:0:0:
329,192,14731,1,2,0:0:0:0:
182,192,14928,128,0,15323:0:0:0:0:
402,192,14928,1,0,0:0:0:0:
256,192,15126,1,8,0:0:0:0:
475,192,15126,1,0,0:0:0:0:
109,192,15323,1,0,0:0:0:0:
329,192,15323,128,0,15915:0:0:0:0:
36,192,15520,1,2,0:0:0:0:
109,192,15718,1,0,0:0:0:0:
256,192,15915,1,8,0:0:0:0:
460,192,15915,128,0,16113:0:0:0:0:
36,192,16113,1,0,0:0:0:0:
402,192,16113,128,0,16310:0:0:0:0:
182,192,16310,128,2,16507:0:0:0:0:
329,192,16310,1,0,0:0:0:0:
256,192,16507,128,0,16705:0:0:0:0:
475,192,16507,1,0,0:0:0:0:
36,192,16705,1,8,0:0:0:0:
402,192,16705,128,0,16902:0:0:0:0:
182,192,16902,128,0,17099:0:0:0:0:
329,192,16902,1,0,0:0:0:0:
109,192,17099,1,2,0:0:0:0:
256,192,17099,1,0,0:0:0:0:
475,192,17297,128,0,17494:0:0:0:0:
182,192,17494,1,8,0:0:0:0:
329,192,17494,128,0,17692:0:0:0:0:
36,192,17692,128,0,18086:0:0:0:0:
109,192,17692,128,0,18086:0:0:0:0:
402,192,17889,1,2,0:0:0:0:
475,192,18086,128,0,18284:0:0:0:0:
256,192,18284,128,8,18481:0:0:0:0:
329,192,18284,1,0,0:0:0:0:
182,192,18481,128,0,18876:0:0:0:0:
402,192,18481,1,0,0:0:0:0:
51,192,18678,1,2,0:0:0:0:
402,192,18876,1,8,0:0:0:0:
475,192,18876,128,0,19073:0:0:0:0:
109,192,19073,1,8,0:0:0:0:
256,192,19073,128,0,19270:0:0:0:0:
36,192,19270,128,0,19468:0:0:0:0:
182,192,19468,1,8,0:0:0:0:
329,192,19468,128,0,19665:0:0:0:70:LR_Drum Finish.wav
402,192,19468,128,0,19665:0:0:0:0:
256,192,19665,1,2,0:0:0:0:
256,192,19863,1,2,0:0:0:0:
109,192,20060,1,8,0:0:0:0:
402,192,20060,128,0,20257:0:0:0:0:
460,192,20060,128,0,20257:0:0:0:0:
153,192,20257,1,2,0:0:0:0:
153,192,20455,1,2,0:0:0:0:
51,192,20652,1,2,0:0:0:0:
256,192,20652,128,0,22231:0:0:0:70:LR_Drum Finish.wav
475,192,20652,128,0,22231:0:0:0:0:
51,192,22231,1,0,0:0:0:0:
109,192,22231,1,0,0:0:0:0:
36,192,22626,1,2,0:0:0:0:
153,192,22626,1,0,0:0:0:70:LR_Drum Finish.wav
475,192,22626,1,0,0:0:0:0:
329,192,22823,128,0,23020:0:0:0:0:
153,192,23020,1,2,0:0:0:0:
475,192,23020,1,0,0:0:0:0:
329,192,23218,128,0,23415:0:0:0:0:
109,192,23415,1,2,0:0:0:0:
402,192,23415,1,0,0:0:0:0:
256,192,23613,128,0,23810:0:0:0:0:
109,192,23810,1,2,0:0:0:0:
402,192,23810,1,0,0:0:0:0:
256,192,24007,128,0,24205:0:0:0:0:
36,192,24205,1,2,0:0:0:0:
329,192,24205,1,0,0:0:0:0:
475,192,24205,128,0,24599:0:0:0:0:
182,192,24402,128,0,24599:0:0:0:0:
36,192,24599,1,2,0:0:0:0:
329,192,24599,1,0,0:0:0:0:
109,192,24797,128,0,25389:0:0:0:0:
256,192,24994,1,2,0:0:0:0:
402,192,24994,1,0,0:0:0:0:
329,192,25192,128,0,25389:0:0:0:0:
256,192,25389,1,2,0:0:0:0:
402,192,25389,1,0,0:0:0:0:
329,192,25586,128,0,25784:0:0:0:0:
51,192,25784,1,2,0:0:0:0:
460,192,25784,1,0,0:0:0:0:
256,192,25981,128,0,26178:0:0:0:0:
51,192,26178,1,2,0:0:0:0:
460,192,26178,1,0,0:0:0:0:
256,192,26376,128,0,26573:0:0:0:0:
109,192,26573,1,2,0:0:0:0:
402,192,26573,1,0,0:0:0:0:
182,192,26770,128,0,26968:0:0:0:0:
109,192,26968,1,2,0:0:0:0:
402,192,26968,1,0,0:0:0:0:
182,192,27165,128,0,27363:0:0:0:0:
36,192,27363,1,2,0:0:0:0:
256,192,27363,128,0,27757:0:0:0:0:
460,192,27363,1,0,0:0:0:0:
109,192,27560,128,0,27757:0:0:0:0:
182,192,27757,1,2,0:0:0:0:
329,192,27757,1,0,0:0:0:0:
109,192,27955,128,0,28152:0:0:0:0:
475,192,27955,128,0,28547:0:0:0:0:
182,192,28152,1,2,0:0:0:0:
329,192,28152,1,0,0:0:0:0:
109,192,28349,128,0,28547:0:0:0:0:
182,192,28547,1,2,0:0:0:0:
329,192,28547,1,0,0:0:0:0:
36,192,28744,1,2,0:0:0:0:
256,192,28744,1,0,0:0:0:0:
36,192,28942,1,2,0:0:0:0:
256,192,28942,1,0,0:0:0:0:
182,192,29139,128,0,29336:0:0:0:0:
109,192,29336,1,2,0:0:0:0:
402,192,29336,1,0,0:0:0:0:
256,192,29534,128,0,29731:0:0:0:0:
182,192,29731,1,2,0:0:0:0:
475,192,29731,1,0,0:0:0:0:
329,192,29928,128,0,30126:0:0:0:0:
36,192,30126,1,2,0:0:0:0:
256,192,30126,1,0,0:0:0:0:
402,192,30323,128,0,30520:0:0:0:0:
36,192,30520,128,2,30915:0:0:0:0:
109,192,30520,1,0,0:0:0:0:
329,192,30520,1,0,0:0:0:0:
182,192,30718,128,0,30915:0:0:0:0:
256,192,30915,1,2,0:0:0:0:
402,192,30915,1,0,0:0:0:0:
109,192,31113,128,0,31310:0:0:0:0:
475,192,31113,128,0,31705:0:0:0:0:
182,192,31310,1,2,0:0:0:0:
329,192,31310,1,0,0:0:0:0:
36,192,31507,128,0,31705:0:0:0:0:
109,192,31705,1,2,0:0:0:0:
256,192,31705,1,0,0:0:0:0:
402,192,31902,1,0,0:0:0:0:
329,192,32001,1,0,0:0:0:0:
109,192,32099,128,2,32494:0:0:0:0:
256,192,32099,1,0,0:0:0:0:
475,192,32297,128,0,32494:0:0:0:0:
256,192,32494,1,2,0:0:0:0:
402,192,32494,1,0,0:0:0:0:
475,192,32692,128,0,32889:0:0:0:0:
36,192,32889,128,2,33481:0:0:0:0:
182,192,32889,1,0,0:0:0:0:
329,192,33086,128,0,33284:0:0:0:0:
182,192,33284,1,2,0:0:0:0:
402,192,33284,1,0,0:0:0:0:
329,192,33481,128,0,33678:0:0:0:0:
109,192,33678,1,2,0:0:0:0:
256,192,33678,128,8,34073:0:0:0:0:
402,192,33678,1,0,0:0:0:0:
182,192,34073,1,0,0:0:0:0:
329,192,34270,128,0,34863:0:0:0:0:
402,192,34468,128,0,34863:0:0:0:0:
475,192,34665,128,0,34863:0:0:0:0:
51,192,34863,1,2,0:0:0:0:
153,192,34863,1,0,0:0:0:0:
51,192,35060,1,2,0:0:0:0:
153,192,35060,1,0,0:0:0:0:
256,192,35257,1,2,0:0:0:0:
358,192,35257,1,0,0:0:0:70:LR_Drum Finish.wav
460,192,35257,1,0,0:0:0:0:
109,192,35455,1,0,0:0:0:0:
182,192,35652,1,8,0:0:0:0:
475,192,35652,1,0,0:0:0:0:
109,192,35849,1,0,0:0:0:0:
36,192,36047,1,2,0:0:0:0:
402,192,36047,1,0,0:0:0:0:
256,192,36244,1,0,0:0:0:0:
182,192,36442,1,8,0:0:0:0:
329,192,36442,1,0,0:0:0:0:
36,192,36639,1,0,0:0:0:0:
109,192,36836,1,2,0:0:0:0:
329,192,36836,1,0,0:0:0:0:
460,192,36836,128,0,37231:0:0:0:0:
256,192,37034,1,0,0:0:0:0:
51,192,37231,1,8,0:0:0:0:
402,192,37231,1,0,0:0:0:0:
153,192,37428,128,0,38218:0:0:0:0:
329,192,37626,1,2,0:0:0:0:
475,192,37626,1,0,0:0:0:0:
402,192,37823,1,0,0:0:0:0:
51,192,38020,1,8,0:0:0:0:
475,192,38020,1,0,0:0:0:0:
402,192,38218,1,0,0:0:0:0:
109,192,38415,1,2,0:0:0:0:
256,192,38415,1,0,0:0:0:0:
329,192,38613,1,0,0:0:0:0:
182,192,38810,1,8,0:0:0:0:
402,192,38810,1,0,0:0:0:0:
256,192,39007,1,0,0:0:0:0:
109,192,39205,1,2,0:0:0:0:
475,192,39205,1,0,0:0:0:0:
36,192,39402,1,0,0:0:0:0:
182,192,39599,1,8,0:0:0:0:
402,192,39599,1,0,0:0:0:0:
358,192,39797,1,0,0:0:0:0:
51,192,39994,1,2,0:0:0:0:
153,192,39994,1,0,0:0:0:0:
460,192,39994,128,0,40389:0:0:0:0:
256,192,40192,1,0,0:0:0:0:
109,192,40389,1,8,0:0:0:0:
402,192,40389,1,0,0:0:0:0:
256,192,40586,128,0,41178:0:0:0:0:
51,192,40784,1,2,0:0:0:0:
475,192,40784,1,0,0:0:0:0:
402,192,40981,1,0,0:0:0:0:
182,192,41178,1,8,0:0:0:0:
358,192,41178,1,0,0:0:0:0:
51,192,41376,1,8,0:0:0:0:
109,192,41376,1,0,0:0:0:0:
36,192,41573,1,2,0:0:0:0:
109,192,41573,1,0,0:0:0:0:
460,192,41770,1,0,0:0:0:0:
182,192,41968,1,8,0:0:0:0:
358,192,41968,1,0,0:0:0:0:
256,192,42165,1,0,0:0:0:0:
109,192,42363,1,2,0:0:0:0:
402,192,42363,1,0,0:0:0:0:
475,192,42560,1,0,0:0:0:0:
153,192,42757,1,8,0:0:0:0:
329,192,42757,1,0,0:0:0:0:
51,192,42955,1,0,0:0:0:0:
256,192,43152,1,2,0:0:0:0:
460,192,43152,128,0,43547:0:0:0:0:
109,192,43349,1,0,0:0:0:0:
51,192,43547,1,8,0:0:0:0:
329,192,43547,128,0,43942:0:0:0:0:
256,192,43744,1,0,0:0:0:0:
182,192,43942,128,2,44336:0:0:0:0:
402,192,43942,1,0,0:0:0:0:
475,192,44139,1,0,0:0:0:0:
36,192,44336,128,8,44731:0:0:0:0:
329,192,44336,1,0,0:0:0:0:
475,192,44534,1,0,0:0:0:0:
153,192,44731,128,2,45718:0:0:0:0:
256,192,44731,1,0,0:0:0:70:LR_Drum Finish.wav
329,192,44731,1,0,0:0:0:0:
402,192,44928,1,0,0:0:0:0:
51,192,45126,1,8,0:0:0:0:
460,192,45126,1,0,0:0:0:0:
358,192,45323,1,0,0:0:0:0:
109,192,45520,1,2,0:0:0:0:
256,192,45520,1,0,0:0:0:0:
402,192,45718,1,0,0:0:0:0:
51,192,45915,1,8,0:0:0:0:
475,192,45915,1,0,0:0:0:0:
329,192,46113,128,0,47099:0:0:0:0:
109,192,46310,128,2,46507:0:0:0:0:
402,192,46310,1,0,0:0:0:0:
256,192,46507,128,0,46705:0:0:0:0:
36,192,46705,128,8,46902:0:0:0:0:
475,192,46705,1,0,0:0:0:0:
182,192,46902,128,0,47099:0:0:0:0:
109,192,47099,1,2,0:0:0:0:
402,192,47099,1,0,0:0:0:0:
256,192,47297,128,8,47889:0:0:0:0:
475,192,47297,1,0,0:0:0:0:
36,192,47494,1,8,0:0:0:0:
182,192,47494,1,0,0:0:0:0:
329,192,47692,1,2,0:0:0:0:
402,192,47692,1,0,0:0:0:0:
51,192,47889,1,2,0:0:0:0:
109,192,47889,1,0,0:0:0:70:LR_Drum Finish.wav
153,192,47889,1,0,0:0:0:0:
460,192,47889,128,0,48284:0:0:0:0:
51,192,48086,1,2,0:0:0:0:
109,192,48086,1,0,0:0:0:0:
153,192,48086,1,0,0:0:0:0:
109,192,48481,128,2,48876:0:0:0:0:
256,192,48678,1,8,0:0:0:0:
402,192,48678,1,0,0:0:0:0:
358,192,48876,1,0,0:0:0:0:
36,192,49073,1,0,0:0:0:0:
153,192,49270,1,0,0:0:0:0:
51,192,49468,128,0,49665:0:0:0:0:
109,192,49468,128,0,49665:0:0:0:0:
358,192,49665,1,2,0:0:0:0:
402,192,49665,1,0,0:0:0:0:
475,192,49665,1,0,0:0:0:0:
182,192,49863,1,0,0:0:0:0:
358,192,50060,1,2,0:0:0:0:
402,192,50060,1,0,0:0:0:0:
475,192,50060,1,0,0:0:0:0:
36,192,50257,128,8,50455:0:0:0:0:
109,192,50257,128,0,50455:0:0:0:0:
109,192,50652,1,0,0:0:0:0:
256,192,50849,1,0,0:0:0:0:
182,192,51047,128,2,51442:0:0:0:0:
329,192,51047,1,0,0:0:0:0:
402,192,51047,1,0,0:0:0:0:
460,192,51047,1,0,0:0:0:0:
329,192,51244,1,2,0:0:0:0:
402,192,51244,1,0,0:0:0:0:
460,192,51244,1,0,0:0:0:0:
256,192,51639,1,2,0:0:0:0:
402,192,51639,1,0,0:0:0:0:
51,192,51836,128,8,52034:0:0:0:0:
109,192,51836,128,0,52034:0:0:0:0:
460,192,52034,1,0,0:0:0:0:
358,192,52231,1,0,0:0:0:0:
109,192,52428,1,0,0:0:0:0:
402,192,52626,128,0,52823:0:0:0:0:
460,192,52626,128,0,52823:0:0:0:0:
36,192,52823,1,2,0:0:0:0:
153,192,52823,1,0,0:0:0:0:
358,192,52823,1,0,0:0:0:0:
256,192,53020,1,0,0:0:0:0:
36,192,53218,1,2,0:0:0:0:
153,192,53218,1,0,0:0:0:0:
358,192,53218,1,0,0:0:0:0:
402,192,53415,128,8,53613:0:0:0:0:
475,192,53415,128,0,53613:0:0:0:0:
358,192,53810,1,0,0:0:0:0:
153,192,54007,1,0,0:0:0:0:
109,192,54205,1,2,0:0:0:0:
256,192,54205,128,0,54599:0:0:0:70:LR_Drum Finish.wav
402,192,54205,1,0,0:0:0:0:
109,192,54402,1,2,0:0:0:0:
402,192,54402,1,0,0:0:0:0:
153,192,54599,1,2,0:0:0:0:
358,192,54599,1,0,0:0:0:0:
36,192,54797,1,0,0:0:0:0:
109,192,54994,128,0,55784:0:0:0:0:
256,192,55192,1,8,0:0:0:0:
329,192,55192,1,0,0:0:0:0:
153,192,55784,1,2,0:0:0:0:
256,192,55784,1,0,0:0:0:70:LR_Drum Finish.wav
475,192,55784,128,0,56178:0:0:0:0:
153,192,55981,1,2,0:0:0:0:
256,192,55981,1,0,0:0:0:0:
51,192,56178,1,2,0:0:0:0:
109,192,56178,1,0,0:0:0:0:
329,192,56178,128,0,56573:0:0:0:0:
51,192,56376,1,2,0:0:0:0:
109,192,56376,1,0,0:0:0:0:
182,192,56573,128,0,56968:0:0:0:0:
402,192,56770,1,2,0:0:0:0:
460,192,56770,1,0,0:0:0:0:
36,192,56968,128,8,57363:0:0:0:0:
402,192,56968,1,0,0:0:0:0:
460,192,56968,1,0,0:0:0:0:
109,192,57363,1,2,0:0:0:0:
329,192,57363,1,0,0:0:0:70:LR_Drum Finish.wav
402,192,57363,128,0,57757:0:0:0:0:
182,192,57560,128,0,57757:0:0:0:0:
36,192,57757,1,2,0:0:0:0:
256,192,57757,1,0,0:0:0:0:
182,192,57955,128,0,58152:0:0:0:0:
475,192,57955,128,0,58547:0:0:0:0:
109,192,58152,1,2,0:0:0:0:
329,192,58152,1,0,0:0:0:0:
182,192,58349,128,0,58547:0:0:0:0:
36,192,58547,1,2,0:0:0:0:
256,192,58547,1,0,0:0:0:0:
182,192,58744,128,0,58942:0:0:0:0:
329,192,58942,1,2,0:0:0:0:
402,192,58942,128,0,59139:0:0:0:70:LR_Drum Finish.wav
475,192,58942,128,0,59139:0:0:0:0:
36,192,59139,128,2,59336:0:0:0:0:
109,192,59139,128,0,59336:0:0:0:0:
182,192,59139,1,0,0:0:0:0:
329,192,59336,1,2,0:0:0:0:
402,192,59336,128,0,59534:0:0:0:0:
475,192,59336,128,0,59534:0:0:0:0:
36,192,59534,128,2,59731:0:0:0:0:
109,192,59534,128,0,59731:0:0:0:0:
182,192,59534,1,0,0:0:0:0:
329,192,59731,1,2,0:0:0:0:
36,192,59928,1,2,0:0:0:0:
256,192,59928,1,0,0:0:0:0:
358,192,60126,1,0,0:0:0:70:LR_Drum Low Finish Long Echo.wav
402,192,60126,1,0,0:0:0:0:
475,192,60126,128,0,60520:0:0:0:0:
36,192,60520,128,2,60915:0:0:0:0:
182,192,60520,1,0,0:0:0:70:LR_Drum Finish.wav
256,192,60520,1,0,0:0:0:0:
402,192,60718,1,0,0:0:0:0:
182,192,60915,1,8,0:0:0:0:
329,192,60915,1,0,0:0:0:0:
402,192,61113,1,0,0:0:0:0:
109,192,61310,1,2,0:0:0:0:
256,192,61310,1,0,0:0:0:0:
402,192,61507,1,0,0:0:0:0:
51,192,61705,1,8,0:0:0:0:
182,192,61705,1,0,0:0:0:0:
402,192,61902,1,0,0:0:0:0:
109,192,62099,128,2,62494:0:0:0:0:
256,192,62099,1,0,0:0:0:0:
329,192,62099,1,0,0:0:0:0:
475,192,62297,1,0,0:0:0:0:
36,192,62494,128,8,62889:0:0:0:0:
182,192,62494,1,0,0:0:0:0:
402,192,62494,1,0,0:0:0:0:
475,192,62692,1,0,0:0:0:0:
256,192,62889,128,2,63284:0:0:0:0:
329,192,62889,1,0,0:0:0:0:
475,192,63086,1,0,0:0:0:0:
109,192,63284,1,8,0:0:0:0:
402,192,63284,128,0,63678:0:0:0:0:
182,192,63481,1,0,0:0:0:0:
36,192,63678,128,2,64073:0:0:0:0:
256,192,63678,1,0,0:0:0:0:
329,192,63678,1,0,0:0:0:0:
475,192,63876,1,0,0:0:0:0:
109,192,64073,1,8,0:0:0:0:
182,192,64073,1,0,0:0:0:0:
256,192,64270,128,0,64863:0:0:0:0:
402,192,64270,1,0,0:0:0:0:
51,192,64468,1,2,0:0:0:0:
182,192,64468,1,0,0:0:0:0:
402,192,64665,1,0,0:0:0:0:
109,192,64863,128,2,65257:0:0:0:0:
182,192,64863,1,0,0:0:0:70:LR_Drum Finish.wav
475,192,64863,128,0,65257:0:0:0:0:
402,192,65060,1,0,0:0:0:0:
36,192,65257,1,8,0:0:0:0:
256,192,65257,128,0,65652:0:0:0:70:LR_Drum Finish.wav
329,192,65257,128,0,65652:0:0:0:0:
182,192,65455,1,0,0:0:0:0:
36,192,65652,1,8,0:0:0:0:
460,192,65652,1,0,0:0:0:0:
329,192,65849,1,0,0:0:0:0:
402,192,65948,1,0,0:0:0:0:
36,192,66047,128,2,66442:0:0:0:0:
109,192,66047,128,0,66442:0:0:0:0:
460,192,66047,1,0,0:0:0:0:
256,192,66244,1,0,0:0:0:0:
182,192,66442,1,2,0:0:0:0:
402,192,66442,128,0,66836:0:0:0:0:
329,192,66639,1,0,0:0:0:0:
182,192,66836,1,2,0:0:0:0:
256,192,66836,128,0,67231:0:0:0:70:LR_Drum Finish.wav
475,192,66836,1,0,0:0:0:0:
36,192,67034,1,0,0:0:0:0:
402,192,67231,1,8,0:0:0:0:
475,192,67231,1,0,0:0:0:0:
36,192,67428,1,0,0:0:0:0:
256,192,67626,1,2,0:0:0:0:
329,192,67626,1,0,0:0:0:0:
36,192,67823,1,0,0:0:0:0:
402,192,68020,1,8,0:0:0:0:
475,192,68020,1,0,0:0:0:0:
36,192,68218,1,0,0:0:0:0:
182,192,68415,128,2,68810:0:0:0:0:
329,192,68415,1,0,0:0:0:0:
402,192,68613,1,0,0:0:0:0:
256,192,68810,1,8,0:0:0:0:
475,192,68810,128,0,69205:0:0:0:0:
402,192,69007,1,0,0:0:0:0:
36,192,69205,128,2,69599:0:0:0:0:
153,192,69205,1,0,0:0:0:0:
402,192,69402,1,0,0:0:0:0:
109,192,69599,1,8,0:0:0:0:
256,192,69599,128,0,69994:0:0:0:0:
402,192,69797,1,0,0:0:0:0:
182,192,69994,1,2,0:0:0:0:
329,192,69994,128,0,70586:0:0:0:70:LR_Drum Finish.wav
109,192,70192,1,0,0:0:0:0:
402,192,70389,1,8,0:0:0:0:
475,192,70389,1,0,0:0:0:0:
109,192,70586,1,0,0:0:0:0:
256,192,70784,128,2,71178:0:0:0:0:
402,192,70784,1,0,0:0:0:0:
109,192,70981,1,0,0:0:0:0:
329,192,71178,1,8,0:0:0:0:
475,192,71178,1,0,0:0:0:0:
109,192,71376,1,0,0:0:0:0:
329,192,71573,1,2,0:0:0:0:
402,192,71573,128,0,71770:0:0:0:70:LR_Drum Finish.wav
460,192,71573,128,0,71770:0:0:0:0:
51,192,71770,128,8,71968:0:0:0:0:
109,192,71770,128,0,71968:0:0:0:0:
182,192,71770,1,0,0:0:0:0:
329,192,71968,1,2,0:0:0:0:
402,192,71968,128,8,72165:0:0:0:0:
460,192,71968,128,0,72165:0:0:0:0:
51,192,72165,128,8,72363:0:0:0:0:
109,192,72165,128,0,72363:0:0:0:0:
182,192,72165,1,0,0:0:0:0:
256,192,72264,1,8,0:0:0:0:
329,192,72363,1,2,0:0:0:0:
182,192,72560,1,8,0:0:0:0:
402,192,72560,1,0,0:0:0:0:
256,192,72757,128,2,73152:0:0:0:0:
475,192,72757,1,0,0:0:0:0:
402,192,72955,1,2,0:0:0:0:
51,192,73152,128,2,73547:0:0:0:0:
182,192,73152,1,0,0:0:0:70:LR_Drum Finish.wav
358,192,73152,1,0,0:0:0:0:
475,192,73349,1,0,0:0:0:0:
109,192,73547,1,8,0:0:0:0:
153,192,73547,1,0,0:0:0:70:LR_Drum Low Finish Long Echo.wav
256,192,73547,1,0,0:0:0:0:
475,192,73744,1,0,0:0:0:0:
36,192,73942,1,2,0:0:0:0:
329,192,73942,1,0,0:0:0:0:
475,192,74139,1,0,0:0:0:0:
109,192,74336,1,8,0:0:0:0:
256,192,74336,1,0,0:0:0:0:
475,192,74534,1,0,0:0:0:0:
182,192,74731,128,2,75126:0:0:0:0:
329,192,74731,1,0,0:0:0:0:
36,192,74928,1,0,0:0:0:0:
256,192,75126,128,8,75520:0:0:0:0:
402,192,75126,1,0,0:0:0:0:
36,192,75323,1,0,0:0:0:0:
329,192,75520,128,2,75915:0:0:0:0:
460,192,75520,1,0,0:0:0:0:
36,192,75718,1,0,0:0:0:0:
256,192,75915,128,8,76310:0:0:0:0:
402,192,75915,1,0,0:0:0:0:
36,192,76113,1,0,0:0:0:0:
153,192,76310,1,2,0:0:0:0:
475,192,76310,128,0,77099:0:0:0:0:
402,192,76507,1,0,0:0:0:0:
109,192,76705,1,8,0:0:0:0:
256,192,76705,1,0,0:0:0:0:
402,192,76902,1,0,0:0:0:0:
36,192,77099,128,2,77494:0:0:0:0:
182,192,77099,1,0,0:0:0:0:
402,192,77297,1,0,0:0:0:0:
109,192,77494,1,8,0:0:0:0:
256,192,77494,1,0,0:0:0:0:
153,192,77692,1,0,0:0:0:70:LR_Drum Finish.wav
329,192,77692,128,0,77889:0:0:0:0:
475,192,77692,1,0,0:0:0:0:
36,192,77889,1,2,0:0:0:0:
402,192,77889,1,0,0:0:0:0:
109,192,78086,1,0,0:0:0:0:
36,192,78284,128,8,78678:0:0:0:0:
256,192,78284,1,0,0:0:0:0:
475,192,78284,1,0,0:0:0:0:
109,192,78481,1,0,0:0:0:0:
182,192,78678,1,2,0:0:0:0:
402,192,78678,1,0,0:0:0:0:
475,192,78678,128,0,79073:0:0:0:0:
182,192,78876,1,2,0:0:0:0:
402,192,78876,1,0,0:0:0:0:
36,192,79073,128,8,79468:0:0:0:0:
256,192,79073,1,0,0:0:0:0:
329,192,79073,1,0,0:0:0:0:
109,192,79270,1,0,0:0:0:0:
256,192,79468,1,2,0:0:0:0:
329,192,79468,1,0,0:0:0:70:LR_Drum Finish.wav
460,192,79468,128,0,79863:0:0:0:0:
182,192,79665,1,0,0:0:0:0:
358,192,79863,1,8,0:0:0:0:
402,192,79863,1,0,0:0:0:0:
109,192,80060,1,0,0:0:0:0:
182,192,80257,1,2,0:0:0:0:
358,192,80257,1,0,0:0:0:0:
109,192,80455,1,0,0:0:0:0:
36,192,80652,128,8,81047:0:0:0:0:
402,192,80652,1,0,0:0:0:0:
475,192,80652,1,0,0:0:0:0:
182,192,80849,1,0,0:0:0:0:
256,192,81047,128,2,81442:0:0:0:0:
329,192,81047,1,0,0:0:0:0:
402,192,81244,1,0,0:0:0:0:
109,192,81442,128,8,81836:0:0:0:0:
182,192,81442,1,0,0:0:0:0:
402,192,81639,1,0,0:0:0:0:
36,192,81836,1,2,0:0:0:0:
256,192,81836,128,0,82231:0:0:0:0:
402,192,82034,1,0,0:0:0:0:
36,192,82231,128,8,82626:0:0:0:0:
182,192,82231,1,0,0:0:0:0:
402,192,82428,1,0,0:0:0:0:
182,192,82626,1,2,0:0:0:0:
256,192,82626,1,0,0:0:0:70:LR_Drum Finish.wav
329,192,82626,128,0,83415:0:0:0:0:
109,192,82823,1,0,0:0:0:0:
256,192,83020,1,8,0:0:0:0:
402,192,83020,1,0,0:0:0:0:
109,192,83218,1,0,0:0:0:0:
182,192,83415,1,2,0:0:0:0:
475,192,83415,1,0,0:0:0:0:
182,192,83613,1,2,0:0:0:0:
475,192,83613,1,0,0:0:0:0:
51,192,83810,128,8,84205:0:0:0:0:
109,192,83810,128,0,84205:0:0:0:0:
358,192,83810,1,0,0:0:0:0:
402,192,83810,1,0,0:0:0:0:
182,192,84007,1,0,0:0:0:0:
256,192,84205,128,2,84599:0:0:0:0:
329,192,84205,128,0,84599:0:0:0:70:LR_Drum Finish.wav
475,192,84205,1,0,0:0:0:0:
109,192,84402,1,0,0:0:0:0:
182,192,84599,128,8,84994:0:0:0:0:
402,192,84599,1,0,0:0:0:0:
475,192,84599,1,0,0:0:0:0:
109,192,84797,1,0,0:0:0:0:
402,192,84994,128,2,85389:0:0:0:0:
51,192,85192,1,8,0:0:0:0:
256,192,85192,1,0,0:0:0:0:
109,192,85389,1,8,0:0:0:0:
475,192,85389,128,0,85784:0:0:0:0:
256,192,85586,1,0,0:0:0:0:
36,192,85784,1,2,0:0:0:0:
182,192,85784,128,0,86178:0:0:0:70:LR_Drum Finish.wav
402,192,85784,1,0,0:0:0:0:
329,192,85981,1,0,0:0:0:0:
475,192,86178,1,0,0:0:0:0:
109,192,86376,1,2,0:0:0:0:
402,192,86376,128,0,86573:0:0:0:0:
256,192,86573,1,8,0:0:0:0:
329,192,86573,1,0,0:0:0:0:
109,192,86770,1,0,0:0:0:0:
36,192,86968,128,8,87363:0:0:0:0:
329,192,86968,1,0,0:0:0:0:
182,192,87165,1,0,0:0:0:0:
256,192,87363,128,2,88152:0:0:0:0:
402,192,87363,1,0,0:0:0:70:LR_Drum Finish.wav
460,192,87363,128,0,88152:0:0:0:0:
153,192,88152,1,2,0:0:0:0:
402,192,88152,128,0,88942:0:0:0:0:
153,192,88349,1,2,0:0:0:0:
109,192,88547,1,0,0:0:0:70:LR_Drum Low Finish Long Echo.wav
256,192,88547,1,0,0:0:0:0:
329,192,88547,1,0,0:0:0:0:
36,192,88942,1,2,0:0:0:0:
109,192,88942,128,0,90323:0:0:0:70:LR_Drum Finish.wav
475,192,88942,1,0,0:0:0:0:
329,192,89139,1,0,0:0:0:0:
256,192,89336,1,8,0:0:0:0:
329,192,89534,1,0,0:0:0:0:
475,192,89534,128,0,89928:0:0:0:0:
256,192,89731,1,0,0:0:0:0:
329,192,89928,128,0,90323:0:0:0:0:
402,192,89928,1,0,0:0:0:0:
182,192,90126,1,8,0:0:0:0:
36,192,90323,128,0,90718:0:0:0:0:
256,192,90323,1,0,0:0:0:0:
402,192,90520,1,2,0:0:0:0:
182,192,90718,128,0,91113:0:0:0:0:
329,192,90718,1,0,0:0:0:0:
256,192,90915,1,8,0:0:0:0:
109,192,91113,1,0,0:0:0:0:
329,192,91113,128,0,91705:0:0:0:0:
475,192,91310,1,2,0:0:0:0:
109,192,91507,1,0,0:0:0:0:
182,192,91606,1,0,0:0:0:0:
256,192,91705,1,8,0:0:0:0:
475,192,91705,128,0,91902:0:0:0:0:
109,192,91902,1,0,0:0:0:0:
402,192,91902,128,0,92099:0:0:0:0:
182,192,92099,128,2,92297:0:0:0:0:
329,192,92099,1,0,0:0:0:0:
36,192,92297,1,0,0:0:0:0:
256,192,92297,128,0,92494:0:0:0:0:
358,192,92494,1,8,0:0:0:0:
475,192,92494,128,0,92692:0:0:0:0:
36,192,92692,1,0,0:0:0:0:
402,192,92692,128,0,92889:0:0:0:0:
109,192,92889,1,2,0:0:0:0:
182,192,92889,1,0,0:0:0:0:
36,192,93086,128,0,93284:0:0:0:0:
329,192,93086,1,0,0:0:0:0:
256,192,93284,128,8,93481:0:0:0:0:
460,192,93284,1,0,0:0:0:0:
109,192,93481,1,0,0:0:0:0:
329,192,93481,128,0,93876:0:0:0:0:
182,192,93678,1,2,0:0:0:0:
402,192,93876,1,0,0:0:0:0:
256,192,94073,1,8,0:0:0:0:
182,192,94270,128,0,94665:0:0:0:0:
475,192,94270,1,0,0:0:0:0:
329,192,94468,1,2,0:0:0:0:
109,192,94665,128,0,95060:0:0:0:0:
475,192,94665,1,0,0:0:0:0:
256,192,94863,1,8,0:0:0:0:
36,192,95060,128,0,95257:0:0:0:0:
475,192,95060,1,0,0:0:0:0:
182,192,95257,1,8,0:0:0:0:
329,192,95257,128,0,95455:0:0:0:70:LR_Drum Finish.wav
402,192,95257,128,0,95455:0:0:0:0:
256,192,95455,1,2,0:0:0:0:
256,192,95652,1,2,0:0:0:0:
109,192,95849,1,8,0:0:0:0:
402,192,95849,128,0,96047:0:0:0:0:
460,192,95849,128,0,96047:0:0:0:0:
182,192,96047,1,2,0:0:0:0:
182,192,96244,1,2,0:0:0:0:
51,192,96442,1,2,0:0:0:0:
256,192,96442,128,0,98415:0:0:0:70:LR_Drum Finish.wav
475,192,96442,128,0,98415:0:0:0:0:
