osu file format v14

[General]
AudioFilename: audio.mp3
AudioLeadIn: 0
PreviewTime: 54690
Countdown: 0
SampleSet: Soft
StackLeniency: 0.7
Mode: 2
LetterboxInBreaks: 0
WidescreenStoryboard: 1

[Editor]
Bookmarks: 88393
DistanceSpacing: 1.5
BeatDivisor: 4
GridSize: 4
TimelineZoom: 1.3

[Metadata]
Title:Suki no Skill (TV Size)
TitleUnicode:スキノスキル (TV Size)
Artist:Wake Up, Girls!
ArtistUnicode:Wake Up, Girls!
Creator:[_-Kukkai-_]
Version:Salad
Source:デスマーチからはじまる異世界狂想曲
Tags:Sinnoh paranoid grapes wonjae Yoshioka Mayu 吉岡 茉祐 Eino Airi 永野 愛理 Tanaka Minami 田中 美海 Aoyama Yoshino 青山 吉能 Yamashita Nanami 山下七海 Okuno Kaya 奥野 香耶 Miyu Takagi 高木 美佑 death march to the parallel world rhapsody desu machi kara hajimaru isekai kyousoukyoku kyosokyoku ed ending Vocal anime japanese folk My Favorite sukiru
BeatmapID:2393701
BeatmapSetID:1143324

[Difficulty]
HPDrainRate:4
CircleSize:3
OverallDifficulty:7
ApproachRate:7
SliderMultiplier:2
SliderTickRate:1

[Events]
//Background and Video events
0,0,"BG.jpg",0,0
Video,-158,"vdo.mp4"
//Break Periods
//Storyboard Layer 0 (Background)
//Storyboard Layer 1 (Fail)
//Storyboard Layer 2 (Pass)
//Storyboard Layer 3 (Foreground)
//Storyboard Layer 4 (Overlay)
//Storyboard Sound Samples

[TimingPoints]
310,468.75,4,2,1,60,1,0
310,-100,4,2,1,60,0,0
13435,-100,4,2,2,60,0,0
15310,-100,4,2,1,60,0,0
30310,-100,4,2,1,60,0,0
42497,-100,4,2,2,70,0,0
43903,-100,4,2,2,60,0,0
44372,-100,4,2,2,60,0,0
44841,-100,4,2,2,60,0,0
45778,-100,4,2,2,60,0,0
46247,-100,4,2,2,60,0,0
46716,-100,4,2,2,60,0,0
47653,-100,4,2,2,60,0,0
48122,-100,4,2,2,60,0,0
48591,-100,4,2,2,60,0,0
50935,-100,4,2,2,62,0,0
51403,-100,4,2,2,64,0,0
51872,-100,4,2,2,66,0,0
52341,-100,4,2,2,68,0,0
52810,-100,4,2,2,70,0,0
53278,-100,4,2,2,72,0,0
53747,-100,4,2,2,74,0,0
54216,-100,4,2,2,78,0,0
54685,-100,4,2,2,80,0,1
69216,-100,4,2,2,80,0,0
69685,-100,4,2,2,80,0,1
84685,-100,4,2,2,70,0,0

[Colours]
Combo1 : 156,101,114
Combo2 : 150,167,165
Combo3 : 245,194,137
Combo4 : 115,98,111

[HitObjects]
280,328,310,6,0,L|448:328,1,133.333333333333,2|0,0:0|0:0,0:0:0:0:
348,328,778,1,0,0:0:0:0:
216,332,1091,2,0,L|120:332,2,66.6666666666667,0|0|0,0:0|0:0|0:0,0:0:0:0:
284,332,1560,2,0,L|424:332,1,133.333333333333,0|0,0:0|0:0,0:0:0:0:
252,332,2185,5,2,0:0:0:0:
184,332,2341,1,0,0:0:0:0:
116,332,2497,1,0,0:0:0:0:
184,332,2653,1,0,0:0:0:0:
336,280,2966,1,0,0:0:0:0:
404,280,3122,2,0,L|228:276,1,133.333333333333,0|0,0:0|0:0,0:0:0:0:
136,276,3747,1,0,0:0:0:0:
384,260,4060,6,0,L|384:112,1,133.333333333333,2|0,0:0|0:0,0:0:0:0:
316,128,4528,1,0,0:0:0:0:
248,128,4685,1,0,0:0:0:0:
404,360,4997,1,0,0:0:0:0:
462,332,5153,1,0,0:0:0:0:
485,271,5309,1,0,0:0:0:0:
459,211,5465,1,0,0:0:0:0:
398,187,5622,1,0,0:0:0:0:
152,176,5935,6,0,L|152:32,1,133.333333333333,2|0,0:0|0:0,0:0:0:0:
220,40,6403,1,0,0:0:0:0:
380,40,6716,1,0,0:0:0:0:
312,40,6872,2,0,L|140:40,2,133.333333333333,0|0|0,0:0|0:0|0:0,0:0:0:0:
64,356,7810,6,0,L|-4:304,2,66.6666666666667,2|0|0,0:0|0:0|0:0,0:0:0:0:
196,356,8435,1,0,0:0:0:0:
328,352,8747,2,0,L|328:264,1,66.6666666666667,0|0,0:0|0:0,0:0:0:0:
260,288,9060,1,0,0:0:0:0:
128,292,9372,1,0,0:0:0:0:
376,176,9685,6,0,L|448:176,2,66.6666666666667,2|0|0,0:0|0:0|0:0,0:0:0:0:
228,176,10310,1,0,0:0:0:0:
80,172,10622,2,0,L|-4:172,2,66.6666666666667,0|0|0,0:0|0:0|0:0,0:0:0:0:
228,176,11247,1,0,0:0:0:0:
492,184,11560,6,0,L|492:80,1,66.6666666666667,2|0,0:0|0:0,0:0:0:0:
424,120,11872,1,0,0:0:0:0:
292,124,12185,1,0,0:0:0:0:
160,124,12497,2,0,L|160:36,1,66.6666666666667,0|0,0:0|0:0,0:0:0:0:
228,56,12810,1,0,0:0:0:0:
360,56,13122,1,0,0:0:0:0:
104,340,13435,5,2,0:0:0:0:
256,192,13747,12,2,14841,0:0:0:0:
288,340,15310,6,0,L|136:340,1,133.333333333333,12|0,0:1|0:0,0:0:0:0:
220,340,15778,1,8,0:0:0:0:
380,340,16091,1,0,0:0:0:0:
443,326,16247,1,8,0:0:0:0:
485,275,16403,1,0,0:0:0:0:
487,210,16559,1,0,0:0:0:0:
448,157,16716,1,8,0:0:0:0:
385,140,16872,1,0,0:0:0:0:
140,260,17185,5,10,0:0:0:0:
304,264,17497,2,0,L|304:172,1,66.6666666666667,0|8,0:0|0:0,0:0:0:0:
164,184,17966,2,0,L|260:184,1,66.6666666666667,0|8,0:0|0:0,0:0:0:0:
96,184,18435,1,0,0:0:0:0:
28,188,18591,2,0,P|8:120|44:64,1,133.333333333333,8|0,0:0|0:0,0:0:0:0:
224,360,19060,6,0,L|388:364,1,133.333333333333,10|0,0:0|0:0,0:0:0:0:
292,360,19528,1,8,0:0:0:0:
128,360,19841,2,0,L|116:288,1,66.6666666666667,0|8,0:0|0:0,0:0:0:0:
256,272,20310,2,0,L|356:272,1,66.6666666666667,0|8,0:0|0:0,0:0:0:0:
322,272,20622,1,0,0:0:0:0:
76,272,20935,5,10,0:0:0:0:
8,232,21091,1,0,0:0:0:0:
8,164,21247,1,0,0:0:0:0:
64,112,21403,1,8,0:0:0:0:
148,112,21560,1,0,0:0:0:0:
324,92,21872,2,0,L|172:92,2,133.333333333333,8|0|0,0:0|0:0|0:0,0:0:0:0:
76,336,22810,6,0,L|76:240,1,66.6666666666667,10|0,0:0|0:0,0:0:0:0:
144,268,23122,1,0,0:0:0:0:
276,268,23435,1,0,0:0:0:0:
408,268,23747,1,8,0:0:0:0:
341,268,23903,1,0,0:0:0:0:
274,268,24059,1,0,0:0:0:0:
144,268,24372,1,0,0:0:0:0:
392,204,24685,6,0,L|484:204,2,66.6666666666667,10|0|0,0:0|0:0|0:0,0:0:0:0:
260,200,25310,1,0,0:0:0:0:
128,200,25622,2,0,L|128:112,1,66.6666666666667,8|0,0:0|0:0,0:0:0:0:
196,136,25935,1,0,0:0:0:0:
328,140,26247,1,0,0:0:0:0:
80,352,26560,6,0,L|0:352,2,66.6666666666667,10|0|0,0:0|0:0|0:0,0:0:0:0:
212,352,27185,1,0,0:0:0:0:
344,352,27497,2,0,L|344:248,1,66.6666666666667,8|0,0:0|0:0,0:0:0:0:
276,284,27810,1,0,0:0:0:0:
144,284,28122,1,0,0:0:0:0:
392,216,28435,6,0,L|464:216,2,66.6666666666667,10|0|0,0:0|0:0|0:0,0:0:0:0:
244,216,29060,1,0,0:0:0:0:
96,212,29372,1,8,0:0:0:0:
34,197,29528,1,0,0:0:0:0:
12,128,29684,1,8,0:0:0:0:
52,72,29840,1,8,0:0:0:0:
120,36,29997,1,0,0:0:0:0:
188,72,30153,1,0,0:0:0:0:
376,356,30310,6,0,L|376:164,1,133.333333333333,8|8,1:1|1:1,0:0:0:0:
372,228,30935,1,8,0:0:0:0:
132,236,31247,2,0,L|132:60,1,133.333333333333,8|8,1:1|1:1,0:0:0:0:
132,102,31872,1,8,0:0:0:0:
372,100,32185,6,0,L|176:104,1,133.333333333333,8|8,1:1|1:1,0:0:0:0:
104,104,32810,1,8,0:0:0:0:
344,352,33122,2,0,L|344:208,1,133.333333333333,8|0,1:1|0:0,0:0:0:0:
264,220,33591,1,4,0:0:0:0:
184,224,33747,1,0,0:0:0:0:
184,144,33903,1,0,0:0:0:0:
372,308,34060,6,0,L|500:240,2,133.333333333333,8|8|8,1:1|1:1|0:0,0:0:0:0:
128,356,34997,2,0,L|128:178,1,133.333333333333,8|8,1:1|1:1,0:0:0:0:
260,224,35622,1,8,0:0:0:0:
20,172,35935,6,0,L|164:172,2,133.333333333333,8|8|8,1:1|1:1|0:0,0:0:0:0:
264,360,36872,2,0,P|292:288|248:244,1,133.333333333333,8|0,1:1|0:0,0:0:0:0:
180,252,37341,1,4,0:0:0:0:
100,252,37497,1,0,0:0:0:0:
180,252,37653,1,0,0:0:0:0:
368,264,37810,6,0,L|368:120,1,133.333333333333,8|8,1:1|1:1,0:0:0:0:
236,136,38435,1,8,0:0:0:0:
476,96,38747,2,0,L|292:96,2,133.333333333333,8|8|8,1:1|1:1|0:0,0:0:0:0:
236,348,39685,6,0,L|236:204,1,133.333333333333,8|8,1:1|1:1,0:0:0:0:
368,204,40310,1,8,0:0:0:0:
128,240,40622,2,0,L|288:240,1,133.333333333333,8|0,1:1|0:0,0:0:0:0:
340,240,41091,1,4,0:0:0:0:
420,240,41247,1,0,0:0:0:0:
340,240,41403,1,0,0:0:0:0:
152,348,41560,6,0,L|28:284,2,133.333333333333,8|8|8,1:1|1:1|0:0,0:0:0:0:
424,248,42497,2,0,L|240:248,1,133.333333333333,0|8,1:1|1:1,0:0:0:0:
212,248,42966,1,8,0:0:0:0:
132,248,43122,1,8,1:1:0:0:
132,168,43278,1,0,0:0:0:0:
324,164,43435,6,0,L|504:164,2,133.333333333333,12|0|0,0:1|0:0|0:0,0:0:0:0:
184,296,44372,2,0,L|392:296,1,200,8|8,0:1|0:1,0:0:0:0:
452,296,44997,1,0,0:0:0:0:
384,296,45153,1,0,0:0:0:0:
200,276,45310,6,0,L|36:276,2,133.333333333333,8|0|0,0:1|0:0|0:0,0:0:0:0:
360,264,46247,2,0,P|460:256|484:148,1,200,8|8,0:1|0:1,0:0:0:0:
420,184,46872,1,0,0:0:0:0:
172,220,47185,6,0,L|38:220,2,133.333333333333,8|0|0,0:1|0:0|0:0,0:0:0:0:
336,212,48122,2,0,P|392:144|320:72,1,200,8|8,0:1|0:1,0:0:0:0:
260,72,48747,1,0,0:0:0:0:
12,80,49060,5,8,0:1:0:0:
144,80,49372,1,0,0:0:0:0:
276,80,49685,1,0,0:0:0:0:
148,356,49997,1,8,0:1:0:0:
85,340,50153,1,0,0:0:0:0:
57,281,50309,1,0,0:0:0:0:
84,223,50465,1,8,0:1:0:0:
146,205,50622,1,0,0:0:0:0:
396,200,50935,5,12,0:1:0:0:
192,336,51403,2,0,L|392:336,2,200,8|8|8,0:1|0:1|0:1,0:0:0:0:
412,356,52810,6,0,L|412:124,1,200,8|8,0:1|0:1,0:0:0:0:
212,156,53747,1,8,0:1:0:0:
278,156,53903,1,8,0:0:0:0:
345,156,54059,1,8,0:0:0:0:
412,156,54215,1,8,0:1:0:0:
72,160,54685,5,12,0:1:0:0:
304,348,55153,1,10,0:0:0:0:
148,352,55466,2,0,L|148:232,1,66.6666666666667,2|2,0:0|0:0,0:0:0:0:
280,280,55935,2,0,L|112:280,1,133.333333333333,2|2,0:0|0:0,0:0:0:0:
400,280,56560,6,0,P|464:216|368:160,1,200,2|10,0:0|0:0,0:0:0:0:
336,152,57185,1,2,0:0:0:0:
164,160,57497,2,0,L|297:160,2,133.333333333333,2|2|2,0:0|0:0|0:0,0:0:0:0:
416,360,58435,6,0,P|464:288|368:188,1,200,2|8,0:0|0:0,0:0:0:0:
192,192,59372,2,2,L|36:192,2,133.333333333333,2|2|2,0:0|0:0|0:0,0:0:0:0:
440,304,60310,6,0,L|224:304,1,200,10|10,0:1|0:0,0:0:0:0:
440,304,61247,1,10,0:1:0:0:
494,272,61403,1,0,0:0:0:0:
492,208,61559,1,0,0:0:0:0:
435,180,61715,1,10,0:0:0:0:
108,244,62185,6,0,L|332:244,1,200,14|10,0:1|0:0,0:0:0:0:
376,240,62810,1,2,0:0:0:0:
216,248,63122,2,2,L|52:248,2,133.333333333333,2|2|2,0:0|0:0|0:0,0:0:0:0:
460,136,64060,6,0,L|236:136,1,200,10|10,0:1|0:0,0:0:0:0:
192,132,64685,1,2,0:0:0:0:
360,136,64997,2,2,L|488:80,2,133.333333333333,2|2|2,0:0|0:0|0:0,0:0:0:0:
124,348,65935,5,10,0:1:0:0:
324,344,66403,2,0,L|408:344,1,66.6666666666667,10|2,0:0|0:0,0:0:0:0:
316,344,66716,1,10,0:0:0:0:
244,344,66872,2,0,L|88:344,2,133.333333333333,2|2|2,0:0|0:0|0:0,0:0:0:0:
480,184,67810,6,0,L|288:184,2,133.333333333333,10|2|10,0:1|0:1|0:1,0:0:0:0:
224,188,68747,2,0,L|44:188,1,133.333333333333,10|8,0:1|0:0,0:0:0:0:
24,188,69216,1,10,0:1:0:0:
92,188,69372,1,8,0:0:0:0:
333,299,69685,5,12,0:1:0:0:
124,344,70153,1,10,0:0:0:0:
273,350,70466,2,0,L|376:352,1,66.6666666666667,2|2,0:0|0:0,0:0:0:0:
204,276,70935,2,0,L|348:276,1,133.333333333333,2|2,0:0|0:0,0:0:0:0:
88,276,71560,6,0,P|28:216|96:144,1,200,2|10,0:0|0:0,0:0:0:0:
160,144,72185,1,2,0:0:0:0:
320,292,72497,2,0,L|320:96,1,133.333333333333,2|2,0:0|0:0,0:0:0:0:
188,160,73122,1,2,0:0:0:0:
436,52,73435,6,0,L|204:52,1,200,2|8,0:0|0:0,0:0:0:0:
432,180,74372,2,0,L|280:180,2,133.333333333333,2|2|2,0:0|0:0|0:0,0:0:0:0:
188,348,75310,6,0,L|416:348,1,200,10|10,0:1|0:0,0:0:0:0:
184,348,76247,1,10,0:1:0:0:
116,348,76403,1,0,0:0:0:0:
48,348,76560,1,0,0:0:0:0:
40,280,76716,1,10,0:0:0:0:
368,300,77185,6,0,P|436:252|344:188,1,200,14|10,0:1|0:0,0:0:0:0:
308,180,77810,1,2,0:0:0:0:
164,180,78122,1,2,0:0:0:0:
296,180,78435,1,2,0:0:0:0:
428,180,78747,1,2,0:0:0:0:
172,200,79060,6,0,P|104:152|196:88,1,200,10|10,0:1|0:0,0:0:0:0:
232,80,79685,1,2,0:0:0:0:
376,80,79997,1,2,0:0:0:0:
244,80,80310,1,2,0:0:0:0:
112,80,80622,1,2,0:0:0:0:
368,332,80935,5,10,0:1:0:0:
160,336,81403,2,0,L|323:335,1,133.333333333333,10|2,0:0|0:0,0:0:0:0:
225,337,81872,1,2,0:0:0:0:
90,230,82185,1,2,0:0:0:0:
223,230,82497,1,2,0:0:0:0:
474,118,82810,6,0,L|330:118,2,133.333333333333,10|2|10,0:1|0:1|0:1,0:0:0:0:
218,314,83747,2,0,L|122:314,2,66.6666666666667,10|8|8,0:1|0:0|0:0,0:0:0:0:
384,268,84216,2,0,L|484:268,2,66.6666666666667,10|8|8,0:1|0:0|0:0,0:0:0:0:
196,268,84685,5,6,0:1:0:0:
256,192,85153,12,0,88317,0:0:0:0:
