osu file format v14

[General]
AudioFilename: audio.mp3
AudioLeadIn: 0
PreviewTime: 54939
Countdown: 0
SampleSet: Soft
StackLeniency: 0.2
Mode: 0
LetterboxInBreaks: 0
WidescreenStoryboard: 0

[Editor]
DistanceSpacing: 0.1
BeatDivisor: 4
GridSize: 4
TimelineZoom: 1.5

[Metadata]
Title:Suki no Skill
TitleUnicode:スキノスキル
Artist:Wake Up, Girls!
ArtistUnicode:Wake Up, Girls!
Creator:Nozaki
Version:Rhapsody
Source:デスマーチからはじまる異世界狂想曲
Tags:death march kara hajimaru isekai kyousoukyoku to the parallel world rhapsody DeathMa tv size missa1912
BeatmapID:1549306
BeatmapSetID:734262

[Difficulty]
HPDrainRate:6
CircleSize:3.8
OverallDifficulty:8.6
ApproachRate:9.3
SliderMultiplier:1.4
SliderTickRate:1

[Events]
//Background and Video events
0,0,"Death March kara Hajimaru Isekai Kyousoukyoku.png",0,0
//Break Periods
//Storyboard Layer 0 (Background)
//Storyboard Layer 1 (Fail)
//Storyboard Layer 2 (Pass)
//Storyboard Layer 3 (Foreground)
//Storyboard Sound Samples

[TimingPoints]
252,312.5,6,2,1,45,1,0
252,-133.333333333333,6,2,2,45,0,0
3689,-200,6,2,2,45,0,0
3923,-200,6,2,2,5,0,0
4002,-133.333333333333,6,2,2,45,0,0
7439,-200,6,2,2,45,0,0
7673,-200,6,2,2,5,0,0
7752,-117.647058823529,6,2,2,45,0,0
9548,-117.647058823529,6,2,2,5,0,0
9627,-117.647058823529,6,2,2,45,0,0
15095,-66.6666666666667,6,2,2,45,0,0
15252,-100,6,2,1,45,0,0
30252,312.5,3,2,1,60,1,0
30252,-117.647058823529,4,2,1,60,0,0
43377,312.5,6,2,1,60,1,0
43377,-86.9565217391304,6,2,1,60,0,0
44314,-117.647058823529,6,2,1,60,0,0
45252,-86.9565217391304,6,2,1,60,0,0
48064,-117.647058823529,6,2,1,60,0,0
49002,-86.9565217391304,6,2,1,60,0,0
52283,-111.111111111111,6,2,1,60,0,0
54627,-100,6,2,1,60,0,1
60720,-111.111111111111,6,2,1,60,0,1
61189,-125,6,2,1,60,0,1
61658,-142.857142857143,6,2,1,60,0,1
62127,-100,6,2,1,60,0,1
69548,-100,6,2,1,60,0,0
69627,-100,6,2,1,60,0,1
75720,-111.111111111111,6,2,1,60,0,1
76189,-125,6,2,1,60,0,1
76658,-142.857142857143,6,2,1,60,0,1
77127,-100,6,2,1,60,0,1
84627,-100,6,2,1,60,0,0
86502,-100,6,2,1,30,0,0

[HitObjects]
132,88,252,6,0,P|188:100|226:138,1,105.000004005432,2|0,0:0|0:0,0:0:0:0:
138,194,720,2,0,P|153:242|140:299,1,105.000004005432,2|0,0:0|0:0,0:0:0:0:
53,210,1189,2,0,P|52:184|58:159,1,52.5000020027161,2|0,0:0|0:0,0:0:0:0:
222,131,1502,2,0,B|282:152|281:112|344:136,1,105.000004005432,2|0,0:0|0:0,0:0:0:0:
419,365,2127,5,0,0:0:0:0:
419,365,2283,2,0,P|420:317|399:252,2,105.000004005432,2|2|2,0:0|0:0|0:0,0:0:0:0:
366,194,3064,2,0,P|417:185|470:218,1,105.000004005432,2|0,0:0|0:0,0:0:0:0:
256,384,3689,1,0,0:0:0:0:
92,184,3923,5,0,0:0:0:0:
103,176,4002,2,0,B|133:171|154:183|154:183|183:195|216:186,1,105.000004005432,2|0,0:0|0:0,0:0:0:0:
361,158,4470,1,2,0:0:0:0:
361,158,4627,2,0,P|365:123|361:89,1,52.5000020027161,2|0,0:0|0:0,0:0:0:0:
250,79,4939,2,0,P|234:46|208:19,1,52.5000020027161,2|0,0:0|0:0,0:0:0:0:
122,253,5252,1,0,0:0:0:0:
277,156,5408,1,2,0:0:0:0:
69,62,5564,2,0,P|70:93|55:131,1,52.5000020027161,2|0,0:0|0:0,0:0:0:0:
122,253,5798,5,0,0:0:0:0:
131,261,5877,2,0,P|188:250|251:273,1,105.000004005432,2|0,0:0|0:0,0:0:0:0:
317,384,6345,2,0,P|322:321|353:284,1,105.000004005432,2|0,0:0|0:0,0:0:0:0:
199,384,6814,5,2,0:0:0:0:
64,113,7127,5,2,0:0:0:0:
368,119,7439,5,2,0:0:0:0:
141,255,7673,5,0,0:0:0:0:
131,261,7752,2,0,P|93:257|64:240,1,59.5000011348725,6|0,0:0|0:0,0:0:0:0:
152,68,8064,2,0,B|154:121|154:121|147:153|111:185,1,119.000002269745,2|0,0:0|0:0,0:0:0:0:
38,175,8533,1,0,0:0:0:0:
212,211,8689,2,0,P|247:203|281:181,1,59.5000011348725
205,124,9002,1,0,0:0:0:0:
131,261,9158,1,0,0:0:0:0:
341,264,9314,2,0,P|367:217|367:161,1,89.2500017023087,2|0,0:0|0:0,0:0:0:0:
346,110,9627,6,0,P|340:80|342:43,1,59.5000011348725,6|0,0:0|0:0,0:0:0:0:
477,201,9939,2,0,B|446:173|446:173|406:167|365:184,1,119.000002269745,2|0,0:0|0:0,0:0:0:0:
341,264,10408,1,0,0:0:0:0:
346,110,10564,2,0,P|347:73|336:43,1,59.5000011348725
263,92,10877,5,0,0:0:0:0:
440,97,11033,1,0,0:0:0:0:
287,173,11189,1,0,0:0:0:0:
370,181,11345,1,0,0:0:0:0:
237,262,11502,6,0,P|193:268|153:258,1,59.5000011348725,6|0,0:0|0:0,0:0:0:0:
261,59,11814,2,0,B|264:94|264:94|291:126|287:173,1,119.000002269745,2|0,0:0|0:0,0:0:0:0:
202,178,12283,1,0,0:0:0:0:
370,181,12439,2,0,P|383:169|391:156,2,29.7500005674362
237,262,12752,1,0,0:0:0:0:
287,173,12908,1,0,0:0:0:0:
134,250,13064,2,0,P|90:228|42:231,1,89.2500017023087,2|0,0:0|0:0,0:0:0:0:
41,235,13377,5,2,0:0:0:0:
41,235,13845,5,0,0:0:0:0:
171,344,14002,1,0,0:0:0:0:
147,101,14158,1,0,0:0:0:0:
28,245,14314,5,0,0:0:0:0:
181,357,14471,1,0,0:0:0:0:
154,87,14627,1,0,0:0:0:0:
190,370,14783,5,2,0:0:0:0:
253,276,15095,6,2,B|251:260|251:260|252:229,2,26.2500010013581
312,334,15252,6,0,P|359:328|396:300,1,70,8|0,0:0|0:0,0:0:0:0:
251,249,15564,1,0,0:0:0:0:
399,331,15720,2,0,B|419:299|409:268|409:268|444:237|444:185,1,140,8|0,0:0|0:0,0:0:0:0:
437,79,16189,1,8,0:0:0:0:
360,194,16345,1,0,0:0:0:0:
417,91,16502,5,2,0:0:0:0:
277,100,16658,1,8,0:0:0:0:
373,213,16814,1,2,0:0:0:0:
437,79,16970,1,2,0:0:0:0:
261,89,17127,6,0,P|199:114|123:84,1,140,8|0,0:0|0:0,0:0:0:0:
55,280,17595,2,0,P|93:234|194:219,1,140,8|0,0:0|0:0,0:0:0:0:
157,332,18064,1,10,0:0:0:0:
261,293,18220,1,0,0:0:0:0:
168,213,18377,1,2,0:0:0:0:
334,260,18533,1,8,0:0:0:0:
156,197,18689,1,0,0:0:0:0:
230,384,18845,1,0,0:0:0:0:
351,248,19002,6,0,P|384:228|422:222,1,70,8|0,0:0|0:0,0:0:0:0:
329,341,19314,1,0,0:0:0:0:
290,175,19470,2,0,B|298:124|271:73|271:73|289:92|313:97,1,140,8|0,0:0|0:0,0:0:0:0:
223,253,19939,2,0,B|193:210|195:152|195:152|187:177|168:192,1,140,8|0,0:0|0:0,0:0:0:0:
298,92,20408,2,0,P|354:86|386:67,2,70,8|0|0,0:0|0:0|0:0,0:0:0:0:
168,76,20877,5,8,0:0:0:0:
196,154,21033,1,0,0:0:0:0:
84,62,21189,1,2,0:0:0:0:
223,7,21345,1,10,0:0:0:0:
186,172,21502,1,0,0:0:0:0:
84,62,21658,1,2,0:0:0:0:
58,260,21814,6,0,P|80:291|119:311,1,70,10|0,0:0|0:0,0:0:0:0:
338,345,22127,2,0,P|353:310|352:265,1,70,2|8,0:0|0:0,0:0:0:0:
272,59,22439,2,0,P|234:62|196:86,1,70,2|0,0:0|0:0,0:0:0:0:
384,193,22752,5,10,0:0:0:0:
186,172,22908,1,2,0:0:0:0:
402,207,23064,2,0,P|416:148|411:119,1,70,2|8,0:0|0:0,0:0:0:0:
292,192,23377,1,0,0:0:0:0:
272,59,23533,1,0,0:0:0:0:
295,215,23689,2,0,P|280:245|273:290,1,70,8|0,0:0|0:0,0:0:0:0:
292,373,24002,1,0,0:0:0:0:
186,172,24158,2,0,P|181:138|163:100,1,70,8|0,0:0|0:0,0:0:0:0:
118,305,24470,1,2,0:0:0:0:
47,117,24627,5,10,0:0:0:0:
133,317,24783,1,2,0:0:0:0:
55,97,24939,2,0,P|69:54|87:29,1,70,2|8,0:0|0:0,0:0:0:0:
192,0,25252,1,0,0:0:0:0:
166,105,25408,1,0,0:0:0:0:
302,40,25564,2,0,P|343:43|377:60,2,70,8|0|0,0:0|0:0|0:0,0:0:0:0:
291,236,26033,2,0,P|288:182|269:139,2,70,8|0|0,0:0|0:0|0:0,0:0:0:0:
245,323,26502,5,10,0:0:0:0:
166,105,26658,1,2,0:0:0:0:
260,340,26814,2,0,P|291:355|326:360,1,70,2|8,0:0|0:0,0:0:0:0:
427,320,27127,1,0,0:0:0:0:
291,236,27283,1,0,0:0:0:0:
393,177,27439,2,0,P|402:139|430:103,2,70,8|0|0,0:0|0:0|0:0,0:0:0:0:
466,234,27908,1,8,0:0:0:0:
501,78,28064,2,0,P|471:43|429:21,1,70,2|0,0:0|0:0,0:0:0:0:
307,210,28377,6,0,P|302:179|322:123,1,70,10|0,0:0|0:0,0:0:0:0:
393,177,28689,1,0,0:0:0:0:
336,312,28845,2,0,P|345:343|344:383,2,70,8|0|0,0:0|0:0|0:0,0:0:0:0:
236,285,29314,1,8,0:0:0:0:
307,210,29470,1,0,0:0:0:0:
155,242,29627,5,8,0:0:0:0:
327,220,29783,1,8,0:0:0:0:
77,195,29939,5,8,0:0:0:0:
256,0,30095,1,8,0:0:0:0:
345,228,30252,6,0,B|403:220|403:220|458:237,1,89.2500017023087,12|0,0:0|0:0,0:0:0:0:
505,250,30564,2,0,L|506:187,1,59.5000011348725,4|0,0:0|0:0,0:0:0:0:
503,332,30877,1,8,0:0:0:0:
512,110,31033,1,0,0:0:0:0:
258,216,31189,6,0,B|211:213|211:213|148:190,1,89.2500017023087,12|0,0:0|0:0,0:0:0:0:
96,172,31502,2,0,L|104:250,1,59.5000011348725,4|0,0:0|0:0,0:0:0:0:
82,91,31814,1,8,0:0:0:0:
111,312,31970,1,4,0:0:0:0:
309,144,32127,6,0,B|341:145|341:145|369:134|369:134|419:132,1,89.2500017023087,12|0,0:0|0:0,0:0:0:0:
472,134,32439,2,0,L|446:217,1,59.5000011348725,4|0,0:0|0:0,0:0:0:0:
507,59,32752,1,8,0:0:0:0:
420,264,32908,1,0,0:0:0:0:
295,64,33064,6,0,P|254:54|210:54,1,59.5000011348725,12|0,0:0|0:0,0:0:0:0:
106,232,33377,1,0,0:0:0:0:
257,248,33533,1,10,0:0:0:0:
80,142,33689,1,0,0:0:0:0:
207,376,33845,1,0,0:0:0:0:
347,148,34002,6,0,B|363:114|363:114|373:52,1,89.2500017023087,12|0,0:0|0:0,0:0:0:0:
295,64,34314,2,0,L|228:52,1,59.5000011348725,4|0,0:0|0:0,0:0:0:0:
446,83,34627,1,8,0:0:0:0:
223,35,34783,1,0,0:0:0:0:
348,230,34939,6,0,P|353:273|344:314,1,59.5000011348725,12|0,0:0|0:0,0:0:0:0:
160,384,35252,2,0,P|155:352|159:313,1,59.5000011348725,4|0,0:0|0:0,0:0:0:0:
247,134,35564,2,0,P|252:177|243:218,1,59.5000011348725,0|8,0:0|0:0,0:0:0:0:
51,158,35877,6,0,P|78:149|133:159,1,59.5000011348725,12|0,0:0|0:0,0:0:0:0:
212,308,36189,2,0,P|186:322|157:325,1,59.5000011348725,4|0,0:0|0:0,0:0:0:0:
229,48,36502,2,0,P|254:32|283:27,1,59.5000011348725
404,187,36814,5,12,0:0:0:0:
213,231,36970,2,2,P|208:245|202:258,2,29.7500005674362,2|2|6,0:0|0:0|0:0,0:0:0:0:
371,62,37283,1,2,0:0:0:0:
144,93,37439,1,8,0:0:0:0:
301,321,37595,1,8,0:0:0:0:
509,140,37752,6,0,B|516:98|516:98|504:46,1,89.2500017023087,12|0,0:0|0:0,0:0:0:0:
430,56,38064,2,0,L|350:63,1,59.5000011348725,4|0,0:0|0:0,0:0:0:0:
314,307,38377,1,8,0:0:0:0:
354,75,38533,1,0,0:0:0:0:
163,201,38689,6,0,B|131:201|131:201|61:173,1,89.2500017023087,12|0,0:0|0:0,0:0:0:0:
0,156,39002,2,0,L|10:219,1,59.5000011348725,4|0,0:0|0:0,0:0:0:0:
150,102,39314,1,8,0:0:0:0:
36,313,39470,1,8,0:0:0:0:
235,252,39627,6,0,B|272:238|272:238|347:228,1,89.2500017023087,12|0,0:0|0:0,0:0:0:0:
401,223,39939,2,0,L|384:299,1,59.5000011348725,4|0,0:0|0:0,0:0:0:0:
426,140,40252,1,8,0:0:0:0:
364,365,40408,1,0,0:0:0:0:
257,141,40564,6,0,P|261:92|274:64,2,59.5000011348725,8|0|0,0:0|0:0|0:0,0:0:0:0:
401,223,41033,1,10,0:0:0:0:
171,214,41189,1,2,0:0:0:0:
328,180,41345,1,2,0:0:0:0:
104,159,41502,6,0,B|62:150|62:150|20:128,1,89.2500017023087,12|0,0:0|0:0,0:0:0:0:
29,45,41814,2,0,L|96:79,1,59.5000011348725,4|0,0:0|0:0,0:0:0:0:
236,271,42127,1,8,0:0:0:0:
198,37,42283,1,0,0:0:0:0:
328,180,42439,6,0,P|358:187|387:185,1,59.5000011348725,12|0,0:0|0:0,0:0:0:0:
303,9,42752,1,0,0:0:0:0:
82,71,42908,1,8,0:0:0:0:
266,111,43064,1,8,0:0:0:0:
160,159,43220,1,8,0:0:0:0:
386,185,43377,6,0,B|438:217|489:199|489:199|465:221|477:281,1,161.000003070831,8|0,0:0|0:0,0:0:0:0:
296,384,43845,2,0,B|312:340|288:304|288:304|312:272|302:219,1,161.000003070831,8|0,0:0|0:0,0:0:0:0:
188,22,44314,2,0,P|186:52|193:84,1,59.5000011348725,8|0,0:0|0:0,0:0:0:0:
386,185,44627,1,0,0:0:0:0:
160,159,44783,1,8,0:0:0:0:
267,114,44939,1,0,0:0:0:0:
112,91,45095,1,0,0:0:0:0:
303,38,45252,6,0,B|345:59|352:104|352:104|393:88|440:116,1,161.000003070831,8|0,0:0|0:0,0:0:0:0:
468,331,45720,2,0,B|426:310|419:265|419:265|378:281|345:260,1,161.000003070831,8|0,0:0|0:0,0:0:0:0:
267,114,46189,1,10,0:0:0:0:
386,185,46345,1,0,0:0:0:0:
242,266,46502,1,2,0:0:0:0:
278,95,46658,1,8,0:0:0:0:
252,250,46814,1,2,0:0:0:0:
400,168,46970,1,0,0:0:0:0:
197,78,47127,6,0,B|162:90|123:67|123:67|81:36|13:57,1,161.000003070831,8|0,0:0|0:0,0:0:0:0:
127,281,47595,2,0,P|150:229|89:153,1,161.000003070831,8|0,0:0|0:0,0:0:0:0:
297,52,48064,2,0,P|294:88|303:125,1,59.5000011348725,8|0,0:0|0:0,0:0:0:0:
390,189,48377,1,0,0:0:0:0:
419,95,48533,1,8,0:0:0:0:
281,129,48689,1,2,0:0:0:0:
466,254,48845,1,2,0:0:0:0:
286,290,49002,6,0,P|231:246|138:256,1,161.000003070831,8|0,0:0|0:0,0:0:0:0:
58,120,49470,2,0,P|121:166|199:157,1,161.000003070831,8|0,0:0|0:0,0:0:0:0:
349,39,49939,1,8,0:0:0:0:
303,162,50095,1,2,0:0:0:0:
184,79,50252,1,0,0:0:0:0:
313,248,50408,1,10,0:0:0:0:
386,120,50564,1,0,0:0:0:0:
289,331,50720,1,2,0:0:0:0:
86,213,50877,6,0,B|129:190|129:190|180:180|236:211,1,161.000003070831,12|0,0:0|0:0,0:0:0:0:
22,352,51345,2,0,B|26:308|42:281|42:281|-1:249|9:194,1,161.000003070831,10|0,0:0|0:0,0:0:0:0:
222,65,51814,2,0,B|218:109|202:136|202:136|245:168|235:223,1,161.000003070831,10|0,0:0|0:0,0:0:0:0:
51,138,52283,2,0,P|49:96|56:70,1,62.9999980773926,10|0,0:0|0:0,0:0:0:0:
104,6,52595,1,8,0:0:0:0:
161,209,52752,6,0,P|156:254|144:274,1,62.9999980773926,14|0,0:0|0:0,0:0:0:0:
83,223,53064,1,8,0:0:0:0:
246,180,53220,1,2,0:0:0:0:
155,110,53377,5,8,0:0:0:0:
326,217,53533,1,0,0:0:0:0:
239,7,53689,5,10,0:0:0:0:
253,276,53845,1,8,0:0:0:0:
345,93,54002,5,8,0:0:0:0:
260,372,54158,1,10,0:0:0:0:
446,185,54314,5,8,0:0:0:0:
83,223,54470,1,8,0:0:0:0:
352,285,54627,6,0,B|380:319|428:324|428:324|413:356|422:381,1,140,12|0,0:0|0:0,0:0:0:0:
253,269,55095,2,0,P|268:227|293:205,1,70,8|0,0:0|0:0,0:0:0:0:
380,164,55408,1,2,0:0:0:0:
201,171,55564,2,8,P|146:166|120:153,1,70,8|0,0:0|0:0,0:0:0:0:
280,123,55877,1,2,0:0:0:0:
380,164,56033,1,8,0:0:0:0:
201,171,56189,1,2,0:0:0:0:
365,54,56345,1,0,0:0:0:0:
153,59,56502,6,0,B|104:52|72:78|72:78|51:57|5:44,1,140,14|0,0:0|0:0,0:0:0:0:
188,188,56970,1,8,0:0:0:0:
172,43,57127,1,2,0:0:0:0:
335,134,57283,1,0,0:0:0:0:
211,269,57439,2,0,P|188:233|183:188,1,70,10|0,0:0|0:0,0:0:0:0:
413,218,57752,1,2,0:0:0:0:
330,306,57908,1,8,0:0:0:0:
351,121,58064,1,2,0:0:0:0:
205,288,58220,1,0,0:0:0:0:
167,106,58377,6,0,B|162:69|133:19|133:19|169:38|204:38,1,140,14|0,0:0|0:0,0:0:0:0:
127,225,58845,2,0,P|180:190|266:212,1,140,8|0,0:0|0:0,0:0:0:0:
205,288,59314,1,10,0:0:0:0:
109,238,59470,1,0,0:0:0:0:
156,365,59627,1,2,0:0:0:0:
111,144,59783,1,8,0:0:0:0:
63,384,59939,1,2,0:0:0:0:
201,190,60095,1,0,0:0:0:0:
18,184,60252,6,0,P|10:120|75:50,1,140,10|0,0:0|0:0,0:0:0:0:
292,163,60720,6,0,P|258:112|199:93,1,125.999996154785,10|0,0:0|0:0,0:0:0:0:
101,222,61189,6,0,P|145:189|201:190,1,112,10|0,0:0|0:0,0:0:0:0:
360,309,61657,6,0,P|327:265|273:256,1,112,10|0,3:0|0:0,0:0:0:0:
391,384,62127,6,0,B|438:367|442:309|442:309|464:320|491:316,1,140,14|0,0:0|0:0,0:0:0:0:
476,231,62595,1,8,0:0:0:0:
378,367,62752,1,2,0:0:0:0:
366,206,62908,1,0,0:0:0:0:
237,298,63064,6,0,P|198:281|167:239,1,70,10|0,0:0|0:0,0:0:0:0:
261,99,63377,2,0,P|218:104|179:132,1,70,2|8,0:0|0:0,0:0:0:0:
416,162,63689,2,0,P|370:204|346:207,1,70,2|0,0:0|0:0,0:0:0:0:
121,156,64002,6,0,B|102:109|127:68|127:68|103:73|78:68,1,140,12|0,0:0|0:0,0:0:0:0:
195,116,64470,1,8,0:0:0:0:
117,261,64627,1,2,0:0:0:0:
78,68,64783,1,0,0:0:0:0:
216,128,64939,6,0,P|265:136|287:129,1,70,10|0,0:0|0:0,0:0:0:0:
107,279,65252,2,0,P|137:261|180:261,1,70,2|8,0:0|0:0,0:0:0:0:
78,68,65564,2,0,P|115:100|138:105,1,70,2|0,0:0|0:0,0:0:0:0:
368,168,65877,6,0,B|392:116|365:61|365:61|361:92|355:111,1,140,12|0,0:0|0:0,0:0:0:0:
328,246,66345,1,8,0:0:0:0:
462,174,66502,1,2,0:0:0:0:
283,130,66658,1,8,0:0:0:0:
342,261,66814,2,0,P|346:306|334:350,1,70,10|0,0:0|0:0,0:0:0:0:
191,149,67127,2,0,P|190:114|204:74,1,70,2|8,0:0|0:0,0:0:0:0:
398,69,67439,2,0,P|402:108|392:143,1,70,2|0,0:0|0:0,0:0:0:0:
328,278,67752,5,8,0:0:0:0:
285,130,67908,1,0,0:0:0:0:
257,334,68064,1,8,0:0:0:0:
379,153,68220,1,8,0:0:0:0:
178,293,68377,1,8,0:0:0:0:
429,242,68533,1,0,0:0:0:0:
169,207,68689,5,8,0:0:0:0:
410,337,68845,1,8,0:0:0:0:
112,353,69002,5,8,0:0:0:0:
395,138,69158,1,8,0:0:0:0:
87,176,69314,5,8,0:0:0:0:
505,309,69470,1,8,0:0:0:0:
250,256,69627,6,0,B|252:211|223:183|223:183|253:144|238:104,1,140,12|0,0:0|0:0,0:0:0:0:
170,244,70095,2,0,P|173:285|204:327,1,70,8|0,0:0|0:0,0:0:0:0:
256,384,70408,1,2,0:0:0:0:
315,163,70564,2,0,P|323:122|309:85,1,70,10|0,0:0|0:0,0:0:0:0:
202,13,70877,1,2,0:0:0:0:
242,128,71033,1,8,0:0:0:0:
381,0,71189,1,2,0:0:0:0:
227,145,71345,1,0,0:0:0:0:
438,207,71502,6,0,B|450:138|424:95|424:95|418:141,1,140,14|0,0:0|0:0,0:0:0:0:
403,292,71970,1,8,0:0:0:0:
324,132,72127,1,2,0:0:0:0:
300,346,72283,1,0,0:0:0:0:
233,212,72439,2,0,P|237:181|213:127,1,70,10|0,0:0|0:0,0:0:0:0:
119,249,72752,2,0,P|115:283|125:317,1,70,2|8,0:0|0:0,0:0:0:0:
291,362,73064,1,2,0:0:0:0:
125,317,73220,1,0,0:0:0:0:
324,132,73377,6,0,B|315:79|279:63|279:63|242:69|207:52,1,140,14|0,0:0|0:0,0:0:0:0:
369,229,73845,2,0,B|378:176|414:160|414:160|451:166|486:149,1,140,8|0,0:0|0:0,0:0:0:0:
358,323,74314,1,10,0:0:0:0:
271,227,74470,1,0,0:0:0:0:
445,289,74627,1,2,0:0:0:0:
203,296,74783,1,8,0:0:0:0:
433,381,74939,1,2,0:0:0:0:
179,201,75095,1,0,0:0:0:0:
454,191,75252,6,0,P|389:204|348:268,1,140,10|0,0:0|0:0,0:0:0:0:
147,109,75720,6,0,P|208:106|265:154,1,125.999996154785,10|0,0:0|0:0,0:0:0:0:
440,213,76189,6,0,P|380:224|343:282,1,112,10|0,0:0|0:0,0:0:0:0:
169,122,76658,6,0,P|221:119|270:160,1,97.9999970092774,10|0,0:0|0:0,0:0:0:0:
102,169,77127,6,0,B|76:130|98:79|98:79|69:79|50:68,1,140,14|0,0:0|0:0,0:0:0:0:
169,122,77595,1,8,0:0:0:0:
72,248,77752,1,2,0:0:0:0:
37,55,77908,1,0,0:0:0:0:
176,200,78064,6,0,P|211:190|244:152,1,70,10|0,0:0|0:0,0:0:0:0:
352,288,78377,2,0,P|344:254|354:210,1,70,2|8,0:0|0:0,0:0:0:0:
145,373,78689,2,0,P|161:341|162:288,1,70,2|0,0:0|0:0,0:0:0:0:
169,121,79002,6,0,B|198:85|242:87|242:87|237:52|256:27,1,140,12|0,0:0|0:0,0:0:0:0:
235,167,79470,1,8,0:0:0:0:
326,70,79627,1,2,0:0:0:0:
142,28,79783,1,0,0:0:0:0:
249,185,79939,6,0,P|256:222|247:261,1,70,10|0,0:0|0:0,0:0:0:0:
404,68,80252,2,0,P|396:102|406:146,1,70,2|8,0:0|0:0,0:0:0:0:
164,42,80564,2,0,P|180:74|181:127,1,70,2|0,0:0|0:0,0:0:0:0:
65,298,80877,6,0,P|113:272|197:306,1,140,12|0,0:0|0:0,0:0:0:0:
201,174,81345,2,0,P|186:137|186:90,1,70,10|0,0:0|0:0,0:0:0:0:
227,1,81658,1,10,0:0:0:0:
292,190,81814,2,0,P|279:230|254:252,1,70,10|0,0:0|0:0,0:0:0:0:
96,126,82127,2,0,P|101:80|114:55,1,70,2|8,0:0|0:0,0:0:0:0:
342,41,82439,2,0,P|320:75|275:90,1,70,2|0,0:0|0:0,0:0:0:0:
111,59,82752,5,10,0:0:0:0:
201,174,82908,1,0,0:0:0:0:
9,140,83064,1,2,0:0:0:0:
224,163,83220,1,8,0:0:0:0:
0,120,83377,1,2,0:0:0:0:
153,327,83533,1,0,0:0:0:0:
214,59,83689,5,10,0:0:0:0:
151,349,83845,1,0,0:0:0:0:
229,41,84002,5,8,0:0:0:0:
22,264,84158,1,10,0:0:0:0:
341,277,84314,5,0,0:0:0:0:
10,280,84470,1,0,0:0:0:0:
242,23,84627,5,14,0:0:0:0:
256,192,84705,12,2,88298,0:0:0:0:
