osu file format v14

[General]
AudioFilename: audio.mp3
AudioLeadIn: 0
PreviewTime: 61548
Countdown: 0
SampleSet: Soft
StackLeniency: 0.9
Mode: 0
LetterboxInBreaks: 0
WidescreenStoryboard: 1

[Editor]
DistanceSpacing: 1
BeatDivisor: 4
GridSize: 32
TimelineZoom: 1

[Metadata]
Title:Koi? de Ai? de Boukun desu!
TitleUnicode:恋?で愛?で暴君です!
Artist:Wake Up, Girls!
ArtistUnicode:Wake Up, Girls!
Creator:jack1817
Version:Insane
Source:Renai Boukun 恋愛暴君
Tags:renai boukun koi? de ai? de boukun desu! koi de ai de boukun desu wake up girls! wake up girls xfraczynho
BeatmapID:1299689
BeatmapSetID:616242

[Difficulty]
HPDrainRate:5
CircleSize:4
OverallDifficulty:7
ApproachRate:9
SliderMultiplier:1.6
SliderTickRate:2

[Events]
//Background and Video events
Video,207,"Koi de Ai de Boukun desu.avi"
0,0,"background.jpg",0,0
//Break Periods
//Storyboard Layer 0 (Background)
//Storyboard Layer 1 (Fail)
//Storyboard Layer 2 (Pass)
//Storyboard Layer 3 (Foreground)
//Storyboard Sound Samples

[TimingPoints]
630,306.122448979592,4,2,0,80,1,0
2466,-133.333333333333,4,2,0,80,0,0
3078,-100,4,2,0,80,0,0
4915,-80,4,2,0,80,0,0
5527,-100,4,2,0,80,0,0
10425,-100,4,2,0,60,0,0
20221,-80,4,2,0,70,0,0
30017,-100,4,2,0,70,0,0
39813,-80,4,2,0,75,0,0
49609,-100,4,2,0,70,0,0
51446,-133.333333333333,4,2,0,70,0,0
52058,-100,4,2,0,70,0,0
53895,-66.6666666666667,4,2,0,70,0,0
54507,-100,4,2,0,80,0,0
56956,-200,4,2,0,50,0,0
59405,-142.857142857143,4,2,0,90,0,0
60323,-111.111111111111,4,2,0,90,0,0
61242,-83.3333333333333,4,2,0,90,0,0
61854,-66.6666666666667,4,2,0,100,0,1
66768,-80,4,2,0,100,0,1
71650,-66.6666666666667,4,2,0,100,0,1
78997,-80,4,2,0,100,0,0
81446,-100,4,2,0,80,0,0
83877,359.281437125748,4,2,0,50,1,0
83877,-133.333333333333,4,2,0,50,0,0

[Colours]
Combo1 : 255,255,113
Combo2 : 222,92,219
Combo3 : 255,151,230
Combo4 : 237,114,117

[HitObjects]
256,64,630,6,0,L|352:128,1,80
386,156,936,1,8,0:0:0:0:
386,156,1089,1,0,0:0:0:0:
208,112,1395,1,8,0:0:0:0:
191,274,1701,1,0,0:0:0:0:
328,216,2007,1,8,0:0:0:0:
208,112,2313,1,0,0:0:0:0:
64,352,2618,5,2,0:0:0:0:
118,308,2772,1,2,0:0:0:0:
185,301,2925,1,0,0:0:0:0:
254,302,3078,6,0,P|286:238|318:238,1,80
360,206,3385,1,8,0:0:0:0:
360,206,3538,1,0,0:0:0:0:
424,376,3844,1,8,0:0:0:0:
288,296,4150,2,0,P|208:343|192:296,1,160,0|8,0:0|0:0,0:0:0:0:
147,157,4762,1,0,0:0:0:0:
320,56,5068,6,0,L|203:127,1,100
77,50,5527,6,0,P|77:114|104:152,1,80,4|0,0:0|0:0,0:0:0:0:
128,192,5834,1,8,0:0:0:0:
128,192,5987,1,8,0:0:0:0:
259,133,6293,1,0,0:0:0:0:
309,284,6599,1,0,0:0:0:0:
259,133,6905,1,8,0:0:0:0:
129,226,7211,1,8,0:0:0:0:
258,132,7517,2,0,L|272:292,1,160
256,192,7976,12,0,8895,0:0:0:0:
416,256,9201,5,0,0:0:0:0:
392,216,9507,1,0,0:0:0:0:
288,96,9813,5,0,0:0:0:0:
224,128,9966,1,0,0:0:0:0:
128,264,10119,1,8,0:0:0:0:
128,264,10425,6,0,P|160:328|192:328,1,80
226,338,10732,1,2,0:0:0:0:
208,264,10885,1,0,0:0:0:0:
288,280,11038,2,0,P|329:216|343:201,1,80
376,144,11344,1,2,0:0:0:0:
456,136,11497,1,0,0:0:0:0:
424,208,11650,6,0,P|392:272|360:272,1,80
328,320,11956,1,2,0:0:0:0:
328,240,12109,1,0,0:0:0:0:
263,192,12262,2,0,P|181:251|208:309,1,160,0|2,0:0|0:0,0:0:0:0:
320,232,12874,6,0,B|224:328|224:328|192:296,1,160,0|2,0:0|0:0,0:0:0:0:
160,248,13334,1,0,0:0:0:0:
120,184,13487,2,0,B|88:152|88:152|-8:248,1,160,0|2,0:0|0:0,0:0:0:0:
0,312,13946,1,0,0:0:0:0:
72,280,14099,2,0,L|184:280,1,80
199,215,14405,2,0,L|102:215,1,80,2|0,0:0|0:0,0:0:0:0:
255,279,14711,2,0,L|351:279,1,80
379,212,15017,2,0,L|283:212,1,80,2|0,0:0|0:0,0:0:0:0:
253,146,15323,6,0,P|182:156|172:187,1,80
107,188,15630,1,2,0:0:0:0:
174,231,15783,1,0,0:0:0:0:
102,267,15936,2,0,P|112:338|143:348,1,80
189,359,16242,1,2,0:0:0:0:
186,279,16395,1,0,0:0:0:0:
253,322,16548,6,0,L|160:256,1,80
265,185,16854,2,0,L|352:256,1,80,2|0,0:0|0:0,0:0:0:0:
288,320,17160,1,0,0:0:0:0:
201,218,17313,1,0,0:0:0:0:
345,281,17466,1,2,0:0:0:0:
269,71,17772,6,0,P|333:39|397:103,1,160,0|2,0:0|0:0,0:0:0:0:
448,160,18232,1,0,0:0:0:0:
416,224,18385,2,0,P|312:248|296:216,1,160,0|2,0:0|0:0,0:0:0:0:
320,128,18844,1,0,0:0:0:0:
256,192,18997,1,0,0:0:0:0:
256,96,19150,1,0,0:0:0:0:
192,160,19303,1,2,0:0:0:0:
192,64,19456,1,0,0:0:0:0:
128,128,19609,1,2,0:0:0:0:
96,160,19686,1,0,0:0:0:0:
75,194,19762,1,0,0:0:0:0:
83,233,19839,1,0,0:0:0:0:
100,268,19915,1,2,0:0:0:0:
345,354,20221,6,0,B|415:348|415:348|398:285,1,100
328,257,20527,1,8,0:0:0:0:
345,354,20681,1,0,0:0:0:0:
328,257,20834,2,0,L|431:269,1,100
446,170,21140,1,8,0:0:0:0:
427,268,21293,1,0,0:0:0:0:
446,170,21446,6,0,L|312:141,1,100
248,159,21752,1,8,0:0:0:0:
185,237,21905,1,0,0:0:0:0:
238,321,22058,1,0,0:0:0:0:
333,291,22211,1,8,0:0:0:0:
341,191,22364,1,8,0:0:0:0:
248,159,22517,1,0,0:0:0:0:
128,288,22670,6,0,P|192:320|192:288,1,100
341,191,22976,2,0,P|288:142|269:184,1,100,8|0,0:0|0:0,0:0:0:0:
192,224,23283,1,0,0:0:0:0:
292,299,23436,1,0,0:0:0:0:
365,231,23589,2,0,L|284:148,1,100,8|0,0:0|0:0,0:0:0:0:
192,224,23895,5,0,0:0:0:0:
292,299,24048,1,0,0:0:0:0:
303,199,24201,2,0,L|338:244,4,50,2|0|0|0|0,0:0|0:0|0:0|0:0|0:0,0:0:0:0:
303,199,24660,1,0,0:0:0:0:
448,320,24813,1,0,0:0:0:0:
448,320,25119,6,0,P|416:256|384:288,1,100
311,257,25425,1,8,0:0:0:0:
262,350,25578,1,0,0:0:0:0:
160,312,25732,2,0,P|131:264|123:200,1,100
224,184,26038,1,8,0:0:0:0:
104,120,26191,1,0,0:0:0:0:
232,96,26344,6,0,P|288:120|317:159,1,100
348,239,26650,2,0,L|412:143,1,100,8|0,0:0|0:0,0:0:0:0:
438,62,26956,2,0,L|310:62,1,100,0|8,0:0|0:0,0:0:0:0:
234,75,27262,2,0,L|298:171,1,100,8|0,0:0|0:0,0:0:0:0:
348,239,27568,5,0,0:0:0:0:
403,155,27721,1,0,0:0:0:0:
303,153,27874,1,8,0:0:0:0:
348,239,28027,1,0,0:0:0:0:
421,307,28181,1,0,0:0:0:0:
326,338,28334,2,0,L|198:370,1,100,0|8,0:0|0:0,0:0:0:0:
130,381,28640,1,0,0:0:0:0:
116,260,28793,2,0,P|61:262|29:312,1,100,8|0,0:0|0:0,0:0:0:0:
192,256,29099,2,0,P|247:254|279:204,1,100,8|0,0:0|0:0,0:0:0:0:
116,260,29405,2,0,P|61:262|29:312,2,100,0|8|8,0:0|0:0|0:0,0:0:0:0:
182,163,30017,6,0,B|166:222|166:222|182:259,1,80
247,268,30323,1,2,0:0:0:0:
185,343,30476,1,0,0:0:0:0:
265,344,30630,2,0,B|304:284|304:284|291:242,1,80
239,201,30936,1,2,0:0:0:0:
167,236,31089,1,0,0:0:0:0:
191,159,31242,6,0,P|167:207|169:233,1,80,2|0,0:0|0:0,0:0:0:0:
239,201,31548,2,0,P|263:249|261:275,1,80,2|0,0:0|0:0,0:0:0:0:
167,236,31854,2,0,P|167:300|263:332,1,160,0|2,0:0|0:0,0:0:0:0:
330,202,32466,6,0,L|394:138,2,80,0|0|2,0:0|0:0|0:0,0:0:0:0:
313,121,32925,1,0,0:0:0:0:
259,167,33078,2,0,P|195:135|227:39,1,160,0|2,0:0|0:0,0:0:0:0:
269,11,33538,1,0,0:0:0:0:
366,44,33691,2,0,L|462:76,1,80
375,151,33997,2,0,L|471:183,1,80,2|0,0:0|0:0,0:0:0:0:
387,263,34303,2,0,L|483:295,2,80,0|0|2,0:0|0:0|0:0,0:0:0:0:
412,40,34915,5,0,0:0:0:0:
387,116,35068,1,0,0:0:0:0:
412,40,35221,2,0,L|311:72,1,80,2|0,0:0|0:0,0:0:0:0:
258,85,35527,1,0,0:0:0:0:
240,160,35681,1,0,0:0:0:0:
258,85,35834,2,0,L|162:122,1,80,2|0,0:0|0:0,0:0:0:0:
112,152,36140,2,0,L|112:56,1,80
192,64,36446,2,0,L|192:160,1,80,2|0,0:0|0:0,0:0:0:0:
160,216,36752,2,0,P|184:272|224:288,1,80
256,336,37058,1,2,0:0:0:0:
127,297,37364,6,0,B|223:361|223:361|255:329,2,160,0|2|0,0:0|0:0|0:0,0:0:0:0:
117,220,38130,1,0,0:0:0:0:
56,271,38283,1,2,0:0:0:0:
127,297,38436,1,0,0:0:0:0:
196,255,38589,2,0,L|302:275,1,80
354,308,38895,2,0,L|450:244,1,80,2|0,0:0|0:0,0:0:0:0:
468,199,39201,1,2,0:0:0:0:
409,144,39354,1,0,0:0:0:0:
371,217,39507,1,2,0:0:0:0:
199,130,39813,6,0,P|248:104|272:144,1,100
232,224,40119,1,8,0:0:0:0:
199,130,40272,1,0,0:0:0:0:
296,144,40425,2,0,L|232:232,1,100
264,320,40732,2,0,L|328:224,1,100,8|0,0:0|0:0,0:0:0:0:
352,144,41038,5,0,0:0:0:0:
256,104,41191,1,0,0:0:0:0:
176,160,41344,1,8,0:0:0:0:
176,256,41497,1,0,0:0:0:0:
264,312,41650,2,8,L|328:376,4,50,0|0|8|0|8,0:0|0:0|0:0|0:0|0:0,0:0:0:0:
176,256,42109,1,0,0:0:0:0:
160,160,42262,6,0,P|64:160|96:256,1,200,0|8,0:0|0:0,0:0:0:0:
168,256,42721,1,0,0:0:0:0:
263,281,42874,2,0,L|167:377,1,100
96,344,43181,2,0,L|32:256,1,100,8|0,0:0|0:0,0:0:0:0:
41,191,43487,5,0,0:0:0:0:
69,95,43640,1,0,0:0:0:0:
145,159,43793,1,8,0:0:0:0:
191,70,43946,1,0,0:0:0:0:
261,140,44099,1,0,0:0:0:0:
333,71,44252,1,8,0:0:0:0:
368,160,44405,1,8,0:0:0:0:
464,136,44558,1,0,0:0:0:0:
432,232,44711,6,0,L|328:262,2,100,0|0|8,0:0|0:0|0:0,0:0:0:0:
440,328,45170,1,0,0:0:0:0:
344,328,45323,2,0,L|224:368,2,100,0|0|8,0:0|0:0|0:0,0:0:0:0:
408,248,45783,1,0,0:0:0:0:
336,172,45936,1,0,0:0:0:0:
258,235,46089,1,0,0:0:0:0:
202,151,46242,1,8,0:0:0:0:
147,234,46395,1,0,0:0:0:0:
205,314,46548,2,0,L|301:250,1,100,0|8,0:0|0:0,0:0:0:0:
189,240,46854,2,0,L|93:304,1,100,8|0,0:0|0:0,0:0:0:0:
200,336,47160,6,0,P|296:368|392:336,1,200,0|8,0:0|0:0,0:0:0:0:
328,258,47619,1,0,0:0:0:0:
284,168,47772,2,0,P|380:136|476:168,1,200,0|8,0:0|0:0,0:0:0:0:
477,265,48232,1,0,0:0:0:0:
416,320,48385,2,0,L|343:364,2,50,2|0|0,0:0|0:0|0:0,0:0:0:0:
477,265,48691,1,0,0:0:0:0:
398,203,48844,2,0,L|398:267,2,50,2|2|0,0:0|0:0|0:0,0:0:0:0:
288,224,49150,1,0,0:0:0:0:
320,128,49303,1,0,0:0:0:0:
416,96,49456,1,0,0:0:0:0:
320,83,49609,6,0,L|224:51,1,80
164,58,49915,1,2,0:0:0:0:
160,137,50068,2,0,L|256:105,1,80
293,55,50374,2,0,L|389:87,1,80,2|0,0:0|0:0,0:0:0:0:
432,128,50681,2,0,L|336:160,1,80
288,192,50987,2,0,L|192:160,1,80,2|0,0:0|0:0,0:0:0:0:
169,95,51293,1,2,0:0:0:0:
112,200,51599,5,8,0:0:0:0:
135,255,51752,1,8,0:0:0:0:
188,282,51905,1,0,0:0:0:0:
254,280,52058,6,0,P|303:345|350:280,1,160
381,233,52517,1,2,0:0:0:0:
397,154,52670,2,0,L|355:73,1,80
286,52,52976,1,0,0:0:0:0:
208,56,53130,5,2,0:0:0:0:
185,214,53436,1,2,0:0:0:0:
88,88,53742,1,2,0:0:0:0:
298,202,54048,6,0,L|425:204,1,120.000004577637
258,203,54507,6,0,L|354:203,1,80
379,271,54813,2,8,L|283:271,1,80
443,203,55272,2,0,L|283:203,1,160
122,203,55885,2,8,L|314:203,1,160
448,192,56497,2,0,B|411:253|379:251|347:249|318:214|320:183,1,160
448,192,56956,5,0,0:0:0:0:
448,192,57262,2,0,L|400:186,1,40
350,193,57568,2,0,P|382:257|478:257,1,160
442,209,58334,1,0,0:0:0:0:
426,172,58487,1,0,0:0:0:0:
388,135,58640,2,0,L|371:117,2,20,0|0|6,0:0|0:0|0:0,0:0:0:0:
325,200,58946,5,0,0:0:0:0:
325,239,59099,1,0,0:0:0:0:
352,268,59252,1,0,0:0:0:0:
407,273,59405,6,0,L|375:337,1,55.9999982910157,4|0,0:0|0:0,0:0:0:0:
328,308,59711,1,0,0:0:0:0:
273,294,59864,6,0,L|207:261,1,55.9999982910157,4|0,0:0|0:0,0:0:0:0:
246,218,60170,1,0,0:0:0:0:
270,150,60323,6,0,L|206:118,1,71.9999978027344,4|0,0:0|0:0,0:0:0:0:
168,179,60630,1,0,0:0:0:0:
107,140,60783,6,0,L|52:192,1,71.9999978027344,4|0,0:0|0:0,0:0:0:0:
116,226,61089,1,0,0:0:0:0:
105,321,61242,5,4,0:0:0:0:
197,296,61395,1,0,0:0:0:0:
270,225,61548,2,0,L|206:225,1,47.9999985351563,4|0,0:0|0:0,0:0:0:0:
198,182,61701,2,0,L|134:183,1,47.9999985351563
94,157,61854,6,0,P|67:220|99:284,1,120.000004577637,4|0,0:0|0:0,0:0:0:0:
171,346,62160,1,2,0:0:0:0:
290,333,62313,1,0,0:0:0:0:
327,219,62466,1,2,0:0:0:0:
228,151,62619,1,0,0:0:0:0:
295,51,62772,2,0,P|391:83|391:115,1,120.000004577637,2|0,0:0|0:0,0:0:0:0:
376,202,63078,6,0,P|440:202|504:170,1,120.000004577637,2|0,0:0|0:0,0:0:0:0:
468,61,63385,2,0,P|422:20|364:22,1,120.000004577637,2|0,0:0|0:0,0:0:0:0:
258,73,63691,1,0,0:0:0:0:
227,189,63844,1,0,0:0:0:0:
143,102,63997,1,2,0:0:0:0:
109,217,64150,1,0,0:0:0:0:
19,297,64303,6,0,P|19:201|51:169,1,120.000004577637,4|0,0:0|0:0,0:0:0:0:
93,83,64609,1,2,0:0:0:0:
158,184,64762,1,0,0:0:0:0:
109,294,64915,2,0,P|132:233|166:173,1,120.000004577637
210,83,65221,1,2,0:0:0:0:
247,204,65374,1,0,0:0:0:0:
312,103,65527,6,0,L|440:135,1,120.000004577637
428,271,65834,1,8,0:0:0:0:
331,342,65987,2,0,P|308:252|166:201,2,240.000009155274
214,338,66752,5,2,0:0:0:0:
24,234,66905,1,0,0:0:0:0:
120,208,67058,2,0,L|120:336,1,100,2|0,0:0|0:0,0:0:0:0:
175,224,67364,2,0,L|111:320,1,100,2|0,0:0|0:0,0:0:0:0:
214,338,67670,2,0,L|118:306,1,100,2|0,0:0|0:0,0:0:0:0:
208,256,67976,6,0,L|144:160,1,100,2|0,0:0|0:0,0:0:0:0:
96,256,68283,2,0,L|160:160,1,100,2|0,0:0|0:0,0:0:0:0:
55,197,68589,2,0,L|183:165,1,100,2|0,0:0|0:0,0:0:0:0:
68,117,68895,2,0,L|164:181,1,100,2|0,0:0|0:0,0:0:0:0:
232,120,69201,6,0,P|296:88|328:120,1,100,4|0,0:0|0:0,0:0:0:0:
357,188,69507,2,0,P|421:220|453:188,1,100,2|0,0:0|0:0,0:0:0:0:
478,301,69813,2,0,P|422:322|382:301,1,100,2|0,0:0|0:0,0:0:0:0:
302,255,70119,2,0,P|238:287|270:319,1,100,2|0,0:0|0:0,0:0:0:0:
142,319,70425,5,10,0:0:0:0:
239,341,70578,1,0,0:0:0:0:
325,289,70732,1,10,0:0:0:0:
377,203,70885,1,0,0:0:0:0:
290,152,71038,1,2,0:0:0:0:
290,152,71114,1,0,0:0:0:0:
290,152,71191,1,0,0:0:0:0:
290,152,71267,1,0,0:0:0:0:
240,144,71344,1,2,0:0:0:0:
200,168,71420,1,0,0:0:0:0:
184,216,71497,1,0,0:0:0:0:
184,264,71573,1,0,0:0:0:0:
216,312,71650,6,0,P|299:315|312:288,1,120.000004577637,4|0,0:0|0:0,0:0:0:0:
352,184,71956,2,0,L|409:75,1,120.000004577637,2|0,0:0|0:0,0:0:0:0:
472,176,72262,1,0,0:0:0:0:
352,184,72415,1,0,0:0:0:0:
312,72,72568,2,0,L|184:72,1,120.000004577637,2|0,0:0|0:0,0:0:0:0:
64,66,72874,5,0,0:0:0:0:
0,150,73027,1,0,0:0:0:0:
62,253,73181,2,0,P|158:285|190:253,1,120.000004577637,2|0,0:0|0:0,0:0:0:0:
238,186,73487,2,0,P|302:154|366:186,1,120.000004577637
412,261,73793,2,0,P|459:290|523:226,1,120.000004577637,2|0,0:0|0:0,0:0:0:0:
458,39,74099,5,2,0:0:0:0:
488,176,74252,1,0,0:0:0:0:
344,192,74405,2,0,P|280:224|248:192,1,120.000004577637,2|0,0:0|0:0,0:0:0:0:
230,42,74711,1,0,0:0:0:0:
343,152,74864,1,0,0:0:0:0:
375,29,75017,2,0,P|436:81|438:120,1,120.000004577637,2|0,0:0|0:0,0:0:0:0:
409,252,75323,6,0,P|392:298|310:301,1,120.000004577637,2|0,0:0|0:0,0:0:0:0:
192,280,75630,1,8,0:0:0:0:
176,160,75783,2,0,P|176:120|16:200,1,360.000013732911,2|8,0:0|0:0,0:0:0:0:
64,296,76395,1,0,0:0:0:0:
216,296,76548,6,0,B|152:360|152:360|120:328,1,120.000004577637,4|0,0:0|0:0,0:0:0:0:
160,208,76854,2,0,B|96:272|96:272|64:240,1,120.000004577637,4|0,0:0|0:0,0:0:0:0:
104,120,77160,2,0,B|40:184|40:184|8:152,1,120.000004577637,4|0,0:0|0:0,0:0:0:0:
40,48,77466,1,2,0:0:0:0:
160,64,77619,1,0,0:0:0:0:
120,176,77772,6,0,B|184:240|184:240|216:208,1,120.000004577637,4|0,0:0|0:0,0:0:0:0:
208,104,78078,2,0,B|272:168|272:168|304:136,1,120.000004577637,4|0,0:0|0:0,0:0:0:0:
296,32,78385,2,0,B|360:96|360:96|392:64,1,120.000004577637,4|0,0:0|0:0,0:0:0:0:
512,175,78691,1,8,0:0:0:0:
426,259,78844,1,0,0:0:0:0:
372,174,78997,6,0,L|276:206,1,100,8|0,0:0|0:0,0:0:0:0:
194,148,79303,2,0,L|98:180,1,100,2|0,0:0|0:0,0:0:0:0:
48,266,79609,1,2,0:0:0:0:
116,339,79762,1,2,0:0:0:0:
192,274,79915,2,2,L|256:306,3,50
285,307,80221,5,4,0:0:0:0:
306,108,80527,1,4,0:0:0:0:
356,302,80834,1,4,0:0:0:0:
239,139,81140,1,4,0:0:0:0:
256,296,81446,6,0,L|256:200,1,80,6|0,0:0|0:0,0:0:0:0:
184,160,81752,1,2,0:0:0:0:
184,240,81905,2,0,L|184:336,1,80
256,376,82211,1,2,0:0:0:0:
328,320,82364,2,0,L|328:224,1,80,0|2,0:0|0:0,0:0:0:0:
328,160,82670,1,0,0:0:0:0:
257,92,82823,2,0,L|257:188,1,80,2|0,0:0|0:0,0:0:0:0:
257,92,83130,1,2,0:0:0:0:
256,248,83436,1,2,0:0:0:0:
232,216,83877,6,0,B|200:144|168:176|128:216|256:320|256:320|392:216|352:176|320:144|280:216|280:216,1,480.000018310548
256,192,85673,5,0,0:0:0:0:
338,372,86032,1,0,0:0:0:0:
176,369,86391,1,0,0:0:0:0:
256,192,86751,12,0,89625,0:0:0:0:
