osu file format v14

[General]
AudioFilename: audio.mp3
AudioLeadIn: 0
PreviewTime: 61548
Countdown: 0
SampleSet: Soft
StackLeniency: 0.9
Mode: 0
LetterboxInBreaks: 0
WidescreenStoryboard: 1

[Editor]
DistanceSpacing: 1
BeatDivisor: 4
GridSize: 8
TimelineZoom: 1

[Metadata]
Title:Koi? de Ai? de Boukun desu!
TitleUnicode:恋?で愛?で暴君です!
Artist:Wake Up, Girls!
ArtistUnicode:Wake Up, Girls!
Creator:jack1817
Version:Hard
Source:Renai Boukun 恋愛暴君
Tags:renai boukun koi? de ai? de boukun desu! koi de ai de boukun desu wake up girls! wake up girls xfraczynho
BeatmapID:1299688
BeatmapSetID:616242

[Difficulty]
HPDrainRate:5
CircleSize:4
OverallDifficulty:5
ApproachRate:7.5
SliderMultiplier:1.5
SliderTickRate:2

[Events]
//Background and Video events
Video,207,"Koi de Ai de Boukun desu.avi"
0,0,"background.jpg",0,0
//Break Periods
//Storyboard Layer 0 (Background)
//Storyboard Layer 1 (Fail)
//Storyboard Layer 2 (Pass)
//Storyboard Layer 3 (Foreground)
//Storyboard Sound Samples

[TimingPoints]
630,306.122448979592,4,2,0,80,1,0
4915,-66.6666666666667,4,2,0,80,0,0
5527,-100,4,2,0,80,0,0
10425,-100,4,2,0,60,0,0
20221,-100,4,2,0,70,0,0
30017,-100,4,2,0,70,0,0
39813,-100,4,2,0,75,0,0
49609,-100,4,2,0,70,0,0
53895,-66.6666666666667,4,2,0,70,0,0
54507,-100,4,2,0,80,0,0
56956,-200,4,2,0,50,0,0
59405,-142.857142857143,4,2,0,90,0,0
60323,-111.111111111111,4,2,0,90,0,0
61242,-83.3333333333333,4,2,0,90,0,0
61854,-66.6666666666667,4,2,0,100,0,1
78997,-80,4,2,0,100,0,0
81446,-100,4,2,0,80,0,0
83877,359.281437125748,4,2,0,50,1,0
83877,-133.333333333333,4,2,0,50,0,0

[Colours]
Combo1 : 255,255,149
Combo2 : 222,92,219
Combo3 : 255,151,230
Combo4 : 237,114,117

[HitObjects]
24,96,630,6,0,L|152:192,1,150,0|8,0:0|0:0,0:0:0:0:
208,232,1089,1,0,0:0:0:0:
360,224,1395,1,0,0:0:0:0:
272,176,1701,2,0,L|152:86,1,150,0|8,0:0|0:0,0:0:0:0:
208,232,2313,1,0,0:0:0:0:
340,302,2619,5,0,0:0:0:0:
414,290,2772,1,0,0:0:0:0:
444,221,2925,1,0,0:0:0:0:
369,225,3078,6,0,B|337:257|273:225|337:129,1,150,0|8,0:0|0:0,0:0:0:0:
353,68,3538,1,0,0:0:0:0:
502,60,3844,1,0,0:0:0:0:
512,200,4150,2,8,P|495:262|399:294,1,150
272,280,4762,1,0,0:0:0:0:
240,56,5068,5,2,0:0:0:0:
240,56,5221,1,2,0:0:0:0:
120,126,5527,6,2,L|248:222,1,150,8|2,0:0|0:0,0:0:0:0:
303,256,5987,1,0,0:0:0:0:
432,336,6293,1,0,0:0:0:0:
303,256,6599,2,0,L|157:156,1,150,8|0,0:0|0:0,0:0:0:0:
29,157,7211,2,0,L|163:261,1,150,0|8,0:0|0:0,0:0:0:0:
256,192,7976,12,0,9201,0:0:0:0:
256,192,9507,5,0,0:0:0:0:
232,48,9813,2,0,L|136:48,1,75,0|8,0:0|0:0,0:0:0:0:
80,48,10119,1,8,0:0:0:0:
63,224,10425,6,0,P|159:224|159:288,1,150,0|8,0:0|0:0,0:0:0:0:
183,332,10885,1,0,0:0:0:0:
248,288,11038,2,0,P|344:288|344:224,1,150,0|8,0:0|0:0,0:0:0:0:
407,322,11497,1,0,0:0:0:0:
456,264,11650,2,0,L|496:176,1,75
480,120,11956,2,0,L|440:33,1,75
376,48,12262,2,0,P|304:88|272:168,1,150,0|8,0:0|0:0,0:0:0:0:
232,288,12874,6,0,P|296:352|328:320,2,150,0|8|0,0:0|0:0|0:0,0:0:0:0:
264,216,13640,1,0,0:0:0:0:
288,144,13793,2,0,P|339:141|360:176,1,75,8|0,0:0|0:0,0:0:0:0:
376,224,14099,1,0,0:0:0:0:
264,328,14405,2,0,P|224:344|176:304,1,75,8|0,0:0|0:0,0:0:0:0:
160,272,14711,1,0,0:0:0:0:
256,160,15017,1,2,0:0:0:0:
389,163,15323,6,0,P|389:259|325:259,1,150,0|8,0:0|0:0,0:0:0:0:
281,231,15783,1,0,0:0:0:0:
217,208,15936,2,0,P|284:303|305:291,1,150,0|8,0:0|0:0,0:0:0:0:
354,268,16395,1,0,0:0:0:0:
338,192,16548,2,0,P|370:160|402:192,1,75
415,240,16854,2,0,P|447:272|479:240,1,75,8|0,0:0|0:0,0:0:0:0:
488,190,17160,2,0,P|493:48|477:23,1,150,0|8,0:0|0:0,0:0:0:0:
343,28,17772,5,0,0:0:0:0:
334,102,17925,1,0,0:0:0:0:
270,62,18078,1,8,0:0:0:0:
270,137,18232,1,0,0:0:0:0:
201,168,18385,2,0,B|176:96|176:96|130:42|130:42|104:65,1,150
54,26,18844,1,0,0:0:0:0:
60,100,18997,2,0,P|124:164|92:228,1,150,2|2,0:0|0:0,0:0:0:0:
70,276,19456,1,0,0:0:0:0:
129,321,19609,2,0,B|60:370|60:370|1:321,1,150,2|0,0:0|0:0,0:0:0:0:
40,181,20221,6,0,L|104:117,1,75,2|0,0:0|0:0,0:0:0:0:
160,88,20527,1,0,0:0:0:0:
160,160,20681,1,0,0:0:0:0:
232,128,20834,2,0,L|296:192,1,75,2|0,0:0|0:0,0:0:0:0:
336,232,21140,1,0,0:0:0:0:
351,158,21293,1,0,0:0:0:0:
401,213,21446,2,0,L|489:149,1,75,2|0,0:0|0:0,0:0:0:0:
410,111,21752,2,0,L|338:167,1,75
291,202,22058,2,0,L|355:266,2,75,2|0|2,0:0|0:0|0:0,0:0:0:0:
232,248,22517,1,0,0:0:0:0:
188,186,22670,6,0,L|251:138,1,75,2|0,0:0|0:0,0:0:0:0:
312,96,22976,1,0,0:0:0:0:
312,168,23130,1,0,0:0:0:0:
384,136,23283,2,0,P|416:168|408:216,1,75,2|0,0:0|0:0,0:0:0:0:
360,240,23589,1,0,0:0:0:0:
432,272,23742,1,0,0:0:0:0:
376,320,23895,1,0,0:0:0:0:
304,288,24048,1,0,0:0:0:0:
272,216,24201,2,0,P|251:205|296:208,1,150
360,240,24660,1,0,0:0:0:0:
416,192,24813,1,8,0:0:0:0:
392,336,25119,6,0,B|319:362|319:362|320:393,1,75,2|0,0:0|0:0,0:0:0:0:
275,303,25425,1,0,0:0:0:0:
230,363,25578,1,0,0:0:0:0:
207,290,25732,2,0,B|223:258|223:258|223:218,1,75,2|0,0:0|0:0,0:0:0:0:
150,201,26038,1,0,0:0:0:0:
197,143,26191,1,0,0:0:0:0:
121,136,26344,2,0,B|66:190,1,75,2|0,0:0|0:0,0:0:0:0:
93,258,26650,1,0,0:0:0:0:
150,201,26803,1,0,0:0:0:0:
167,276,26956,2,0,L|244:205,1,75,2|0,0:0|0:0,0:0:0:0:
259,291,27262,2,0,L|181:366,1,75,2|0,0:0|0:0,0:0:0:0:
184,270,27568,6,0,P|150:237|144:200,2,75,2|0|0,0:0|0:0|0:0,0:0:0:0:
259,291,28027,1,0,0:0:0:0:
329,319,28181,2,0,P|382:293|386:202,1,150,2|0,0:0|0:0,0:0:0:0:
383,150,28640,1,0,0:0:0:0:
383,150,28793,1,2,0:0:0:0:
434,290,29099,2,0,P|370:354|338:322,1,150,0|8,0:0|0:0,0:0:0:0:
309,262,29558,2,0,L|294:228,2,37.5
190,170,30017,6,0,P|254:138|243:50,1,150,0|8,0:0|0:0,0:0:0:0:
322,32,30476,1,0,0:0:0:0:
374,86,30630,2,0,P|342:118|406:182,1,150,0|8,0:0|0:0,0:0:0:0:
471,192,31089,1,0,0:0:0:0:
425,251,31242,2,0,P|456:370|446:375,1,150,0|8,0:0|0:0,0:0:0:0:
357,258,31854,2,0,P|326:377|336:382,1,150,0|8,0:0|0:0,0:0:0:0:
466,361,32466,6,0,L|400:320,1,75,8|0,0:0|0:0,0:0:0:0:
357,258,32772,2,0,L|256:288,1,75,8|0,0:0|0:0,0:0:0:0:
296,208,33078,2,0,P|424:176|456:240,1,225,8|0,0:0|0:0,0:0:0:0:
472,312,33691,1,0,0:0:0:0:
319,345,33997,2,0,B|282:317|282:317|274:271,1,75
269,214,34303,2,0,B|307:180|307:180|350:218|350:218|389:179,1,150
332,46,34915,6,0,L|442:157,1,150,8|0,0:0|0:0,0:0:0:0:
485,210,35374,1,0,0:0:0:0:
455,278,35527,2,0,L|345:168,1,150
297,116,35987,1,8,0:0:0:0:
242,64,36140,2,0,P|145:94|134:161,1,150,8|0,0:0|0:0,0:0:0:0:
123,206,36599,1,0,0:0:0:0:
123,206,36752,1,0,0:0:0:0:
255,276,37058,1,8,0:0:0:0:
163,157,37364,6,0,P|195:125|236:128,1,75,8|0,0:0|0:0,0:0:0:0:
227,198,37670,2,0,P|259:230|308:209,1,75,8|0,0:0|0:0,0:0:0:0:
296,153,37976,1,8,0:0:0:0:
408,48,38283,2,0,L|440:144,1,75,8|0,0:0|0:0,0:0:0:0:
384,176,38589,2,0,L|352:80,1,75,8|0,0:0|0:0,0:0:0:0:
408,48,38895,2,0,L|440:144,1,75,8|0,0:0|0:0,0:0:0:0:
390,186,39201,1,0,0:0:0:0:
335,46,39507,1,2,0:0:0:0:
390,186,39813,6,0,L|326:250,1,75,2|0,0:0|0:0,0:0:0:0:
263,253,40119,1,0,0:0:0:0:
280,180,40272,1,0,0:0:0:0:
259,261,40425,2,0,L|345:270,1,75,2|0,0:0|0:0,0:0:0:0:
408,279,40732,1,0,0:0:0:0:
356,336,40885,1,0,0:0:0:0:
281,325,41038,5,2,0:0:0:0:
308,255,41191,1,0,0:0:0:0:
308,255,41344,2,0,B|308:223|308:223|276:191,1,75
202,199,41650,2,0,B|202:231|202:231|234:263,1,75
308,255,41956,2,0,B|308:287|308:287|276:319,1,75
200,312,42262,6,0,P|136:240|136:176,2,150,2|0|0,0:0|0:0|0:0,0:0:0:0:
264,352,43027,1,0,0:0:0:0:
336,328,43181,1,0,0:0:0:0:
342,254,43334,2,0,L|262:285,1,75
200,303,43640,1,0,0:0:0:0:
223,231,43793,2,0,P|243:198|229:246,1,150,2|0,0:0|0:0,0:0:0:0:
200,303,44252,2,8,B|168:335|168:335|136:303,1,75,0|8,0:0|0:0,0:0:0:0:
64,192,44711,6,2,B|32:224|32:224|55:263,1,75,10|2,0:0|0:0,0:0:0:0:
88,312,45017,1,0,0:0:0:0:
136,256,45170,1,0,0:0:0:0:
136,184,45323,2,0,B|137:156|137:156|176:112,1,75,2|0,0:0|0:0,0:0:0:0:
240,88,45630,1,0,0:0:0:0:
232,160,45783,1,0,0:0:0:0:
295,194,45936,6,0,B|259:241|259:241|259:273,1,75,2|0,0:0|0:0,0:0:0:0:
197,332,46242,2,0,B|184:322|184:322|184:264,1,75,2|0,0:0|0:0,0:0:0:0:
184,192,46548,2,0,B|184:134|184:134|207:116,1,75,2|0,0:0|0:0,0:0:0:0:
272,80,46854,2,0,L|343:145,1,75,2|0,0:0|0:0,0:0:0:0:
389,172,47160,6,0,P|325:204|256:144,2,150,2|0|0,0:0|0:0|0:0,0:0:0:0:
459,146,47925,1,0,0:0:0:0:
448,216,48078,1,0,0:0:0:0:
392,264,48232,2,0,P|352:280|288:272,1,75
220,194,48691,2,0,L|316:226,1,75,8|0,0:0|0:0,0:0:0:0:
286,292,48997,2,0,L|363:258,3,75
410,211,49609,6,0,P|357:163|274:140,1,150,0|8,0:0|0:0,0:0:0:0:
209,131,50068,1,0,0:0:0:0:
257,230,50374,1,0,0:0:0:0:
371,128,50681,1,8,0:0:0:0:
225,164,50987,1,8,0:0:0:0:
373,182,51293,2,0,P|331:240|244:213,1,150,0|8,0:0|0:0,0:0:0:0:
225,164,51752,2,8,P|240:127|270:109,1,75
343,99,52058,6,0,P|387:104|376:194,1,150
319,227,52517,1,8,0:0:0:0:
288,80,52823,1,8,0:0:0:0:
256,224,53130,1,0,0:0:0:0:
400,184,53436,1,0,0:0:0:0:
288,80,53742,1,8,0:0:0:0:
352,296,54048,5,2,0:0:0:0:
352,296,54201,1,2,0:0:0:0:
213,310,54507,6,0,L|309:182,1,150
343,127,54966,1,8,0:0:0:0:
210,197,55272,1,8,0:0:0:0:
208,47,55578,1,0,0:0:0:0:
210,197,55885,1,0,0:0:0:0:
326,102,56191,1,8,0:0:0:0:
210,197,56497,1,8,0:0:0:0:
296,304,56956,6,0,B|128:224|168:376|0:288,1,300
11,255,58334,1,0,0:0:0:0:
41,233,58487,1,0,0:0:0:0:
75,218,58640,1,0,0:0:0:0:
111,227,58793,1,0,0:0:0:0:
143,245,58946,1,8,0:0:0:0:
176,256,59099,1,8,0:0:0:0:
213,242,59252,1,8,0:0:0:0:
261,223,59405,5,4,0:0:0:0:
401,151,59864,5,4,0:0:0:0:
223,248,60323,5,4,0:0:0:0:
401,151,60783,5,4,0:0:0:0:
136,112,61242,2,0,L|34:191,1,89.9999972534181
48,256,61548,2,0,L|128:197,1,89.9999972534181
216,152,61854,6,0,P|216:216|248:264,1,112.500004291535,4|0,0:0|0:0,0:0:0:0:
304,352,62160,1,0,0:0:0:0:
360,261,62313,1,0,0:0:0:0:
319,152,62466,2,0,P|267:133|207:160,1,112.500004291535,8|0,0:0|0:0,0:0:0:0:
278,291,62772,2,0,P|352:319|387:275,1,112.500004291535
441,215,63078,2,0,P|380:174|331:196,1,112.500004291535,8|0,0:0|0:0,0:0:0:0:
246,237,63385,2,0,P|176:220|166:187,1,112.500004291535
206,84,63691,2,0,P|270:148|238:180,1,112.500004291535,8|0,0:0|0:0,0:0:0:0:
166,187,63997,2,0,L|208:81,1,112.500004291535
317,102,64303,6,0,L|263:229,1,112.500004291535,4|0,0:0|0:0,0:0:0:0:
230,313,64609,1,0,0:0:0:0:
340,294,64762,1,0,0:0:0:0:
272,205,64915,2,0,L|218:104,1,112.500004291535,8|0,0:0|0:0,0:0:0:0:
167,205,65221,2,0,P|136:153|170:96,1,112.500004291535
264,136,65527,2,0,B|301:91|301:91|264:32,1,112.500004291535,8|0,0:0|0:0,0:0:0:0:
160,40,65834,2,0,P|104:64|80:120,1,112.500004291535,8|8,0:0|0:0,0:0:0:0:
293,38,66293,1,8,0:0:0:0:
293,38,66752,6,0,L|357:134,1,112.500004291535,8|0,0:0|0:0,0:0:0:0:
245,134,67058,2,0,L|369:208,1,112.500004291535,2|0,0:0|0:0,0:0:0:0:
245,246,67364,2,0,L|381:254,1,112.500004291535,8|0,0:0|0:0,0:0:0:0:
301,350,67670,2,0,L|429:278,1,112.500004291535,2|0,0:0|0:0,0:0:0:0:
477,214,67976,6,0,L|414:108,1,112.500004291535,8|0,0:0|0:0,0:0:0:0:
389,222,68283,2,0,L|365:102,1,112.500004291535,2|0,0:0|0:0,0:0:0:0:
277,182,68589,2,0,L|325:54,1,112.500004291535,8|0,0:0|0:0,0:0:0:0:
205,86,68895,2,0,L|309:14,1,112.500004291535,2|0,0:0|0:0,0:0:0:0:
356,133,69201,6,0,P|397:70|400:27,1,112.500004291535,2|0,0:0|0:0,0:0:0:0:
296,16,69507,1,2,0:0:0:0:
208,88,69660,1,0,0:0:0:0:
264,184,69813,2,0,P|354:139|366:87,1,112.500004291535,2|0,0:0|0:0,0:0:0:0:
264,64,70119,1,2,0:0:0:0:
200,152,70272,1,0,0:0:0:0:
320,176,70425,2,0,P|344:314|267:366,1,225.000008583069,8|0,0:0|0:0,0:0:0:0:
248,256,70885,1,0,0:0:0:0:
320,176,71038,2,0,L|376:132,4,56.2500021457673
136,304,71650,6,0,P|192:320|232:288,1,112.500004291535,6|0,0:0|0:0,0:0:0:0:
247,182,71956,1,0,0:0:0:0:
141,220,72109,1,0,0:0:0:0:
167,110,72262,2,0,P|219:61|268:114,1,112.500004291535,2|0,0:0|0:0,0:0:0:0:
305,171,72568,1,0,0:0:0:0:
197,205,72721,1,0,0:0:0:0:
277,283,72874,2,0,P|223:332|161:323,1,112.500004291535,2|0,0:0|0:0,0:0:0:0:
121,240,73181,1,2,0:0:0:0:
233,231,73334,2,0,P|172:70|54:143,1,337.500012874604,2|2,0:0|0:0,0:0:0:0:
20,228,73946,1,0,0:0:0:0:
20,228,74099,6,0,L|140:187,1,112.500004291535,2|0,0:0|0:0,0:0:0:0:
116,300,74405,2,0,L|212:172,1,112.500004291535,2|0,0:0|0:0,0:0:0:0:
261,290,74711,2,0,L|235:163,1,112.500004291535,2|0,0:0|0:0,0:0:0:0:
341,225,75017,2,0,L|277:121,1,112.500004291535,2|0,0:0|0:0,0:0:0:0:
169,138,75323,6,2,L|270:60,1,112.500004291535
370,61,75630,2,0,L|248:162,1,112.500004291535
283,132,76242,6,0,B|334:191|334:191|260:197,1,112.500004291535
191,157,76548,2,0,P|199:237|263:269,1,112.500004291535,8|0,0:0|0:0,0:0:0:0:
119,205,76854,2,0,P|119:269|183:301,1,112.500004291535,8|0,0:0|0:0,0:0:0:0:
47,258,77160,2,0,P|47:322|111:354,1,112.500004291535,8|0,0:0|0:0,0:0:0:0:
81,350,77466,6,8,B|147:374|147:374|177:318,1,112.500004291535,8|0,0:0|0:0,0:0:0:0:
274,303,77772,2,0,P|242:367|210:367,1,112.500004291535,8|0,0:0|0:0,0:0:0:0:
225,255,78078,2,0,P|193:319|161:319,1,112.500004291535,8|0,0:0|0:0,0:0:0:0:
190,209,78385,2,0,P|142:241|62:123,1,225.000008583069,0|8,0:0|0:0,0:0:0:0:
238,99,78997,6,0,P|190:67|54:83,1,187.5,0|8,0:0|0:0,0:0:0:0:
227,169,79609,2,0,P|275:201|411:185,1,187.5,0|8,0:0|0:0,0:0:0:0:
255,73,80221,5,12,0:0:0:0:
109,191,80527,1,12,0:0:0:0:
254,309,80834,1,12,0:0:0:0:
398,189,81140,1,12,0:0:0:0:
255,236,81446,5,4,0:0:0:0:
318,100,81752,2,0,P|374:108|382:140,1,75,2|0,0:0|0:0,0:0:0:0:
410,265,82211,1,0,0:0:0:0:
280,341,82517,1,0,0:0:0:0:
300,192,82823,5,2,0:0:0:0:
209,312,83130,1,0,0:0:0:0:
342,244,83436,1,0,0:0:0:0:
256,192,83877,12,0,85314,0:0:0:0:
255,44,85673,5,0,0:0:0:0:
256,192,86032,1,0,0:0:0:0:
255,339,86391,1,0,0:0:0:0:
256,192,86751,12,0,89625,0:0:0:0:
