osu file format v14

[General]
AudioFilename: audio.mp3
AudioLeadIn: 0
PreviewTime: 29700
Countdown: 1
SampleSet: Normal
StackLeniency: 0.7
Mode: 0
LetterboxInBreaks: 0
WidescreenStoryboard: 0

[Editor]
DistanceSpacing: 1.3
BeatDivisor: 4
GridSize: 32
TimelineZoom: 3.499999

[Metadata]
Title:Koi? de Ai? de Boukun desu!
TitleUnicode:Koi? de Ai? de Boukun desu!
Artist:Wake Up, Girls!
ArtistUnicode:Wake Up, Girls!
Creator:Lud5_Beats
Version:Demon Penguin,Stolas
Source:
Tags:Anime, Wake Up, Girls!, Renai Boukun, Love Tyrant
BeatmapID:1274253
BeatmapSetID:603303

[Difficulty]
HPDrainRate:6.5
CircleSize:5
OverallDifficulty:7.5
ApproachRate:9
SliderMultiplier:1.4
SliderTickRate:1

[Events]
//Background and Video events
0,0,"0____0.png",0,0
//Break Periods
//Storyboard Layer 0 (Background)
//Storyboard Layer 1 (Fail)
//Storyboard Layer 2 (Pass)
//Storyboard Layer 3 (Foreground)
//Storyboard Sound Samples

[TimingPoints]
0,306.122448979592,4,1,3,100,1,0
688,-100,4,1,2,100,0,0
2372,-100,4,1,4,100,0,0
2831,-100,4,1,2,100,0,0
4821,-100,4,1,1,100,0,0
7729,-100,4,1,2,100,0,0
9719,-100,4,1,1,100,0,0
10185,306.122448979592,4,1,0,100,1,0
10185,-100,4,1,2,100,0,0
14776,-100,4,1,7,100,0,0
15082,-100,4,1,2,100,0,0
19674,-100,4,1,3,100,0,0
19980,-100,4,1,2,100,0,0
24419,-100,4,1,1,100,0,0
24878,-100,4,1,2,100,0,0
29164,-100,4,1,1,100,0,0
29470,-100,4,1,3,100,0,0
29776,-100,4,1,2,100,0,0
34368,-100,4,1,7,100,0,0
34674,-100,4,1,2,100,0,0
37889,-100,4,1,1,100,0,0
38195,-100,4,1,2,100,0,0
38960,-100,4,1,1,100,0,0
39266,-100,4,1,3,100,0,0
39572,-100,4,1,2,100,0,0
44011,-100,4,1,1,100,0,0
44470,-100,4,1,2,100,0,0
48603,-100,4,1,1,100,0,0
48909,-100,4,1,5,100,0,0
49368,-100,4,1,2,100,0,0
51358,-100,4,1,6,100,0,0
54266,-100,4,1,1,100,0,0
60236,-100,4,1,5,100,0,0
60848,-100,4,1,1,100,0,0
61613,-100,4,1,2,100,0,1
71409,-100,4,1,2,100,0,0
81511,-100,4,1,6,100,0,0
83654,-200,4,1,0,100,0,0
89360,306.122448979592,4,1,0,100,1,0

[Colours]
Combo1 : 255,255,0
Combo2 : 0,255,255
Combo3 : 128,0,128
Combo4 : 255,0,0

[HitObjects]
256,96,382,5,12,0:0:0:0:
155,160,688,2,0,B|119:196|119:196|136:240|136:240,1,70
256,288,1147,1,0,0:0:0:0:
368,241,1454,2,0,B|363:247|417:197|417:197|357:154,2,140
231,192,2372,5,0,0:0:0:0:
282,193,2525,1,2,0:0:0:0:
257,146,2678,1,0,0:0:0:0:
136,62,2831,5,0,0:0:0:0:
79,135,3137,2,0,P|52:164|67:184,1,70
155,267,3596,1,0,0:0:0:0:
319,237,3903,1,0,0:0:0:0:
428,136,4209,1,0,0:0:0:0:
319,237,4515,1,0,0:0:0:0:
64,96,4821,5,10,0:0:0:0:
448,96,4974,1,10,0:0:0:0:
256,96,5280,6,10,L|256:256,1,140
256,236,5739,1,10,0:0:0:0:
256,236,6045,2,10,L|256:96,1,140
256,320,6658,5,10,0:0:0:0:
32,352,6964,1,10,0:0:0:0:
480,352,7270,1,10,0:0:0:0:
242,136,7729,6,0,B|241:118|226:88|167:29|108:133|108:207|196:148|211:207|241:221|256:236|256:236|270:221|298:206|314:149|403:207|403:133|329:29|285:88|270:118|262:158,1,560
192,96,9260,5,0,0:0:0:0:
96,96,9566,1,0,0:0:0:0:
26,96,9719,2,0,L|122:96,1,70,8|2,0:0|0:0,0:0:0:0:
189,226,10185,6,0,L|329:158,1,140,12|2,0:0|0:0,0:0:0:0:
314,164,10644,1,0,0:0:0:0:
189,226,10797,2,0,L|329:158,1,140,0|2,0:0|0:0,0:0:0:0:
314,164,11256,1,0,0:0:0:0:
430,119,11409,6,0,B|473:106|473:106|475:147,1,70,0|8,0:0|0:0,0:0:0:0:
475,308,11715,1,2,0:0:0:0:
430,119,11868,1,8,0:0:0:0:
297,308,12021,1,8,0:0:0:0:
192,288,12327,5,2,0:0:0:0:
224,64,12633,5,8,0:0:0:0:
153,136,12940,2,0,L|103:188,1,70,2|8,0:0|0:0,0:0:0:0:
32,256,13246,2,0,L|112:284,1,70,0|8,0:0|0:0,0:0:0:0:
214,314,13552,1,2,0:0:0:0:
377,235,13705,6,0,B|403:261|403:261|428:237,1,70
512,160,14011,1,8,0:0:0:0:
288,160,14164,1,2,0:0:0:0:
404,352,14317,1,8,0:0:0:0:
288,160,14470,1,8,0:0:0:0:
160,352,14776,6,0,P|170:331|177:362,1,70,10|0,0:0|0:0,0:0:0:0:
318,96,15082,6,0,L|190:192,1,140,8|2,0:0|0:0,0:0:0:0:
206,180,15542,1,8,0:0:0:0:
194,96,15695,2,2,L|322:192,1,140,0|2,0:0|0:0,0:0:0:0:
306,180,16154,1,0,0:0:0:0:
254,137,16307,2,0,P|232:138|255:125,1,70,0|8,0:0|0:0,0:0:0:0:
96,32,16613,1,2,0:0:0:0:
96,231,16766,1,8,0:0:0:0:
254,140,16919,1,8,0:0:0:0:
145,133,17225,1,2,0:0:0:0:
415,32,17531,5,8,0:0:0:0:
258,140,17685,1,0,0:0:0:0:
468,123,17838,1,2,0:0:0:0:
308,38,17991,1,8,0:0:0:0:
415,231,18144,1,0,0:0:0:0:
378,112,18297,6,0,P|356:113|379:100,1,70,8|2,0:0|0:0,0:0:0:0:
248,319,18603,6,0,B|209:322|209:322|222:293,1,70
319,213,18909,1,8,0:0:0:0:
416,136,19062,2,0,B|455:133|455:133|442:162,2,70,2|0|2,0:0|0:0|0:0,0:0:0:0:
448,320,19521,5,8,0:0:0:0:
264,141,19674,2,0,P|242:142|265:129,1,70,12|0,0:0|0:0,0:0:0:0:
439,128,19980,6,0,B|403:157|379:125|361:137|382:173|341:211,1,140,12|2,0:0|0:0,0:0:0:0:
281,301,20440,1,8,0:0:0:0:
161,302,20593,2,0,B|94:242|97:102|193:53,1,280
336,60,21358,5,0,0:0:0:0:
336,60,21511,2,0,L|276:139,1,70,0|8,0:0|0:0,0:0:0:0:
275,203,21817,2,0,L|354:324,1,140,8|2,0:0|0:0,0:0:0:0:
351,320,22276,1,0,0:0:0:0:
419,323,22429,2,0,L|496:206,1,140,8|2,0:0|0:0,0:0:0:0:
462,112,22889,2,8,L|419:56,1,70
275,203,23195,5,8,0:0:0:0:
453,203,23348,1,2,0:0:0:0:
362,52,23501,1,8,0:0:0:0:
128,64,23807,5,8,0:0:0:0:
34,131,23960,2,0,L|77:189,1,70,2|8,0:0|0:0,0:0:0:0:
128,256,24266,1,8,0:0:0:0:
288,96,24419,5,2,0:0:0:0:
384,256,24572,1,2,0:0:0:0:
120,116,24878,6,0,B|160:91|218:91|268:122,1,140,12|2,0:0|0:0,0:0:0:0:
201,272,25338,1,8,0:0:0:0:
59,85,25491,2,0,B|135:24|240:24|319:87,1,280
201,272,26256,5,8,0:0:0:0:
62,273,26409,1,2,0:0:0:0:
201,272,26562,1,8,0:0:0:0:
343,270,26715,1,8,0:0:0:0:
339,39,27021,2,0,L|264:39,1,70,2|0,0:0|0:0,0:0:0:0:
148,86,27327,6,0,B|135:103|103:75|90:89|125:117|110:138,1,70,8|0,0:0|0:0,0:0:0:0:
132,220,27633,2,0,L|183:274,1,70,2|8,0:0|0:0,0:0:0:0:
307,273,27940,2,0,P|386:237|401:166,1,140,0|2,0:0|0:0,0:0:0:0:
399,68,28399,6,0,P|361:53|331:64,1,70,8|0,0:0|0:0,0:0:0:0:
334,61,28705,1,8,0:0:0:0:
217,130,28858,1,2,0:0:0:0:
100,211,29164,5,8,0:0:0:0:
235,311,29317,1,10,0:0:0:0:
100,211,29470,1,12,0:0:0:0:
235,311,29623,1,8,0:0:0:0:
370,285,29776,6,0,P|402:261|415:167,1,140,12|2,0:0|0:0,0:0:0:0:
415,167,30236,1,8,0:0:0:0:
334,206,30389,2,0,P|326:166|381:89,1,140,0|2,0:0|0:0,0:0:0:0:
380,89,30848,1,8,0:0:0:0:
267,65,31001,6,0,L|196:76,1,70,0|8,0:0|0:0,0:0:0:0:
100,79,31307,2,0,L|57:141,1,70,2|8,0:0|0:0,0:0:0:0:
12,206,31613,2,0,P|92:255|166:259,1,140,8|2,0:0|0:0,0:0:0:0:
209,104,32225,6,0,L|268:63,1,70,8|0,0:0|0:0,0:0:0:0:
266,64,32531,2,0,L|312:128,1,70,2|8,0:0|0:0,0:0:0:0:
362,202,32838,2,0,L|423:152,2,70,0|8|2,0:0|0:0|0:0,0:0:0:0:
285,269,33297,1,8,0:0:0:0:
282,273,33450,2,0,L|322:329,1,70,8|0,0:0|0:0,0:0:0:0:
322,329,33756,2,0,L|368:265,1,70,2|8,0:0|0:0,0:0:0:0:
362,272,34062,1,8,0:0:0:0:
366,104,34368,6,0,P|379:81|363:91,1,70,10|0,0:0|0:0,0:0:0:0:
125,124,34674,6,0,P|145:79|114:117,1,140,0|2,0:0|0:0,0:0:0:0:
256,224,35133,1,8,0:0:0:0:
125,124,35287,2,0,P|138:109|119:122,2,70,0|8|2,0:0|0:0|0:0,0:0:0:0:
224,64,35746,5,0,0:0:0:0:
330,65,35899,2,0,L|378:119,1,70,0|8,0:0|0:0,0:0:0:0:
430,184,36205,1,2,0:0:0:0:
311,251,36358,1,8,0:0:0:0:
320,64,36511,1,8,0:0:0:0:
330,149,36817,5,2,0:0:0:0:
224,288,37123,5,8,0:0:0:0:
224,288,37276,1,0,0:0:0:0:
224,288,37429,2,0,L|160:224,1,70,2|8,0:0|0:0,0:0:0:0:
174,238,37736,1,0,0:0:0:0:
139,73,37889,5,8,0:0:0:0:
245,4,38042,1,2,0:0:0:0:
210,114,38195,5,0,0:0:0:0:
268,74,38348,2,0,L|191:128,1,70,0|8,0:0|0:0,0:0:0:0:
320,128,38654,2,0,L|384:192,1,70,2|8,0:0|0:0,0:0:0:0:
448,256,38960,5,2,0:0:0:0:
320,128,39113,1,8,0:0:0:0:
256,288,39266,1,12,0:0:0:0:
448,256,39419,1,8,0:0:0:0:
256,288,39572,6,0,P|174:259|168:212,1,140,12|2,0:0|0:0,0:0:0:0:
164,133,40031,1,8,0:0:0:0:
206,68,40185,2,0,P|263:45|472:98,1,280
467,93,40950,6,8,L|395:51,1,70,8|2,0:0|0:0,0:0:0:0:
346,40,41256,1,0,0:0:0:0:
274,43,41409,2,0,B|235:53|170:75|125:117,1,140,8|2,0:0|0:0,0:0:0:0:
143,101,41868,1,0,0:0:0:0:
466,288,42021,6,0,P|406:338|337:344,1,140,8|2,0:0|0:0,0:0:0:0:
270,339,42480,1,8,0:0:0:0:
204,318,42633,2,0,P|113:260|63:165,1,210,0|8,0:0|0:0,0:0:0:0:
128,96,43399,5,8,0:0:0:0:
256,32,43552,1,2,0:0:0:0:
384,96,43858,1,0,0:0:0:0:
384,224,44011,5,2,0:0:0:0:
256,320,44164,1,2,0:0:0:0:
128,288,44470,6,0,P|96:224|128:160,1,140,12|2,0:0|0:0,0:0:0:0:
121,165,44929,1,8,0:0:0:0:
160,91,45082,2,0,B|200:91|208:58|233:58|226:89|273:91|268:130|299:134|305:93|353:93|361:62|394:60|401:91|440:92,1,280
434,165,45848,6,0,P|443:204|430:240,1,70,0|2,0:0|0:0,0:0:0:0:
380,298,46154,2,8,P|346:326|312:332,1,70
202,317,46460,1,2,0:0:0:0:
202,317,46613,2,0,P|164:291|159:254,1,70,2|8,0:0|0:0,0:0:0:0:
136,149,46919,2,0,P|148:93|219:55,1,140,8|2,0:0|0:0,0:0:0:0:
216,55,47378,1,8,0:0:0:0:
409,59,47531,2,0,P|452:46|412:79,1,140,0|2,0:0|0:0,0:0:0:0:
320,320,47991,5,0,0:0:0:0:
160,320,48144,1,0,0:0:0:0:
160,96,48450,1,2,0:0:0:0:
288,96,48603,5,2,0:0:0:0:
320,96,48679,1,2,0:0:0:0:
352,96,48756,1,2,0:0:0:0:
448,96,48909,1,2,0:0:0:0:
448,224,49062,1,4,0:0:0:0:
352,96,49215,1,8,0:0:0:0:
256,96,49368,6,0,L|96:96,1,140,12|0,0:0|0:0,0:0:0:0:
116,96,49827,2,0,L|116:237,1,140
255,236,50440,1,0,0:0:0:0:
252,94,50746,1,0,0:0:0:0:
116,97,51052,1,0,0:0:0:0:
158,144,51358,6,0,L|221:206,2,70,2|2|0,0:0|0:0|0:0,0:0:0:0:
75,60,51817,5,0,0:0:0:0:
75,60,52123,1,0,0:0:0:0:
203,178,52276,1,0,0:0:0:0:
203,178,52582,1,0,0:0:0:0:
300,98,52889,1,0,0:0:0:0:
392,195,53195,1,0,0:0:0:0:
476,46,53501,2,0,B|426:94|427:132|497:162|501:204|472:261,1,210,0|2,0:0|0:0,0:0:0:0:
213,31,54266,6,0,P|146:70|146:132,1,140,12|2,0:0|0:0,0:0:0:0:
226,110,54725,2,2,P|226:157|151:207,1,140
151,207,55338,2,2,P|103:230|159:226,2,140
149,206,56256,1,2,0:0:0:0:
256,192,56639,12,0,58246,0:0:0:0:
205,151,58450,5,2,0:0:0:0:
205,151,58501,1,2,0:0:0:0:
205,151,58552,1,2,0:0:0:0:
88,144,58705,1,8,0:0:0:0:
89,292,58858,1,2,0:0:0:0:
205,151,59011,1,2,0:0:0:0:
255,296,59164,5,12,0:0:0:0:
389,347,59317,1,8,0:0:0:0:
361,219,59470,1,8,0:0:0:0:
249,157,59623,5,12,0:0:0:0:
117,111,59776,1,8,0:0:0:0:
218,31,59929,1,8,0:0:0:0:
312,53,60082,6,0,P|361:42|366:52,1,70,2|2,0:0|0:0,0:0:0:0:
375,67,60312,1,4,0:0:0:0:
389,98,60388,1,8,0:0:0:0:
395,133,60465,1,8,0:0:0:0:
393,167,60541,1,8,0:0:0:0:
382,200,60618,1,8,0:0:0:0:
363,230,60694,1,8,0:0:0:0:
297,288,60848,5,8,0:0:0:0:
134,287,61001,1,2,0:0:0:0:
75,232,61154,5,2,0:0:0:0:
56,202,61230,1,2,0:0:0:0:
45,169,61307,1,2,0:0:0:0:
43,135,61383,1,2,0:0:0:0:
49,100,61460,1,2,0:0:0:0:
64,69,61536,1,2,0:0:0:0:
132,33,61613,6,0,P|181:14|289:43,1,140,12|2,0:0|0:0,0:0:0:0:
371,74,62225,1,8,0:0:0:0:
388,212,62378,2,0,P|341:220|310:212,1,70,8|2,0:0|0:0,0:0:0:0:
219,107,62685,1,8,0:0:0:0:
70,176,62838,2,0,P|64:238|117:294,1,140,8|2,0:0|0:0,0:0:0:0:
229,270,63297,2,8,L|264:202,1,70
342,206,63603,2,0,L|385:295,1,70,8|2,0:0|0:0,0:0:0:0:
439,340,63909,1,8,0:0:0:0:
466,214,64062,6,0,P|468:130|417:70,1,140,12|2,0:0|0:0,0:0:0:0:
240,72,64674,1,8,0:0:0:0:
101,95,64827,1,8,0:0:0:0:
194,217,64980,1,2,0:0:0:0:
240,72,65133,1,8,0:0:0:0:
101,95,65287,6,0,P|65:133|114:204,1,140,8|2,0:0|0:0,0:0:0:0:
247,230,65746,2,8,P|265:190|292:175,1,70
476,285,66052,2,0,P|458:325|431:340,1,70,8|2,0:0|0:0,0:0:0:0:
357,260,66358,1,8,0:0:0:0:
445,140,66511,6,0,P|392:93|305:66,1,140,12|2,0:0|0:0,0:0:0:0:
132,54,66970,5,0,0:0:0:0:
295,188,67123,1,8,0:0:0:0:
71,153,67276,1,8,0:0:0:0:
240,88,67429,1,2,0:0:0:0:
140,245,67582,1,8,0:0:0:0:
287,248,67736,6,8,P|327:237|348:204,1,70
296,130,68042,2,0,P|256:141|235:174,1,70,2|0,0:0|0:0,0:0:0:0:
451,263,68348,1,8,0:0:0:0:
292,189,68501,1,8,0:0:0:0:
453,113,68654,1,2,0:0:0:0:
290,35,68807,1,8,0:0:0:0:
124,47,68960,6,0,B|101:85|69:73|59:91|82:117|59:161,1,140,12|2,0:0|0:0,0:0:0:0:
109,296,69572,2,0,B|132:258|164:270|174:252|151:226|174:182,1,140,8|2,0:0|0:0,0:0:0:0:
294,265,70031,5,8,0:0:0:0:
357,180,70185,1,2,0:0:0:0:
413,106,70338,1,8,0:0:0:0:
282,137,70491,1,2,0:0:0:0:
181,165,70644,1,8,0:0:0:0:
88,162,70797,5,2,0:0:0:0:
64,138,70873,1,2,0:0:0:0:
81,108,70950,1,2,0:0:0:0:
109,87,71026,1,2,0:0:0:0:
139,71,71103,1,2,0:0:0:0:
172,58,71179,1,2,0:0:0:0:
206,50,71256,1,2,0:0:0:0:
241,46,71332,1,2,0:0:0:0:
338,44,71409,6,0,B|428:64|468:110|465:112,1,140,12|2,0:0|0:0,0:0:0:0:
440,211,72021,1,8,0:0:0:0:
335,269,72174,2,0,L|258:294,1,70,8|2,0:0|0:0,0:0:0:0:
130,291,72480,1,8,0:0:0:0:
68,224,72633,6,0,P|50:186|125:128,1,140,8|2,0:0|0:0,0:0:0:0:
209,144,73093,2,8,P|286:162|353:153,1,140
444,84,73552,1,2,0:0:0:0:
321,35,73705,1,8,0:0:0:0:
180,38,73858,6,0,B|110:37|110:37|108:109,1,140,8|2,0:0|0:0,0:0:0:0:
109,308,74470,2,8,L|198:290,1,70
286,229,74776,2,0,L|341:173,1,70,2|8,0:0|0:0,0:0:0:0:
377,106,75082,6,0,B|357:58|343:69|254:70,1,140,8|2,0:0|0:0,0:0:0:0:
177,194,75542,1,8,0:0:0:0:
379,104,75695,1,8,0:0:0:0:
177,194,75848,1,8,0:0:0:0:
222,37,76001,1,2,0:0:0:0:
379,104,76154,1,8,0:0:0:0:
135,278,76307,6,0,B|155:326|169:315|258:314,1,140,12|2,0:0|0:0,0:0:0:0:
352,274,76766,2,0,L|413:230,2,70,0|8|8,0:0|0:0|0:0,0:0:0:0:
388,135,77225,5,2,0:0:0:0:
228,66,77531,2,0,B|189:46|183:78|141:62|157:104|67:58,1,140,12|2,0:0|0:0,0:0:0:0:
63,175,77991,2,0,L|124:219,2,70,0|8|8,0:0|0:0|0:0,0:0:0:0:
256,160,78450,5,2,0:0:0:0:
408,268,78603,1,8,0:0:0:0:
256,160,78756,1,2,0:0:0:0:
347,118,79062,5,2,0:0:0:0:
235,255,79215,1,8,0:0:0:0:
135,123,79368,1,2,0:0:0:0:
33,255,79521,1,8,0:0:0:0:
135,123,79674,1,2,0:0:0:0:
235,255,79827,1,8,0:0:0:0:
337,122,79980,1,2,0:0:0:0:
135,123,80133,1,8,0:0:0:0:
235,255,80287,1,2,0:0:0:0:
183,350,80440,1,8,0:0:0:0:
316,325,80593,5,2,0:0:0:0:
348,311,80669,1,2,0:0:0:0:
377,292,80746,1,2,0:0:0:0:
402,268,80822,1,2,0:0:0:0:
424,241,80899,1,2,0:0:0:0:
442,211,80975,1,2,0:0:0:0:
456,178,81052,1,2,0:0:0:0:
465,144,81128,1,2,0:0:0:0:
457,97,81205,6,0,B|439:53|377:22|337:20,1,140,12|2,0:0|0:0,0:0:0:0:
235,46,81664,2,0,P|190:69|172:91,1,70
113,168,81970,1,2,0:0:0:0:
182,263,82123,1,0,0:0:0:0:
280,295,82276,2,0,P|354:276|364:263,1,70,2|0,0:0|0:0,0:0:0:0:
298,42,82582,1,2,0:0:0:0:
88,96,82736,1,0,0:0:0:0:
85,278,82889,2,0,P|130:308|159:316,1,70,2|0,0:0|0:0,0:0:0:0:
279,311,83195,1,2,0:0:0:0:
420,159,83348,1,0,0:0:0:0:
193,60,83654,6,0,P|145:75|130:97,1,70
72,182,84113,1,0,0:0:0:0:
128,288,84266,2,0,B|187:350|221:342|263:273|307:275|384:320,1,280
96,96,85797,5,0,0:0:0:0:
416,96,86179,5,0,0:0:0:0:
256,192,86409,12,0,89666,0:0:0:0:
