osu file format v14

[General]
AudioFilename: audio.mp3
AudioLeadIn: 0
PreviewTime: 61426
Countdown: 0
SampleSet: Normal
StackLeniency: 0.7
Mode: 1
LetterboxInBreaks: 0
WidescreenStoryboard: 0

[Editor]
DistanceSpacing: 1
BeatDivisor: 4
GridSize: 32
TimelineZoom: 2.6

[Metadata]
Title:Koi? de Ai? de Boukun desu!
TitleUnicode:恋?で愛?で暴君です!
Artist:Wake Up, Girls!
ArtistUnicode:Wake Up, Girls!
Creator:IControl
Version:Oni
Source:恋愛暴君
Tags:Renai Boukun, Love Tyrant xfraczynho
BeatmapID:1313340
BeatmapSetID:622911

[Difficulty]
HPDrainRate:6
CircleSize:2
OverallDifficulty:5.5
ApproachRate:10
SliderMultiplier:1.4
SliderTickRate:1

[Events]
//Background and Video events
0,0,"838309.jpg",0,0
//Break Periods
//Storyboard Layer 0 (Background)
//Storyboard Layer 1 (Fail)
//Storyboard Layer 2 (Pass)
//Storyboard Layer 3 (Foreground)
//Storyboard Sound Samples

[TimingPoints]
202,306.122448979592,4,1,0,80,1,0
61426,-100,4,1,0,80,0,1
81018,-100,4,1,0,80,0,0
117753,-100,4,1,0,80,0,1
137344,-100,4,1,0,80,0,0
196732,306.122448979592,4,1,0,80,1,0
197038,-100,4,1,0,80,0,1
223671,-100,4,1,0,80,0,0

[HitObjects]
256,192,202,5,4,0:0:0:0:
256,192,508,1,8,0:0:0:0:
256,192,661,1,0,0:0:0:0:
256,192,967,1,0,0:0:0:0:
256,192,1273,1,0,0:0:0:0:
256,192,1579,1,8,0:0:0:0:
256,192,1885,1,0,0:0:0:0:
256,192,2191,1,0,0:0:0:0:
256,192,2268,1,0,0:0:0:0:
256,192,2344,1,8,0:0:0:0:
256,192,2497,1,8,0:0:0:0:
256,192,2650,1,4,0:0:0:0:
256,192,2957,1,8,0:0:0:0:
256,192,3110,1,0,0:0:0:0:
256,192,3416,1,0,0:0:0:0:
256,192,3722,1,8,0:0:0:0:
256,192,4028,1,8,0:0:0:0:
256,192,4334,1,8,0:0:0:0:
256,192,4640,1,12,0:0:0:0:
256,192,4793,1,12,0:0:0:0:
256,192,5099,1,4,0:0:0:0:
256,192,5406,1,12,0:0:0:0:
256,192,5559,1,12,0:0:0:0:
256,192,5865,1,4,0:0:0:0:
256,192,6171,1,4,0:0:0:0:
256,192,6477,1,12,0:0:0:0:
256,192,6783,1,4,0:0:0:0:
224,160,7089,1,12,0:0:0:0:
224,160,7395,1,8,0:0:0:0:
224,160,7472,1,8,0:0:0:0:
224,160,7548,1,0,0:0:0:0:
256,192,8773,1,0,0:0:0:0:
256,192,9079,1,0,0:0:0:0:
256,192,9385,1,0,0:0:0:0:
256,192,9538,1,0,0:0:0:0:
256,192,9691,1,8,0:0:0:0:
224,160,9997,5,4,0:0:0:0:
224,160,10304,1,8,0:0:0:0:
224,160,10457,1,0,0:0:0:0:
224,160,10533,1,0,0:0:0:0:
224,160,10610,1,8,0:0:0:0:
224,160,10763,1,8,0:0:0:0:
224,160,10916,1,0,0:0:0:0:
224,160,11069,1,8,0:0:0:0:
224,160,11375,1,0,0:0:0:0:
224,160,11528,1,8,0:0:0:0:
224,160,11681,1,0,0:0:0:0:
224,160,11834,1,8,0:0:0:0:
224,160,12140,1,0,0:0:0:0:
256,160,12446,1,8,0:0:0:0:
224,160,12753,1,8,0:0:0:0:
224,160,12906,1,0,0:0:0:0:
224,160,12982,1,0,0:0:0:0:
256,160,13059,1,8,0:0:0:0:
224,160,13212,1,8,0:0:0:0:
224,160,13365,1,0,0:0:0:0:
256,160,13518,1,8,0:0:0:0:
224,160,13824,1,0,0:0:0:0:
256,160,13977,1,8,0:0:0:0:
256,160,14130,1,0,0:0:0:0:
224,160,14207,1,0,0:0:0:0:
256,160,14283,1,0,0:0:0:0:
224,160,14436,1,0,0:0:0:0:
256,160,14589,1,8,0:0:0:0:
256,160,14895,1,4,0:0:0:0:
224,160,15202,1,8,0:0:0:0:
256,160,15355,1,0,0:0:0:0:
256,160,15431,1,0,0:0:0:0:
256,160,15508,1,8,0:0:0:0:
256,160,15661,1,8,0:0:0:0:
256,160,15814,1,0,0:0:0:0:
256,160,15967,1,8,0:0:0:0:
256,160,16273,1,8,0:0:0:0:
256,160,16349,1,8,0:0:0:0:
256,160,16426,1,0,0:0:0:0:
256,160,16579,1,0,0:0:0:0:
256,160,16732,1,8,0:0:0:0:
256,160,17038,1,8,0:0:0:0:
320,192,17344,1,8,0:0:0:0:
320,192,17497,1,8,0:0:0:0:
192,160,17574,1,8,0:0:0:0:
192,160,17650,1,0,0:0:0:0:
192,160,17804,1,0,0:0:0:0:
192,160,17880,1,0,0:0:0:0:
320,192,17957,1,8,0:0:0:0:
192,160,18110,1,8,0:0:0:0:
192,160,18263,1,0,0:0:0:0:
320,192,18416,1,8,0:0:0:0:
192,160,18722,1,0,0:0:0:0:
320,192,18875,1,8,0:0:0:0:
320,192,19028,1,0,0:0:0:0:
320,192,19105,1,0,0:0:0:0:
320,192,19181,1,0,0:0:0:0:
192,160,19334,1,0,0:0:0:0:
320,192,19487,1,8,0:0:0:0:
320,192,19793,1,12,0:0:0:0:
320,192,20099,1,8,0:0:0:0:
320,192,20253,1,0,0:0:0:0:
320,192,20329,1,0,0:0:0:0:
320,192,20406,1,8,0:0:0:0:
320,192,20559,1,8,0:0:0:0:
320,192,20712,1,0,0:0:0:0:
320,192,20865,1,8,0:0:0:0:
320,192,21171,1,0,0:0:0:0:
320,192,21324,1,8,0:0:0:0:
320,192,21477,1,0,0:0:0:0:
320,192,21630,1,0,0:0:0:0:
320,192,21783,1,8,0:0:0:0:
320,192,21936,1,8,0:0:0:0:
320,192,22242,1,0,0:0:0:0:
320,192,22548,1,8,0:0:0:0:
320,192,22702,1,0,0:0:0:0:
320,192,22779,1,0,0:0:0:0:
320,192,22855,1,0,0:0:0:0:
320,192,23008,1,8,0:0:0:0:
320,192,23161,1,0,0:0:0:0:
320,192,23314,1,8,0:0:0:0:
320,192,23620,1,0,0:0:0:0:
320,192,23773,1,8,0:0:0:0:
320,192,23926,1,0,0:0:0:0:
320,192,24079,1,8,0:0:0:0:
320,192,24232,1,8,0:0:0:0:
320,192,24385,1,0,0:0:0:0:
320,192,24691,1,12,0:0:0:0:
320,192,24997,1,8,0:0:0:0:
320,192,25151,1,0,0:0:0:0:
320,192,25227,1,0,0:0:0:0:
320,192,25304,1,8,0:0:0:0:
320,192,25457,1,8,0:0:0:0:
320,192,25610,1,0,0:0:0:0:
320,192,25763,1,8,0:0:0:0:
320,192,26069,1,0,0:0:0:0:
320,192,26222,1,8,0:0:0:0:
320,192,26375,1,0,0:0:0:0:
320,192,26528,1,0,0:0:0:0:
320,192,26681,1,8,0:0:0:0:
320,192,26834,1,8,0:0:0:0:
320,192,27140,1,0,0:0:0:0:
320,192,27446,1,8,0:0:0:0:
320,192,27600,1,0,0:0:0:0:
320,192,27676,1,0,0:0:0:0:
320,192,27753,1,0,0:0:0:0:
320,192,27906,1,8,0:0:0:0:
320,192,28059,1,0,0:0:0:0:
320,192,28212,1,8,0:0:0:0:
320,192,28518,1,0,0:0:0:0:
320,192,28671,1,8,0:0:0:0:
320,192,28824,1,0,0:0:0:0:
320,192,28900,1,0,0:0:0:0:
320,192,28977,1,0,0:0:0:0:
320,192,29130,1,8,0:0:0:0:
320,192,29283,1,8,0:0:0:0:
224,160,29589,5,12,0:0:0:0:
224,160,29895,1,8,0:0:0:0:
224,160,30049,1,0,0:0:0:0:
224,160,30125,1,0,0:0:0:0:
224,160,30202,1,8,0:0:0:0:
224,160,30355,1,8,0:0:0:0:
224,160,30508,1,0,0:0:0:0:
224,160,30661,1,8,0:0:0:0:
224,160,30967,1,0,0:0:0:0:
224,160,31273,1,8,0:0:0:0:
224,160,31426,1,8,0:0:0:0:
224,160,31579,1,0,0:0:0:0:
224,160,31732,1,8,0:0:0:0:
256,160,32038,1,8,0:0:0:0:
224,160,32344,1,8,0:0:0:0:
224,160,32497,1,0,0:0:0:0:
224,160,32574,1,0,0:0:0:0:
256,160,32651,1,8,0:0:0:0:
256,160,32804,1,8,0:0:0:0:
256,160,32957,1,0,0:0:0:0:
256,160,33110,1,8,0:0:0:0:
256,160,33416,1,0,0:0:0:0:
256,160,33569,1,8,0:0:0:0:
256,160,33722,1,8,0:0:0:0:
256,160,33798,1,8,0:0:0:0:
256,160,33875,1,0,0:0:0:0:
256,160,34181,1,8,0:0:0:0:
256,160,34487,1,12,0:0:0:0:
256,160,34793,1,8,0:0:0:0:
256,160,34947,1,0,0:0:0:0:
256,160,35023,1,0,0:0:0:0:
256,160,35099,1,8,0:0:0:0:
256,160,35253,1,8,0:0:0:0:
256,160,35406,1,0,0:0:0:0:
256,160,35559,1,8,0:0:0:0:
256,160,35865,1,0,0:0:0:0:
256,160,36018,1,8,0:0:0:0:
256,160,36171,1,0,0:0:0:0:
256,160,36324,1,8,0:0:0:0:
256,160,36477,1,8,0:0:0:0:
256,160,36630,1,0,0:0:0:0:
320,192,36936,1,8,0:0:0:0:
320,192,37242,1,8,0:0:0:0:
320,192,37395,1,0,0:0:0:0:
256,160,37472,1,0,0:0:0:0:
320,192,37548,1,8,0:0:0:0:
320,192,37702,1,8,0:0:0:0:
256,160,37855,1,0,0:0:0:0:
320,192,38008,1,8,0:0:0:0:
256,160,38314,1,0,0:0:0:0:
320,192,38467,1,8,0:0:0:0:
320,192,38620,1,0,0:0:0:0:
256,160,38696,1,8,0:0:0:0:
320,192,38773,1,0,0:0:0:0:
320,192,38926,1,0,0:0:0:0:
320,192,39079,1,8,0:0:0:0:
320,192,39385,1,12,0:0:0:0:
320,192,39691,1,8,0:0:0:0:
320,192,39845,1,0,0:0:0:0:
320,192,39921,1,0,0:0:0:0:
320,192,39998,1,8,0:0:0:0:
320,192,40151,1,8,0:0:0:0:
320,192,40304,1,0,0:0:0:0:
320,192,40457,1,8,0:0:0:0:
320,192,40610,1,0,0:0:0:0:
320,192,40763,1,0,0:0:0:0:
320,192,40839,1,0,0:0:0:0:
320,192,40916,1,8,0:0:0:0:
320,192,41069,1,0,0:0:0:0:
320,192,41222,1,0,0:0:0:0:
320,192,41375,1,8,0:0:0:0:
320,192,41528,1,8,0:0:0:0:
320,192,41834,1,0,0:0:0:0:
320,192,42140,1,8,0:0:0:0:
320,192,42294,1,0,0:0:0:0:
320,192,42371,1,0,0:0:0:0:
320,192,42447,1,0,0:0:0:0:
320,192,42600,1,8,0:0:0:0:
320,192,42753,1,0,0:0:0:0:
320,192,42906,1,8,0:0:0:0:
320,192,43212,1,0,0:0:0:0:
320,192,43365,1,8,0:0:0:0:
320,192,43518,1,0,0:0:0:0:
320,192,43671,1,8,0:0:0:0:
320,192,43824,1,8,0:0:0:0:
320,192,43977,1,0,0:0:0:0:
320,192,44283,1,12,0:0:0:0:
320,192,44589,1,8,0:0:0:0:
320,192,44743,1,0,0:0:0:0:
320,192,44819,1,0,0:0:0:0:
320,192,44896,1,8,0:0:0:0:
320,192,45049,1,8,0:0:0:0:
320,192,45202,1,0,0:0:0:0:
320,192,45355,1,8,0:0:0:0:
320,192,45661,1,8,0:0:0:0:
320,192,45814,1,0,0:0:0:0:
320,192,45967,1,0,0:0:0:0:
320,192,46043,1,0,0:0:0:0:
320,192,46120,1,8,0:0:0:0:
320,192,46273,1,8,0:0:0:0:
320,192,46426,1,8,0:0:0:0:
320,192,46732,1,0,0:0:0:0:
320,192,47038,1,8,0:0:0:0:
320,192,47192,1,0,0:0:0:0:
320,192,47268,1,0,0:0:0:0:
320,192,47345,1,0,0:0:0:0:
320,192,47498,1,8,0:0:0:0:
320,192,47651,1,0,0:0:0:0:
320,192,47804,1,8,0:0:0:0:
320,192,48110,1,0,0:0:0:0:
320,192,48263,1,8,0:0:0:0:
320,192,48416,1,0,0:0:0:0:
320,192,48492,1,0,0:0:0:0:
320,192,48569,1,0,0:0:0:0:
320,192,48722,1,8,0:0:0:0:
320,192,48875,5,8,0:0:0:0:
224,160,49181,5,12,0:0:0:0:
224,160,49487,1,8,0:0:0:0:
224,160,49640,1,0,0:0:0:0:
224,160,49946,1,8,0:0:0:0:
256,192,50253,1,0,0:0:0:0:
256,192,50559,1,8,0:0:0:0:
256,192,50865,1,0,0:0:0:0:
256,192,51171,1,0,0:0:0:0:
256,192,51247,1,0,0:0:0:0:
256,192,51324,1,8,0:0:0:0:
256,192,51477,1,8,0:0:0:0:
256,192,51630,1,0,0:0:0:0:
256,192,51936,1,8,0:0:0:0:
256,192,52089,1,0,0:0:0:0:
256,192,52395,1,0,0:0:0:0:
256,192,52702,1,8,0:0:0:0:
256,192,53008,1,8,0:0:0:0:
256,192,53314,1,8,0:0:0:0:
256,192,53620,1,12,0:0:0:0:
256,192,53773,1,12,0:0:0:0:
256,192,54079,1,4,0:0:0:0:
256,192,54385,1,12,0:0:0:0:
256,192,54538,1,12,0:0:0:0:
256,192,54844,1,4,0:0:0:0:
256,192,55150,1,12,0:0:0:0:
256,192,55457,1,12,0:0:0:0:
256,192,55763,1,4,0:0:0:0:
256,192,56069,1,12,0:0:0:0:
256,192,56528,1,8,0:0:0:0:
256,192,58212,1,0,0:0:0:0:
256,192,58288,1,0,0:0:0:0:
256,192,58365,1,8,0:0:0:0:
256,192,58518,1,0,0:0:0:0:
256,192,58671,1,8,0:0:0:0:
256,192,58977,1,12,0:0:0:0:
256,192,59130,1,0,0:0:0:0:
256,192,59283,1,0,0:0:0:0:
256,192,59436,1,12,0:0:0:0:
256,192,59589,1,0,0:0:0:0:
256,192,59742,1,0,0:0:0:0:
256,192,59895,1,8,0:0:0:0:
256,192,60048,1,0,0:0:0:0:
256,192,60125,1,0,0:0:0:0:
256,192,60202,1,0,0:0:0:0:
256,192,60355,1,8,0:0:0:0:
256,192,60508,1,0,0:0:0:0:
256,192,60661,1,0,0:0:0:0:
256,192,60814,1,8,0:0:0:0:
256,192,60967,1,8,0:0:0:0:
256,192,61043,1,8,0:0:0:0:
256,192,61120,1,8,0:0:0:0:
256,192,61196,1,8,0:0:0:0:
256,192,61273,1,8,0:0:0:0:
256,192,61426,5,4,0:0:0:0:
256,192,61732,1,8,0:0:0:0:
256,192,62038,1,0,0:0:0:0:
256,192,62191,1,0,0:0:0:0:
256,192,62344,1,8,0:0:0:0:
256,192,62650,1,8,0:0:0:0:
256,192,62957,1,8,0:0:0:0:
256,192,63110,1,0,0:0:0:0:
256,192,63416,1,0,0:0:0:0:
256,192,63492,1,0,0:0:0:0:
256,192,63569,1,8,0:0:0:0:
256,192,63722,1,0,0:0:0:0:
256,192,63875,1,12,0:0:0:0:
256,192,64181,1,8,0:0:0:0:
256,192,64487,1,0,0:0:0:0:
256,192,64640,1,8,0:0:0:0:
256,192,64793,1,0,0:0:0:0:
256,192,64870,1,0,0:0:0:0:
256,192,64946,1,0,0:0:0:0:
256,192,65099,1,8,0:0:0:0:
256,192,65406,1,0,0:0:0:0:
256,192,65559,1,0,0:0:0:0:
256,192,65865,1,0,0:0:0:0:
256,192,66018,1,8,0:0:0:0:
256,192,66324,1,4,0:0:0:0:
256,192,66630,1,8,0:0:0:0:
256,192,66936,1,8,0:0:0:0:
256,192,67089,1,0,0:0:0:0:
256,192,67242,1,8,0:0:0:0:
256,192,67548,1,8,0:0:0:0:
256,192,67855,1,8,0:0:0:0:
256,192,68161,1,0,0:0:0:0:
256,192,68314,1,0,0:0:0:0:
256,192,68467,1,8,0:0:0:0:
256,192,68773,1,4,0:0:0:0:
256,192,69079,1,12,0:0:0:0:
256,192,69385,1,12,0:0:0:0:
256,192,69691,1,8,0:0:0:0:
256,192,69844,1,0,0:0:0:0:
256,192,69921,1,0,0:0:0:0:
256,192,69997,1,8,0:0:0:0:
256,192,70074,1,8,0:0:0:0:
256,192,70150,1,0,0:0:0:0:
256,192,70304,1,8,0:0:0:0:
256,192,70457,1,0,0:0:0:0:
256,192,70610,1,0,0:0:0:0:
256,192,70763,1,8,0:0:0:0:
256,192,70839,1,8,0:0:0:0:
256,192,70916,1,8,0:0:0:0:
256,192,71069,1,8,0:0:0:0:
256,192,71222,1,4,0:0:0:0:
256,192,71528,1,8,0:0:0:0:
256,192,71834,1,0,0:0:0:0:
256,192,71987,1,0,0:0:0:0:
256,192,72140,1,8,0:0:0:0:
256,192,72217,1,0,0:0:0:0:
256,192,72293,1,8,0:0:0:0:
256,192,72446,1,4,0:0:0:0:
256,192,72599,1,0,0:0:0:0:
256,192,72753,1,8,0:0:0:0:
256,192,72906,1,0,0:0:0:0:
256,192,73212,1,0,0:0:0:0:
256,192,73288,1,0,0:0:0:0:
256,192,73365,1,8,0:0:0:0:
256,192,73518,1,0,0:0:0:0:
256,192,73671,1,12,0:0:0:0:
256,192,73977,1,8,0:0:0:0:
256,192,74130,1,0,0:0:0:0:
256,192,74283,1,8,0:0:0:0:
256,192,74360,1,0,0:0:0:0:
256,192,74436,1,8,0:0:0:0:
256,192,74589,1,8,0:0:0:0:
256,192,74742,1,0,0:0:0:0:
256,192,74895,1,12,0:0:0:0:
256,192,75202,1,8,0:0:0:0:
256,192,75355,1,0,0:0:0:0:
256,192,75661,1,0,0:0:0:0:
256,192,75814,1,8,0:0:0:0:
256,192,75967,1,8,0:0:0:0:
256,192,76120,1,4,0:0:0:0:
256,192,76426,1,8,0:0:0:0:
256,192,76732,1,12,0:0:0:0:
256,192,77038,1,8,0:0:0:0:
256,192,77344,1,4,0:0:0:0:
256,192,77650,1,8,0:0:0:0:
256,192,77957,1,0,0:0:0:0:
256,192,78263,1,0,0:0:0:0:
256,192,78569,1,8,0:0:0:0:
256,192,78645,1,8,0:0:0:0:
256,192,78722,1,8,0:0:0:0:
256,192,78798,1,8,0:0:0:0:
256,192,78875,1,0,0:0:0:0:
256,192,79028,1,0,0:0:0:0:
256,192,79181,1,8,0:0:0:0:
256,192,79334,1,0,0:0:0:0:
256,192,79487,1,8,0:0:0:0:
256,192,79640,1,8,0:0:0:0:
256,192,79717,1,0,0:0:0:0:
256,192,79793,1,8,0:0:0:0:
256,192,79946,1,0,0:0:0:0:
256,192,80023,1,0,0:0:0:0:
256,192,80099,1,8,0:0:0:0:
256,192,80253,1,8,0:0:0:0:
256,192,80406,1,0,0:0:0:0:
256,192,80559,1,8,0:0:0:0:
256,192,80635,1,8,0:0:0:0:
256,192,80712,1,8,0:0:0:0:
256,192,80865,1,8,0:0:0:0:
256,192,81018,1,4,0:0:0:0:
256,192,81324,1,8,0:0:0:0:
256,192,81477,1,4,0:0:0:0:
256,192,81783,1,4,0:0:0:0:
256,192,82089,1,12,0:0:0:0:
256,192,82395,1,4,0:0:0:0:
256,192,82702,1,12,0:0:0:0:
256,192,83008,1,4,0:0:0:0:
256,192,83161,1,12,0:0:0:0:
256,192,83467,1,8,0:0:0:0:
256,192,84691,1,0,0:0:0:0:
256,192,84997,1,0,0:0:0:0:
256,192,85304,1,0,0:0:0:0:
256,192,85380,1,0,0:0:0:0:
256,192,85457,1,0,0:0:0:0:
256,192,85610,1,8,0:0:0:0:
224,160,85916,5,4,0:0:0:0:
224,160,86222,1,8,0:0:0:0:
224,160,86376,1,0,0:0:0:0:
224,160,86452,1,0,0:0:0:0:
224,160,86529,1,8,0:0:0:0:
224,160,86682,1,8,0:0:0:0:
224,160,86835,1,0,0:0:0:0:
224,160,86988,1,8,0:0:0:0:
224,160,87294,1,0,0:0:0:0:
224,160,87446,1,8,0:0:0:0:
224,160,87600,1,8,0:0:0:0:
224,160,87753,1,8,0:0:0:0:
224,160,87906,1,0,0:0:0:0:
224,160,88059,1,8,0:0:0:0:
256,160,88365,1,8,0:0:0:0:
224,160,88671,1,8,0:0:0:0:
224,160,88824,1,0,0:0:0:0:
224,160,88901,1,0,0:0:0:0:
256,160,88978,1,8,0:0:0:0:
256,160,89131,1,8,0:0:0:0:
256,160,89284,1,0,0:0:0:0:
256,160,89437,1,8,0:0:0:0:
256,160,89743,1,0,0:0:0:0:
256,160,89896,1,8,0:0:0:0:
256,160,90049,1,8,0:0:0:0:
256,160,90125,1,8,0:0:0:0:
256,160,90202,1,0,0:0:0:0:
256,160,90508,1,8,0:0:0:0:
256,160,90814,1,12,0:0:0:0:
256,160,91120,1,8,0:0:0:0:
256,160,91274,1,0,0:0:0:0:
256,160,91350,1,0,0:0:0:0:
256,160,91426,1,8,0:0:0:0:
256,160,91580,1,8,0:0:0:0:
256,160,91733,1,0,0:0:0:0:
256,160,91886,1,8,0:0:0:0:
256,160,92192,1,0,0:0:0:0:
256,160,92345,1,8,0:0:0:0:
256,160,92498,1,0,0:0:0:0:
256,160,92651,1,8,0:0:0:0:
256,160,92804,1,8,0:0:0:0:
256,160,92957,1,0,0:0:0:0:
320,192,93263,1,8,0:0:0:0:
320,192,93569,1,8,0:0:0:0:
320,192,93722,1,0,0:0:0:0:
320,192,93798,1,0,0:0:0:0:
320,192,93875,1,8,0:0:0:0:
320,192,94029,1,8,0:0:0:0:
256,160,94182,1,0,0:0:0:0:
320,192,94335,1,8,0:0:0:0:
256,160,94641,1,0,0:0:0:0:
320,192,94794,1,8,0:0:0:0:
320,192,94947,1,0,0:0:0:0:
256,160,95023,1,8,0:0:0:0:
320,192,95100,1,0,0:0:0:0:
320,192,95253,1,0,0:0:0:0:
320,192,95406,1,8,0:0:0:0:
320,192,95712,1,12,0:0:0:0:
320,192,96018,1,8,0:0:0:0:
320,192,96172,1,0,0:0:0:0:
320,192,96248,1,0,0:0:0:0:
320,192,96325,1,8,0:0:0:0:
320,192,96478,1,8,0:0:0:0:
320,192,96631,1,0,0:0:0:0:
320,192,96784,1,8,0:0:0:0:
320,192,96937,1,0,0:0:0:0:
320,192,97090,1,0,0:0:0:0:
320,192,97166,1,0,0:0:0:0:
320,192,97243,1,8,0:0:0:0:
320,192,97396,1,0,0:0:0:0:
320,192,97549,1,0,0:0:0:0:
320,192,97702,1,8,0:0:0:0:
320,192,97855,1,8,0:0:0:0:
320,192,98161,1,0,0:0:0:0:
320,192,98467,1,8,0:0:0:0:
320,192,98620,1,0,0:0:0:0:
320,192,98696,1,0,0:0:0:0:
320,192,98773,1,0,0:0:0:0:
320,192,98927,1,8,0:0:0:0:
320,192,99080,1,0,0:0:0:0:
320,192,99233,1,8,0:0:0:0:
320,192,99539,1,0,0:0:0:0:
320,192,99692,1,8,0:0:0:0:
320,192,99845,1,0,0:0:0:0:
320,192,99997,1,8,0:0:0:0:
320,192,100151,1,8,0:0:0:0:
320,192,100304,1,0,0:0:0:0:
320,192,100610,1,12,0:0:0:0:
320,192,100916,1,8,0:0:0:0:
320,192,101070,1,0,0:0:0:0:
320,192,101146,1,0,0:0:0:0:
320,192,101223,1,8,0:0:0:0:
320,192,101376,1,8,0:0:0:0:
320,192,101529,1,0,0:0:0:0:
320,192,101682,1,8,0:0:0:0:
320,192,101987,1,0,0:0:0:0:
320,192,102140,1,8,0:0:0:0:
320,192,102294,1,0,0:0:0:0:
320,192,102447,1,8,0:0:0:0:
320,192,102599,1,8,0:0:0:0:
320,192,102753,1,8,0:0:0:0:
320,192,103059,1,0,0:0:0:0:
320,192,103365,1,8,0:0:0:0:
320,192,103519,1,0,0:0:0:0:
320,192,103595,1,0,0:0:0:0:
320,192,103672,1,0,0:0:0:0:
320,192,103825,1,8,0:0:0:0:
320,192,103978,1,0,0:0:0:0:
320,192,104131,1,8,0:0:0:0:
320,192,104437,1,0,0:0:0:0:
320,192,104590,1,8,0:0:0:0:
320,192,104743,1,0,0:0:0:0:
320,192,104819,1,0,0:0:0:0:
320,192,104895,1,0,0:0:0:0:
320,192,105049,1,8,0:0:0:0:
320,192,105202,5,0,0:0:0:0:
224,160,105355,1,0,0:0:0:0:
224,160,105508,5,12,0:0:0:0:
224,160,105814,1,8,0:0:0:0:
224,160,105967,1,0,0:0:0:0:
224,160,106273,1,8,0:0:0:0:
256,192,106580,1,0,0:0:0:0:
256,192,106886,1,8,0:0:0:0:
256,192,107192,1,0,0:0:0:0:
256,192,107498,1,0,0:0:0:0:
256,192,107574,1,0,0:0:0:0:
256,192,107651,1,8,0:0:0:0:
256,192,107804,1,8,0:0:0:0:
256,192,107957,1,0,0:0:0:0:
256,192,108263,1,8,0:0:0:0:
256,192,108416,1,0,0:0:0:0:
256,192,108722,1,0,0:0:0:0:
256,192,109029,1,8,0:0:0:0:
256,192,109335,1,8,0:0:0:0:
256,192,109641,1,8,0:0:0:0:
256,192,109947,1,12,0:0:0:0:
256,192,110100,1,12,0:0:0:0:
256,192,110406,1,4,0:0:0:0:
256,192,110712,1,12,0:0:0:0:
256,192,110865,1,12,0:0:0:0:
256,192,111171,1,4,0:0:0:0:
256,192,111477,1,12,0:0:0:0:
256,192,111784,1,12,0:0:0:0:
256,192,112090,1,4,0:0:0:0:
256,192,112396,1,12,0:0:0:0:
256,192,112702,1,0,0:0:0:0:
256,192,112778,1,0,0:0:0:0:
256,192,112855,1,8,0:0:0:0:
256,192,114692,1,0,0:0:0:0:
256,192,114768,1,0,0:0:0:0:
256,192,114845,1,0,0:0:0:0:
256,192,114998,1,8,0:0:0:0:
256,192,115304,1,12,0:0:0:0:
256,192,115457,1,0,0:0:0:0:
256,192,115610,1,0,0:0:0:0:
256,192,115763,1,12,0:0:0:0:
256,192,115916,1,0,0:0:0:0:
256,192,116069,1,0,0:0:0:0:
256,192,116222,1,8,0:0:0:0:
256,192,116375,1,0,0:0:0:0:
256,192,116452,1,0,0:0:0:0:
256,192,116529,1,0,0:0:0:0:
256,192,116682,1,8,0:0:0:0:
256,192,116835,1,8,0:0:0:0:
256,192,116988,1,0,0:0:0:0:
256,192,117141,1,8,0:0:0:0:
256,192,117294,1,8,0:0:0:0:
256,192,117370,1,8,0:0:0:0:
256,192,117447,1,8,0:0:0:0:
256,192,117523,1,8,0:0:0:0:
256,192,117600,1,8,0:0:0:0:
256,192,117753,5,4,0:0:0:0:
256,192,118059,1,8,0:0:0:0:
256,192,118365,1,0,0:0:0:0:
256,192,118518,1,0,0:0:0:0:
256,192,118671,1,8,0:0:0:0:
256,192,118824,1,0,0:0:0:0:
256,192,118977,1,8,0:0:0:0:
256,192,119284,1,8,0:0:0:0:
256,192,119437,1,0,0:0:0:0:
256,192,119743,1,0,0:0:0:0:
256,192,119819,1,0,0:0:0:0:
256,192,119896,1,8,0:0:0:0:
256,192,120049,1,0,0:0:0:0:
256,192,120202,1,12,0:0:0:0:
256,192,120508,1,8,0:0:0:0:
256,192,120814,1,0,0:0:0:0:
256,192,120967,1,8,0:0:0:0:
256,192,121120,1,0,0:0:0:0:
256,192,121197,1,0,0:0:0:0:
256,192,121273,1,0,0:0:0:0:
256,192,121426,1,8,0:0:0:0:
256,192,121733,1,0,0:0:0:0:
256,192,121886,1,0,0:0:0:0:
256,192,122192,1,0,0:0:0:0:
256,192,122345,1,8,0:0:0:0:
256,192,122651,1,4,0:0:0:0:
256,192,122957,1,8,0:0:0:0:
256,192,123263,1,8,0:0:0:0:
256,192,123416,1,0,0:0:0:0:
256,192,123569,1,8,0:0:0:0:
256,192,123875,1,8,0:0:0:0:
256,192,124182,1,8,0:0:0:0:
256,192,124488,1,0,0:0:0:0:
256,192,124641,1,0,0:0:0:0:
256,192,124794,1,8,0:0:0:0:
256,192,125099,1,4,0:0:0:0:
256,192,125406,1,12,0:0:0:0:
256,192,125712,1,12,0:0:0:0:
256,192,126018,1,8,0:0:0:0:
256,192,126171,1,0,0:0:0:0:
256,192,126248,1,0,0:0:0:0:
256,192,126324,1,8,0:0:0:0:
256,192,126401,1,8,0:0:0:0:
256,192,126477,1,0,0:0:0:0:
256,192,126631,1,8,0:0:0:0:
256,192,126784,1,0,0:0:0:0:
256,192,126937,1,0,0:0:0:0:
256,192,127090,1,8,0:0:0:0:
256,192,127166,1,8,0:0:0:0:
256,192,127243,1,8,0:0:0:0:
256,192,127396,1,8,0:0:0:0:
256,192,127549,1,4,0:0:0:0:
256,192,127855,1,0,0:0:0:0:
256,192,128008,1,8,0:0:0:0:
256,192,128314,1,0,0:0:0:0:
256,192,128467,1,8,0:0:0:0:
256,192,128544,1,0,0:0:0:0:
256,192,128620,1,8,0:0:0:0:
256,192,128773,1,4,0:0:0:0:
256,192,128926,1,0,0:0:0:0:
256,192,129080,1,8,0:0:0:0:
256,192,129233,1,0,0:0:0:0:
256,192,129539,1,0,0:0:0:0:
256,192,129615,1,0,0:0:0:0:
256,192,129692,1,8,0:0:0:0:
256,192,129845,1,0,0:0:0:0:
256,192,129998,1,12,0:0:0:0:
256,192,130304,1,8,0:0:0:0:
256,192,130457,1,0,0:0:0:0:
256,192,130610,1,8,0:0:0:0:
256,192,130687,1,0,0:0:0:0:
256,192,130763,1,8,0:0:0:0:
256,192,130916,1,8,0:0:0:0:
256,192,131069,1,0,0:0:0:0:
256,192,131222,1,12,0:0:0:0:
256,192,131529,1,8,0:0:0:0:
256,192,131682,1,0,0:0:0:0:
256,192,131988,1,0,0:0:0:0:
256,192,132141,1,8,0:0:0:0:
256,192,132294,1,8,0:0:0:0:
256,192,132446,1,4,0:0:0:0:
256,192,132753,1,8,0:0:0:0:
256,192,133059,1,12,0:0:0:0:
256,192,133365,1,8,0:0:0:0:
256,192,133671,1,4,0:0:0:0:
256,192,133977,1,8,0:0:0:0:
256,192,134283,1,0,0:0:0:0:
256,192,134589,1,0,0:0:0:0:
256,192,134895,1,8,0:0:0:0:
256,192,134972,1,8,0:0:0:0:
256,192,135048,1,8,0:0:0:0:
256,192,135124,1,8,0:0:0:0:
256,192,135201,1,0,0:0:0:0:
256,192,135354,1,0,0:0:0:0:
256,192,135507,1,8,0:0:0:0:
256,192,135660,1,0,0:0:0:0:
256,192,135813,1,8,0:0:0:0:
256,192,135967,1,8,0:0:0:0:
256,192,136043,1,0,0:0:0:0:
256,192,136120,1,8,0:0:0:0:
256,192,136272,1,0,0:0:0:0:
256,192,136349,1,0,0:0:0:0:
256,192,136425,1,8,0:0:0:0:
256,192,136579,1,8,0:0:0:0:
256,192,136732,1,0,0:0:0:0:
256,192,136885,1,8,0:0:0:0:
256,192,137038,1,0,0:0:0:0:
256,192,137191,1,0,0:0:0:0:
256,192,137345,5,4,0:0:0:0:
256,192,137650,1,0,0:0:0:0:
256,192,137727,1,0,0:0:0:0:
256,192,137804,1,0,0:0:0:0:
256,192,138110,1,0,0:0:0:0:
256,192,138263,1,8,0:0:0:0:
256,192,138569,1,0,0:0:0:0:
256,192,138875,1,0,0:0:0:0:
256,192,138952,1,0,0:0:0:0:
256,192,139028,1,0,0:0:0:0:
256,192,139334,1,8,0:0:0:0:
256,192,139487,1,8,0:0:0:0:
256,192,139793,1,0,0:0:0:0:
256,192,140099,1,0,0:0:0:0:
256,192,140176,1,0,0:0:0:0:
256,192,140253,1,0,0:0:0:0:
256,192,140559,1,0,0:0:0:0:
256,192,140712,1,8,0:0:0:0:
256,192,140865,1,8,0:0:0:0:
256,192,141018,1,0,0:0:0:0:
256,192,141324,1,0,0:0:0:0:
256,192,141400,1,0,0:0:0:0:
256,192,141477,1,0,0:0:0:0:
256,192,141783,1,8,0:0:0:0:
256,192,141936,1,8,0:0:0:0:
256,192,142242,1,4,0:0:0:0:
256,192,142547,1,0,0:0:0:0:
256,192,142701,1,0,0:0:0:0:
256,192,142778,1,0,0:0:0:0:
256,192,142855,1,0,0:0:0:0:
256,192,143007,1,0,0:0:0:0:
256,192,143160,1,8,0:0:0:0:
256,192,143466,1,0,0:0:0:0:
256,192,143772,1,8,0:0:0:0:
256,192,143925,1,8,0:0:0:0:
256,192,144003,1,0,0:0:0:0:
256,192,144079,1,8,0:0:0:0:
256,192,144232,1,0,0:0:0:0:
256,192,144384,1,8,0:0:0:0:
256,192,144691,1,4,0:0:0:0:
256,192,144996,1,8,0:0:0:0:
256,192,145150,1,0,0:0:0:0:
256,192,145227,1,0,0:0:0:0:
256,192,145304,1,0,0:0:0:0:
256,192,145456,1,0,0:0:0:0:
256,192,145609,1,8,0:0:0:0:
256,192,145915,1,0,0:0:0:0:
256,192,146221,1,0,0:0:0:0:
256,192,146298,1,0,0:0:0:0:
256,192,146374,1,8,0:0:0:0:
256,192,146680,1,0,0:0:0:0:
256,192,146833,1,8,0:0:0:0:
256,192,146987,1,0,0:0:0:0:
256,192,147140,1,4,0:0:0:0:
256,192,147445,1,0,0:0:0:0:
256,192,147523,1,0,0:0:0:0:
256,192,147599,1,0,0:0:0:0:
256,192,147906,1,0,0:0:0:0:
256,192,148059,1,8,0:0:0:0:
256,192,148364,1,0,0:0:0:0:
256,192,148670,1,0,0:0:0:0:
256,192,148747,1,0,0:0:0:0:
256,192,148823,1,8,0:0:0:0:
256,192,149130,1,8,0:0:0:0:
256,192,149283,1,0,0:0:0:0:
256,192,149436,1,8,0:0:0:0:
256,192,149589,1,4,0:0:0:0:
256,192,149894,1,0,0:0:0:0:
256,192,149972,1,0,0:0:0:0:
256,192,150048,1,0,0:0:0:0:
256,192,150355,1,0,0:0:0:0:
256,192,150507,1,8,0:0:0:0:
256,192,150813,1,0,0:0:0:0:
256,192,151119,1,0,0:0:0:0:
256,192,151196,1,0,0:0:0:0:
256,192,151273,1,8,0:0:0:0:
256,192,151578,1,8,0:0:0:0:
256,192,151731,1,0,0:0:0:0:
256,192,151885,1,8,0:0:0:0:
256,192,152038,1,4,0:0:0:0:
256,192,152343,1,0,0:0:0:0:
256,192,152497,1,0,0:0:0:0:
256,192,152650,1,0,0:0:0:0:
256,192,152804,1,0,0:0:0:0:
256,192,152957,1,0,0:0:0:0:
256,192,153110,1,0,0:0:0:0:
256,192,153262,1,0,0:0:0:0:
256,192,153416,1,0,0:0:0:0:
256,192,153568,1,0,0:0:0:0:
256,192,153721,1,0,0:0:0:0:
256,192,153875,1,0,0:0:0:0:
256,192,154028,1,0,0:0:0:0:
256,192,154180,1,0,0:0:0:0:
256,192,154334,1,0,0:0:0:0:
256,192,154487,12,0,156783,0:0:0:0:
256,192,156936,5,4,0:0:0:0:
256,192,157140,1,0,0:0:0:0:
256,192,157242,1,8,0:0:0:0:
256,192,157446,1,0,0:0:0:0:
256,192,157548,1,0,0:0:0:0:
256,192,157753,1,0,0:0:0:0:
256,192,157855,1,8,0:0:0:0:
256,192,158161,1,0,0:0:0:0:
256,192,158365,1,0,0:0:0:0:
256,192,158467,1,8,0:0:0:0:
256,192,158671,1,0,0:0:0:0:
256,192,158773,1,0,0:0:0:0:
256,192,158977,1,0,0:0:0:0:
256,192,159079,1,8,0:0:0:0:
256,192,159232,1,0,0:0:0:0:
256,192,159309,1,8,0:0:0:0:
256,192,159385,1,0,0:0:0:0:
256,192,159538,1,0,0:0:0:0:
256,192,159615,1,0,0:0:0:0:
256,192,159691,1,8,0:0:0:0:
256,192,159768,1,8,0:0:0:0:
256,192,159844,1,0,0:0:0:0:
256,192,159997,1,8,0:0:0:0:
256,192,160074,1,8,0:0:0:0:
256,192,160150,1,0,0:0:0:0:
256,192,160304,1,8,0:0:0:0:
256,192,160457,1,0,0:0:0:0:
256,192,160533,1,0,0:0:0:0:
256,192,160610,1,0,0:0:0:0:
256,192,160763,1,8,0:0:0:0:
256,192,160916,1,0,0:0:0:0:
256,192,161222,1,0,0:0:0:0:
256,192,161324,1,0,0:0:0:0:
256,192,161426,1,0,0:0:0:0:
256,192,161528,1,8,0:0:0:0:
256,192,161834,5,12,0:0:0:0:
256,192,162038,1,0,0:0:0:0:
256,192,162140,1,8,0:0:0:0:
256,192,162344,1,0,0:0:0:0:
256,192,162446,1,0,0:0:0:0:
256,192,162650,1,0,0:0:0:0:
256,192,162753,1,8,0:0:0:0:
256,192,163059,1,0,0:0:0:0:
256,192,163263,1,0,0:0:0:0:
256,192,163365,1,8,0:0:0:0:
256,192,163569,1,0,0:0:0:0:
256,192,163671,1,0,0:0:0:0:
256,192,163875,1,0,0:0:0:0:
256,192,163977,1,8,0:0:0:0:
256,192,164130,1,0,0:0:0:0:
256,192,164283,1,8,0:0:0:0:
256,192,164360,1,8,0:0:0:0:
256,192,164436,1,0,0:0:0:0:
256,192,164513,1,0,0:0:0:0:
256,192,164589,1,8,0:0:0:0:
256,192,164742,1,0,0:0:0:0:
256,192,164819,1,8,0:0:0:0:
256,192,164895,1,0,0:0:0:0:
256,192,165048,1,8,0:0:0:0:
256,192,165202,1,0,0:0:0:0:
256,192,165278,1,0,0:0:0:0:
256,192,165355,1,8,0:0:0:0:
256,192,165508,1,0,0:0:0:0:
256,192,165814,1,0,0:0:0:0:
256,192,165967,1,8,0:0:0:0:
256,192,166120,1,0,0:0:0:0:
256,192,166222,1,0,0:0:0:0:
256,192,166324,1,0,0:0:0:0:
256,192,166426,1,8,0:0:0:0:
256,192,166732,5,4,0:0:0:0:
256,192,166936,1,0,0:0:0:0:
256,192,167038,1,8,0:0:0:0:
256,192,167242,1,0,0:0:0:0:
256,192,167344,1,0,0:0:0:0:
256,192,167548,1,0,0:0:0:0:
256,192,167651,1,8,0:0:0:0:
256,192,167957,1,0,0:0:0:0:
256,192,168161,1,0,0:0:0:0:
256,192,168263,1,8,0:0:0:0:
256,192,168467,1,8,0:0:0:0:
256,192,168569,1,0,0:0:0:0:
256,192,168773,1,0,0:0:0:0:
256,192,168875,1,8,0:0:0:0:
256,192,169181,1,0,0:0:0:0:
256,192,169334,1,0,0:0:0:0:
256,192,169487,1,8,0:0:0:0:
256,192,169640,1,0,0:0:0:0:
256,192,169793,1,0,0:0:0:0:
256,192,169946,1,8,0:0:0:0:
256,192,170022,1,0,0:0:0:0:
256,192,170099,1,0,0:0:0:0:
256,192,170253,1,8,0:0:0:0:
256,192,170406,1,0,0:0:0:0:
256,192,170482,1,0,0:0:0:0:
256,192,170559,1,8,0:0:0:0:
256,192,170635,1,8,0:0:0:0:
256,192,170712,1,0,0:0:0:0:
256,192,170865,1,8,0:0:0:0:
256,192,171018,1,0,0:0:0:0:
256,192,171120,1,0,0:0:0:0:
256,192,171222,1,0,0:0:0:0:
256,192,171324,1,8,0:0:0:0:
256,192,171477,1,0,0:0:0:0:
256,192,171630,5,4,0:0:0:0:
256,192,171834,1,0,0:0:0:0:
256,192,171936,1,8,0:0:0:0:
256,192,172140,1,0,0:0:0:0:
256,192,172242,1,0,0:0:0:0:
256,192,172446,1,0,0:0:0:0:
256,192,172549,1,8,0:0:0:0:
256,192,172855,1,8,0:0:0:0:
256,192,172931,1,0,0:0:0:0:
256,192,173008,1,8,0:0:0:0:
256,192,173084,1,8,0:0:0:0:
256,192,173161,1,0,0:0:0:0:
256,192,173314,1,0,0:0:0:0:
256,192,173467,1,8,0:0:0:0:
256,192,173543,1,8,0:0:0:0:
256,192,173620,1,0,0:0:0:0:
256,192,173773,1,8,0:0:0:0:
256,192,173926,1,0,0:0:0:0:
256,192,174079,2,0,L|352:192,14,70
256,192,176528,1,4,0:0:0:0:
256,192,176834,1,8,0:0:0:0:
256,192,176987,1,8,0:0:0:0:
256,192,177293,1,0,0:0:0:0:
256,192,177599,1,8,0:0:0:0:
256,192,177906,1,8,0:0:0:0:
256,192,178212,1,0,0:0:0:0:
256,192,178518,1,8,0:0:0:0:
256,192,178671,1,0,0:0:0:0:
256,192,178824,1,0,0:0:0:0:
256,192,178977,12,0,179895,0:0:0:0:
256,192,180202,5,0,0:0:0:0:
256,192,180661,1,0,0:0:0:0:
256,192,180737,1,0,0:0:0:0:
256,192,180814,1,8,0:0:0:0:
256,192,180967,1,8,0:0:0:0:
256,192,181120,1,0,0:0:0:0:
224,160,181426,5,12,0:0:0:0:
224,160,181732,1,8,0:0:0:0:
224,160,181885,1,0,0:0:0:0:
224,160,182191,1,8,0:0:0:0:
256,192,182498,1,0,0:0:0:0:
256,192,182804,1,8,0:0:0:0:
256,192,183110,1,0,0:0:0:0:
256,192,183416,1,0,0:0:0:0:
256,192,183569,1,8,0:0:0:0:
256,192,183722,1,8,0:0:0:0:
256,192,183875,1,0,0:0:0:0:
256,192,184181,1,8,0:0:0:0:
256,192,184334,1,0,0:0:0:0:
256,192,184640,1,8,0:0:0:0:
256,192,184947,1,0,0:0:0:0:
256,192,185253,1,8,0:0:0:0:
256,192,185559,1,8,0:0:0:0:
256,192,185865,1,12,0:0:0:0:
256,192,186018,1,12,0:0:0:0:
256,192,186324,1,4,0:0:0:0:
256,192,186630,1,12,0:0:0:0:
256,192,186783,1,12,0:0:0:0:
256,192,187089,1,4,0:0:0:0:
256,192,187395,1,12,0:0:0:0:
256,192,187702,1,12,0:0:0:0:
256,192,188008,1,4,0:0:0:0:
256,192,188314,1,12,0:0:0:0:
256,192,188620,1,0,0:0:0:0:
256,192,188696,1,0,0:0:0:0:
256,192,188773,1,8,0:0:0:0:
256,192,190457,1,0,0:0:0:0:
256,192,190533,1,0,0:0:0:0:
256,192,190610,1,8,0:0:0:0:
256,192,190763,1,0,0:0:0:0:
256,192,190916,1,8,0:0:0:0:
256,192,191222,1,8,0:0:0:0:
256,192,191375,1,0,0:0:0:0:
256,192,191528,1,0,0:0:0:0:
256,192,191681,1,8,0:0:0:0:
256,192,191834,1,0,0:0:0:0:
256,192,191987,1,0,0:0:0:0:
256,192,192140,1,8,0:0:0:0:
256,192,192293,1,0,0:0:0:0:
256,192,192370,1,0,0:0:0:0:
256,192,192447,1,0,0:0:0:0:
256,192,192599,1,8,0:0:0:0:
256,192,192753,1,0,0:0:0:0:
256,192,192906,1,0,0:0:0:0:
256,192,193059,1,8,0:0:0:0:
256,192,193212,1,8,0:0:0:0:
256,192,193288,1,8,0:0:0:0:
256,192,193365,1,8,0:0:0:0:
256,192,193441,1,8,0:0:0:0:
256,192,193518,1,8,0:0:0:0:
256,192,193671,1,12,0:0:0:0:
256,192,193824,1,0,0:0:0:0:
256,192,193977,1,0,0:0:0:0:
256,192,194130,1,12,0:0:0:0:
256,192,194283,1,0,0:0:0:0:
256,192,194436,1,0,0:0:0:0:
256,192,194589,1,12,0:0:0:0:
256,192,194742,1,0,0:0:0:0:
256,192,194896,1,0,0:0:0:0:
256,192,195048,1,12,0:0:0:0:
256,192,195202,1,0,0:0:0:0:
256,192,195355,1,0,0:0:0:0:
256,192,195508,1,8,0:0:0:0:
256,192,195661,1,8,0:0:0:0:
256,192,195814,1,0,0:0:0:0:
256,192,195967,1,0,0:0:0:0:
256,192,196120,1,8,0:0:0:0:
256,192,196273,1,8,0:0:0:0:
256,192,196349,1,8,0:0:0:0:
256,192,196426,1,8,0:0:0:0:
256,192,196503,1,8,0:0:0:0:
256,192,196579,1,8,0:0:0:0:
256,192,196732,1,0,0:0:0:0:
256,192,197038,1,12,0:0:0:0:
256,192,197497,1,0,0:0:0:0:
256,192,197650,1,8,0:0:0:0:
256,192,197803,1,0,0:0:0:0:
256,192,197956,1,8,0:0:0:0:
256,192,198263,1,8,0:0:0:0:
256,192,198416,1,0,0:0:0:0:
256,192,198722,1,0,0:0:0:0:
256,192,198798,1,0,0:0:0:0:
256,192,198875,1,8,0:0:0:0:
256,192,199028,1,0,0:0:0:0:
256,192,199181,1,12,0:0:0:0:
256,192,199487,1,8,0:0:0:0:
256,192,199946,1,8,0:0:0:0:
256,192,200099,1,0,0:0:0:0:
256,192,200176,1,0,0:0:0:0:
256,192,200252,1,0,0:0:0:0:
256,192,200405,1,8,0:0:0:0:
256,192,200712,1,0,0:0:0:0:
256,192,200865,1,0,0:0:0:0:
256,192,201171,1,0,0:0:0:0:
256,192,201324,1,8,0:0:0:0:
256,192,201630,1,4,0:0:0:0:
256,192,201936,1,8,0:0:0:0:
256,192,202242,1,0,0:0:0:0:
256,192,202395,1,0,0:0:0:0:
256,192,202548,1,8,0:0:0:0:
256,192,202702,1,0,0:0:0:0:
256,192,202854,1,8,0:0:0:0:
256,192,203161,1,8,0:0:0:0:
256,192,203314,1,8,0:0:0:0:
256,192,203467,1,0,0:0:0:0:
256,192,203620,1,0,0:0:0:0:
256,192,203773,1,8,0:0:0:0:
256,192,203926,1,8,0:0:0:0:
256,192,204079,1,4,0:0:0:0:
256,192,204385,1,12,0:0:0:0:
256,192,204691,1,12,0:0:0:0:
256,192,204997,1,8,0:0:0:0:
256,192,205150,1,0,0:0:0:0:
256,192,205227,1,0,0:0:0:0:
256,192,205303,1,8,0:0:0:0:
256,192,205380,1,8,0:0:0:0:
256,192,205456,1,0,0:0:0:0:
256,192,205610,1,8,0:0:0:0:
256,192,205763,1,0,0:0:0:0:
256,192,205916,1,8,0:0:0:0:
256,192,205992,1,8,0:0:0:0:
256,192,206069,1,0,0:0:0:0:
256,192,206145,1,0,0:0:0:0:
256,192,206222,1,8,0:0:0:0:
256,192,206375,1,8,0:0:0:0:
256,192,206528,1,4,0:0:0:0:
256,192,206834,1,0,0:0:0:0:
256,192,206987,1,8,0:0:0:0:
256,192,207293,1,0,0:0:0:0:
256,192,207446,1,8,0:0:0:0:
256,192,207523,1,0,0:0:0:0:
256,192,207599,1,8,0:0:0:0:
256,192,207752,1,4,0:0:0:0:
256,192,208059,1,8,0:0:0:0:
256,192,208212,1,0,0:0:0:0:
256,192,208518,1,0,0:0:0:0:
256,192,208594,1,0,0:0:0:0:
256,192,208671,1,8,0:0:0:0:
256,192,208824,1,0,0:0:0:0:
256,192,208977,1,8,0:0:0:0:
256,192,209054,1,0,0:0:0:0:
256,192,209206,1,0,0:0:0:0:
256,192,209283,1,8,0:0:0:0:
256,192,209436,1,0,0:0:0:0:
224,192,209512,1,0,0:0:0:0:
256,192,209589,1,8,0:0:0:0:
320,160,209666,1,8,0:0:0:0:
256,192,209742,1,0,0:0:0:0:
256,192,209895,1,0,0:0:0:0:
256,192,210048,1,8,0:0:0:0:
256,192,210202,1,4,0:0:0:0:
256,192,210508,1,8,0:0:0:0:
256,192,210661,1,0,0:0:0:0:
256,192,210814,1,8,0:0:0:0:
256,192,210967,1,8,0:0:0:0:
256,192,211120,1,0,0:0:0:0:
256,192,211425,1,4,0:0:0:0:
256,192,211732,1,8,0:0:0:0:
256,192,212038,1,8,0:0:0:0:
256,192,212344,1,8,0:0:0:0:
256,192,212650,1,4,0:0:0:0:
256,192,212956,1,8,0:0:0:0:
256,192,213263,1,0,0:0:0:0:
256,192,213569,1,0,0:0:0:0:
256,192,213875,1,8,0:0:0:0:
256,192,214334,1,0,0:0:0:0:
256,192,214487,1,8,0:0:0:0:
256,192,214793,1,8,0:0:0:0:
256,192,215099,1,0,0:0:0:0:
256,192,215559,1,0,0:0:0:0:
256,192,215712,1,8,0:0:0:0:
256,192,216018,1,8,0:0:0:0:
256,192,216324,1,0,0:0:0:0:
256,192,216783,1,8,0:0:0:0:
256,192,216936,1,8,0:0:0:0:
256,192,217089,1,0,0:0:0:0:
256,192,217242,1,8,0:0:0:0:
256,192,217395,1,0,0:0:0:0:
256,192,217548,1,0,0:0:0:0:
256,192,218008,1,8,0:0:0:0:
256,192,218161,1,8,0:0:0:0:
256,192,218314,1,0,0:0:0:0:
256,192,218467,1,8,0:0:0:0:
256,192,218620,1,0,0:0:0:0:
256,192,218773,1,0,0:0:0:0:
256,192,219232,1,8,0:0:0:0:
256,192,219385,1,8,0:0:0:0:
256,192,219691,1,0,0:0:0:0:
256,192,219997,1,8,0:0:0:0:
256,192,220457,1,0,0:0:0:0:
256,192,220610,1,8,0:0:0:0:
256,192,220916,1,8,0:0:0:0:
256,192,221069,1,0,0:0:0:0:
224,192,221145,1,0,0:0:0:0:
256,192,221222,1,8,0:0:0:0:
256,192,221681,1,0,0:0:0:0:
256,192,221834,1,8,0:0:0:0:
256,192,221987,1,0,0:0:0:0:
256,192,222140,1,8,0:0:0:0:
256,192,222293,1,8,0:0:0:0:
256,192,222370,1,0,0:0:0:0:
256,192,222446,1,8,0:0:0:0:
256,192,222599,1,0,0:0:0:0:
256,192,222753,1,8,0:0:0:0:
256,192,222906,1,0,0:0:0:0:
256,192,222982,1,0,0:0:0:0:
256,192,223059,1,8,0:0:0:0:
256,192,223212,1,8,0:0:0:0:
256,192,223364,1,8,0:0:0:0:
256,192,223518,1,0,0:0:0:0:
256,192,223671,5,4,0:0:0:0:
256,192,223977,1,0,0:0:0:0:
256,192,224130,1,0,0:0:0:0:
256,192,224436,1,0,0:0:0:0:
256,192,224742,1,0,0:0:0:0:
256,192,225048,1,8,0:0:0:0:
256,192,225355,1,0,0:0:0:0:
256,192,225661,5,0,0:0:0:0:
256,192,225814,1,8,0:0:0:0:
256,192,226119,1,8,0:0:0:0:
256,192,229104,12,0,235686,0:0:0:0:
