osu file format v14

[General]
AudioFilename: audio.mp3
AudioLeadIn: 0
PreviewTime: 56960
Countdown: 1
SampleSet: Normal
StackLeniency: 0.7
Mode: 0
LetterboxInBreaks: 0
WidescreenStoryboard: 1

[Editor]
DistanceSpacing: 1.3
BeatDivisor: 2
GridSize: 4
TimelineZoom: 0.8999999

[Metadata]
Title:Koi? de Ai? de Boukun desu!
TitleUnicode:恋?で愛?で暴君です!
Artist:Wake Up, Girls!
ArtistUnicode:Wake Up, Girls!
Creator:Dr_Marc
Version:Normal
Source:Renai Boukun 恋愛暴君
Tags:Renai Boukun,Koi? de Ai? de Boukun desu!,koi de ai de boukun desu,Wake Up Girls!,Wake Up Girls, OP, Kiss Note, Love, Anime, Opening, TV Size,
BeatmapID:1270035
BeatmapSetID:601117

[Difficulty]
HPDrainRate:4
CircleSize:3.3
OverallDifficulty:5
ApproachRate:5
SliderMultiplier:0.8
SliderTickRate:1

[Events]
//Background and Video events
0,0,"Beginnscreen.jpg",0,0
Video,0,"Koi de Ai de Boukun desu.avi"
//Break Periods
//Storyboard Layer 0 (Background)
//Storyboard Layer 1 (Fail)
//Storyboard Layer 2 (Pass)
//Storyboard Layer 3 (Foreground)
//Storyboard Sound Samples

[TimingPoints]
634,306.122448979592,4,1,0,100,1,0
20225,-100,4,1,0,100,0,0
30021,-100,4,1,0,100,0,0
39817,-100,4,1,0,100,0,0
49613,-100,4,2,0,100,0,0
61858,-100,4,2,0,100,0,1
81450,-100,4,2,0,100,0,0
86884,-100,4,3,0,60,0,0

[HitObjects]
296,188,634,6,0,P|340:152|392:72,1,120,8|0,0:0|0:0,0:0:0:0:
328,40,1399,1,0,0:0:0:0:
252,60,1705,1,0,0:0:0:0:
208,128,2011,2,0,P|216:208|228:232,1,80,8|0,0:0|0:0,0:0:0:0:
296,208,2623,6,2,L|360:184,1,40
328,288,3082,2,0,P|304:328|236:344,1,120,8|0,0:0|0:0,0:0:0:0:
140,324,3848,1,0,0:0:0:0:
92,240,4154,1,0,0:0:0:0:
88,144,4460,2,0,P|88:92|116:44,1,80,8|0,0:0|0:0,0:0:0:0:
196,60,5072,2,0,L|252:60,1,40
332,68,5531,6,0,P|371:95|325:145,1,120,8|0,0:0|0:0,0:0:0:0:
264,164,6297,1,8,0:0:0:0:
180,208,6603,2,0,P|128:212|76:204,1,80,8|0,0:0|0:0,0:0:0:0:
180,132,7215,2,0,P|140:128|96:132,1,80,8|0,0:0|0:0,0:0:0:0:
256,192,7980,12,4,9205,0:0:0:0:
144,124,10429,6,0,P|192:96|280:84,2,120,8|0|0,0:0|0:0|0:0,0:0:0:0:
164,216,11654,2,0,P|120:260|56:288,2,120,8|0|0,0:0|0:0|0:0,0:0:0:0:
252,176,12878,1,8,0:0:0:0:
328,232,13185,1,8,0:0:0:0:
364,144,13491,2,0,P|364:96|344:56,1,80
256,64,14103,2,0,P|236:124|236:160,1,80
212,232,14715,2,0,P|188:272|140:308,1,80
96,228,15327,6,0,P|96:168|128:108,2,120,8|0|0,0:0|0:0|0:0,0:0:0:0:
188,196,16552,1,8,0:0:0:0:
272,148,16858,1,8,0:0:0:0:
324,68,17164,2,0,P|376:64|424:88,1,80
384,168,17776,6,0,B|360:228|256:240,2,120,8|0|0,0:0|0:0|0:0,0:0:0:0:
356,76,19001,2,0,P|312:56|268:52,1,80,8|0,0:0|0:0,0:0:0:0:
200,104,19613,2,0,P|148:152|132:176,1,80,4|0,0:0|0:0,0:0:0:0:
108,248,20225,6,0,B|156:284|224:272,2,120,8|0|0,0:0|0:0|0:0,0:0:0:0:
112,152,21450,2,0,P|128:104|148:72,1,80,8|8,0:0|0:0,0:0:0:0:
236,60,22062,2,0,P|288:80|320:108,1,80
348,184,22674,2,0,P|352:260|340:276,1,80,8|0,0:0|0:0,0:0:0:0:
308,288,23134,1,0,0:0:0:0:
256,292,23287,2,0,B|160:272|108:200,1,160,8|0,0:0|0:0,0:0:0:0:
236,156,24205,1,4,0:0:0:0:
236,156,24511,1,4,0:0:0:0:
128,248,25123,6,0,P|132:300|108:364,2,120,8|0|0,0:0|0:0|0:0,0:0:0:0:
208,196,26348,2,0,P|248:168|268:132,1,80,8|0,0:0|0:0,0:0:0:0:
192,76,26960,2,0,P|156:96|128:128,1,80
104,224,27572,2,0,P|148:268|184:276,1,80
212,260,28031,1,0,0:0:0:0:
260,240,28185,2,0,P|292:208|304:168,1,80
256,52,28797,2,0,P|224:80|196:112,1,80,8|0,0:0|0:0,0:0:0:0:
168,200,29409,1,0,0:0:0:0:
360,212,30021,6,0,L|472:152,2,120,8|0|0,0:0|0:0|0:0,0:0:0:0:
272,176,31246,1,8,0:0:0:0:
176,164,31552,1,8,0:0:0:0:
92,212,31858,2,0,P|60:248|44:288,1,80
140,300,32470,5,2,0:0:0:0:
228,260,32776,1,2,0:0:0:0:
292,188,33082,2,0,P|312:144|312:100,1,80,2|0,0:0|0:0,0:0:0:0:
220,68,33695,2,0,P|172:52|136:56,1,80,2|0,0:0|0:0,0:0:0:0:
80,136,34307,2,0,P|80:184|104:228,1,80
164,288,34919,6,0,B|216:320|296:308,2,120,8|0|0,0:0|0:0|0:0,0:0:0:0:
180,188,36144,2,0,P|160:136|164:104,1,80,8|0,0:0|0:0,0:0:0:0:
256,92,36756,2,0,P|276:136|276:184,1,80
212,236,37368,2,0,P|160:260|88:280,2,120,8|0|0,0:0|0:0|0:0,0:0:0:0:
160,156,38593,1,8,0:0:0:0:
208,72,38899,1,8,0:0:0:0:
304,80,39205,2,0,P|352:116|368:152,1,80
316,216,39817,6,0,P|272:264|200:280,2,120,8|0|0,0:0|0:0|0:0,0:0:0:0:
272,128,41042,2,0,P|224:80|200:80,1,80
128,116,41654,1,0,0:0:0:0:
128,116,41960,1,0,0:0:0:0:
120,212,42266,2,8,P|131:255|164:292,1,80
192,248,42725,1,0,0:0:0:0:
232,216,42878,6,0,L|316:128,1,120
272,52,43644,2,2,P|252:36|212:20,1,40
168,96,44103,2,0,P|121:102|72:140,1,80
84,212,44715,6,0,P|88:276|112:332,2,120,0|8|0,0:0|0:0|0:0,0:0:0:0:
104,116,45940,2,0,P|120:88|172:56,1,80
256,60,46552,2,0,P|304:72|336:112,1,80,8|0,0:0|0:0,0:0:0:0:
308,196,47164,2,0,P|284:232|252:248,1,80,8|0,0:0|0:0,0:0:0:0:
228,204,47623,1,0,0:0:0:0:
200,160,47776,6,0,P|156:128|104:120,1,80
48,184,48389,1,0,0:0:0:0:
48,184,48695,1,0,0:0:0:0:
48,272,49001,2,0,P|84:300|132:304,1,80,8|0,0:0|0:0,0:0:0:0:
108,212,49613,6,2,B|76:168|96:84,1,120
164,144,50378,1,4,0:0:0:0:
232,212,50685,1,4,0:0:0:0:
292,284,50991,1,4,0:0:0:0:
200,312,51297,2,0,P|148:308|92:288,1,80,4|0,0:0|0:0,0:0:0:0:
80,172,52062,6,2,P|104:128|168:84,1,120
256,76,52827,1,4,0:0:0:0:
324,144,53134,2,0,P|352:192|356:220,1,80,4|0,0:0|0:0,0:0:0:0:
288,284,53746,2,0,P|236:308|192:304,1,80,4|0,0:0|0:0,0:0:0:0:
112,208,54511,6,2,L|112:84,1,120
196,80,55276,1,4,0:0:0:0:
284,116,55582,1,4,0:0:0:0:
344,192,55889,1,4,0:0:0:0:
332,288,56195,2,8,P|292:324|232:340,1,80
148,256,56960,6,2,B|212:128|332:280|408:112,1,320
368,28,58491,1,0,0:0:0:0:
288,84,58797,2,0,P|208:112|192:124,1,80,8|0,0:0|0:0,0:0:0:0:
164,192,59409,2,0,P|204:260|248:288,2,120,8|4|8,0:0|0:0|0:0,0:0:0:0:
304,224,60787,2,0,P|337:231|432:208,1,120,8|4,0:0|0:0,0:0:0:0:
216,100,61858,6,0,P|180:60|104:48,2,120,8|0|0,0:0|0:0|0:0,0:0:0:0:
172,184,63082,2,0,P|148:228|136:272,1,80,8|0,0:0|0:0,0:0:0:0:
192,264,63542,2,0,P|216:320|240:340,1,80
356,280,64307,2,0,B|404:196|360:124,1,160,8|0,0:0|0:0,0:0:0:0:
264,88,65225,1,0,0:0:0:0:
188,156,65531,2,0,P|152:216|152:264,2,120,8|0|0,0:0|0:0|0:0,0:0:0:0:
380,56,67062,6,0,P|364:96|364:132,1,80,8|0,0:0|0:0,0:0:0:0:
296,200,67674,1,0,0:0:0:0:
208,240,67980,1,8,0:0:0:0:
128,184,68287,2,0,P|124:140|132:96,1,80
216,64,68899,2,0,B|264:76|300:108,1,80,0|8,0:0|0:0,0:0:0:0:
336,180,69511,5,8,0:0:0:0:
340,276,69817,1,8,0:0:0:0:
432,252,70123,2,0,P|448:200|448:152,1,80
400,92,70736,2,0,L|368:40,2,40,8|0|0,0:0|0:0|0:0,0:0:0:0:
216,160,71654,6,0,P|168:184|104:200,2,120,8|0|0,0:0|0:0|0:0,0:0:0:0:
288,96,72878,2,0,P|336:108|372:128,1,80,8|0,0:0|0:0,0:0:0:0:
360,176,73338,2,0,P|316:208|240:244,1,120
184,164,74103,1,4,0:0:0:0:
104,100,74409,1,4,0:0:0:0:
12,148,74715,1,4,0:0:0:0:
36,248,75021,2,0,P|52:300|80:332,1,80,8|0,0:0|0:0,0:0:0:0:
172,328,75634,2,0,L|228:336,1,40,8|0,0:0|0:0,0:0:0:0:
296,188,76246,6,0,P|320:148|328:112,1,80,8|0,0:0|0:0,0:0:0:0:
240,76,76858,1,4,0:0:0:0:
152,36,77164,1,4,0:0:0:0:
64,72,77470,6,0,P|48:120|44:160,1,80,8|0,0:0|0:0,0:0:0:0:
128,196,78082,1,4,0:0:0:0:
216,236,78389,1,4,0:0:0:0:
288,300,78695,6,0,P|336:328|368:336,1,80,8|0,0:0|0:0,0:0:0:0:
408,252,79307,2,0,P|424:200|424:168,2,80,4|0|0,0:0|0:0|0:0,0:0:0:0:
328,200,80225,2,0,P|260:192|216:192,2,80,4|0|0,0:0|0:0|0:0,0:0:0:0:
336,104,81144,1,4,0:0:0:0:
256,192,81450,12,0,83287,0:0:0:0:
148,136,83899,6,2,B|180:104|232:80|292:72|360:112|444:196,1,320
252,256,85659,2,4,P|200:268|136:264,2,100
256,192,86884,12,0,89103,0:0:0:0:
