osu file format v14

[General]
AudioFilename: audio.mp3
AudioLeadIn: 0
PreviewTime: 56960
Countdown: 1
SampleSet: Normal
StackLeniency: 0.7
Mode: 0
LetterboxInBreaks: 0
WidescreenStoryboard: 1

[Editor]
DistanceSpacing: 1.1
BeatDivisor: 2
GridSize: 4
TimelineZoom: 0.8999999

[Metadata]
Title:Koi? de Ai? de Boukun desu!
TitleUnicode:恋?で愛?で暴君です!
Artist:Wake Up, Girls!
ArtistUnicode:Wake Up, Girls!
Creator:Dr_Marc
Version:Easy
Source:Renai Boukun 恋愛暴君
Tags:Renai Boukun,Koi? de Ai? de Boukun desu!,koi de ai de boukun desu,Wake Up Girls!,Wake Up Girls, OP, Kiss Note, Love, Anime, Opening, TV Size,
BeatmapID:1270034
BeatmapSetID:601117

[Difficulty]
HPDrainRate:2
CircleSize:3
OverallDifficulty:2
ApproachRate:3
SliderMultiplier:0.8
SliderTickRate:1

[Events]
//Background and Video events
0,0,"Beginnscreen.jpg",0,0
Video,0,"Koi de Ai de Boukun desu.avi"
//Break Periods
//Storyboard Layer 0 (Background)
//Storyboard Layer 1 (Fail)
//Storyboard Layer 2 (Pass)
//Storyboard Layer 3 (Foreground)
//Storyboard Sound Samples

[TimingPoints]
634,306.122448979592,4,1,0,100,1,0
20225,-100,4,1,0,100,0,0
30021,-100,4,1,0,100,0,0
39817,-100,4,1,0,100,0,0
49613,-100,4,2,0,100,0,0
61858,-100,4,2,0,100,0,1
81450,-100,4,2,0,100,0,0
85659,-100,4,3,0,60,0,0

[HitObjects]
168,180,634,6,0,P|204:148|276:120,1,120,8|0,0:0|0:0,0:0:0:0:
356,120,1399,1,0,0:0:0:0:
408,192,1705,2,0,L|328:236,1,80
252,204,2317,2,0,P|200:156|144:140,1,120
116,220,3082,2,0,P|184:268|252:272,1,120,8|0,0:0|0:0,0:0:0:0:
308,284,3848,1,0,0:0:0:0:
364,200,4154,2,0,L|384:120,1,80,8|0,0:0|0:0,0:0:0:0:
404,36,4766,1,4,0:0:0:0:
320,60,5072,2,0,L|272:48,1,40
212,104,5531,5,0,0:0:0:0:
220,192,5838,2,0,L|268:208,1,40
236,288,6297,2,0,L|320:316,1,80
372,252,6909,2,0,P|425:191|432:160,2,80,8|0|0,0:0|0:0|0:0,0:0:0:0:
256,192,7980,12,0,9205,0:0:0:0:
160,120,10429,6,0,P|208:88|272:88,2,120,8|0|0,0:0|0:0|0:0,0:0:0:0:
128,200,11654,2,0,P|130:266|188:316,2,120,8|0|0,0:0|0:0|0:0,0:0:0:0:
160,120,12878,6,0,L|208:40,1,80,8|0,0:0|0:0,0:0:0:0:
288,52,13491,2,0,L|376:104,1,80,8|0,0:0|0:0,0:0:0:0:
360,180,14103,2,0,P|340:244|316:272,2,80,8|0|0,0:0|0:0|0:0,0:0:0:0:
196,116,15327,6,0,L|76:80,2,120,8|0|0,0:0|0:0|0:0,0:0:0:0:
172,200,16552,2,0,L|28:156,2,120,8|0|0,0:0|0:0|0:0,0:0:0:0:
256,176,17776,2,0,L|356:204,2,80,8|0|0,0:0|0:0|0:0,0:0:0:0:
36,136,19001,2,0,L|36:224,1,80,8|0,0:0|0:0,0:0:0:0:
100,276,19613,2,0,L|188:328,1,80,4|0,0:0|0:0,0:0:0:0:
244,272,20225,6,0,P|308:216|328:192,2,80,8|0|0,0:0|0:0|0:0,0:0:0:0:
376,100,21756,2,0,L|308:44,1,80,8|0,0:0|0:0,0:0:0:0:
228,64,22368,2,0,L|156:100,1,80,4|0,0:0|0:0,0:0:0:0:
136,184,22980,2,0,L|128:272,1,80,4|0,0:0|0:0,0:0:0:0:
260,148,23899,5,8,0:0:0:0:
348,156,24205,2,0,L|436:164,1,80,4|0,0:0|0:0,0:0:0:0:
252,252,25123,2,0,P|216:296|152:336,2,120,8|0|0,0:0|0:0|0:0,0:0:0:0:
108,148,26654,2,0,L|108:68,1,80,8|0,0:0|0:0,0:0:0:0:
208,60,27266,2,0,L|300:60,1,80,4|0,0:0|0:0,0:0:0:0:
376,64,27878,2,0,L|376:144,1,80,4|0,0:0|0:0,0:0:0:0:
268,284,28797,2,0,L|176:320,2,80,4|4|4,0:0|0:0|0:0,0:0:0:0:
108,148,30021,6,0,P|144:100|208:80,2,120,8|0|0,0:0|0:0|0:0,0:0:0:0:
108,236,31246,2,0,P|136:288|192:308,2,120,8|0|0,0:0|0:0|0:0,0:0:0:0:
184,192,32470,2,0,L|344:192,1,160,4|0,0:0|0:0,0:0:0:0:
344,16,33695,2,0,L|152:16,1,160,4|0,0:0|0:0,0:0:0:0:
264,252,34919,6,0,L|180:276,1,80,8|0,0:0|0:0,0:0:0:0:
120,220,35531,1,4,0:0:0:0:
156,140,35838,2,0,L|236:120,1,80,4|0,0:0|0:0,0:0:0:0:
320,104,36450,2,0,P|396:128|456:188,1,160,4|0,0:0|0:0,0:0:0:0:
392,248,37368,2,0,P|332:300|220:316,1,160,8|0,0:0|0:0,0:0:0:0:
160,236,38593,2,0,P|132:136|152:52,1,160,8|0,0:0|0:0,0:0:0:0:
220,72,39817,6,0,P|300:92|344:112,2,120,8|0|0,0:0|0:0|0:0,0:0:0:0:
144,120,41042,2,0,P|104:180|84:224,2,120,8|0|0,0:0|0:0|0:0,0:0:0:0:
224,156,42266,2,0,L|264:228,1,80,8|0,0:0|0:0,0:0:0:0:
184,264,42878,2,0,L|88:312,1,80,4|0,0:0|0:0,0:0:0:0:
124,124,43797,2,4,L|84:52,1,80
344,120,44715,6,0,P|392:148|428:212,2,120,8|0|0,0:0|0:0|0:0,0:0:0:0:
264,84,45940,2,0,P|200:68|140:84,2,120,8|0|0,0:0|0:0|0:0,0:0:0:0:
272,172,47164,2,0,L|224:252,1,80,8|0,0:0|0:0,0:0:0:0:
184,316,47776,1,4,0:0:0:0:
84,172,48389,2,4,L|24:92,1,80
112,60,49001,1,4,0:0:0:0:
284,96,49613,6,0,P|344:104|404:144,1,120,8|0,0:0|0:0,0:0:0:0:
368,224,50378,2,0,L|328:320,1,80
248,312,50991,1,0,0:0:0:0:
188,248,51297,2,4,L|224:172,1,80
140,72,52062,6,0,P|112:132|116:200,1,120
200,184,52827,2,0,L|288:196,1,80
332,264,53440,1,0,0:0:0:0:
260,316,53746,2,0,L|164:304,1,80,4|0,0:0|0:0,0:0:0:0:
160,188,54511,6,0,P|112:136|108:72,1,120,8|0,0:0|0:0,0:0:0:0:
188,56,55276,2,8,L|264:28,2,80
220,136,56195,2,0,L|252:240,1,80
388,120,58185,6,0,L|328:40,1,80
252,52,58797,2,0,L|176:24,1,80,8|0,0:0|0:0,0:0:0:0:
124,96,59409,2,0,P|72:136|44:188,1,120,8|0,0:0|0:0,0:0:0:0:
148,264,60327,2,0,P|216:288|268:280,1,120,8|0,0:0|0:0,0:0:0:0:
340,176,61246,2,0,L|340:84,1,80,8|0,0:0|0:0,0:0:0:0:
252,92,61858,6,0,P|176:124|152:152,2,120,8|0|0,0:0|0:0|0:0,0:0:0:0:
292,168,63082,2,0,P|216:208|196:240,2,120,8|0|0,0:0|0:0|0:0,0:0:0:0:
376,196,64307,2,0,L|440:248,1,80,8|0,0:0|0:0,0:0:0:0:
380,312,64919,2,0,L|296:336,1,80
224,300,65531,2,0,P|144:268|112:232,2,120,8|0|0,0:0|0:0|0:0,0:0:0:0:
336,164,67062,6,0,P|352:112|360:80,1,80,8|0,0:0|0:0,0:0:0:0:
272,72,67674,1,4,0:0:0:0:
184,56,67980,2,0,L|160:136,1,80,8|0,0:0|0:0,0:0:0:0:
148,220,68593,1,4,0:0:0:0:
220,272,68899,1,4,0:0:0:0:
300,236,69205,2,0,L|380:196,1,80,8|0,0:0|0:0,0:0:0:0:
364,112,69817,1,0,0:0:0:0:
288,72,70123,6,4,L|184:72,1,80
132,116,70736,1,0,0:0:0:0:
112,200,71042,2,0,L|196:244,1,80,8|0,0:0|0:0,0:0:0:0:
268,212,71654,6,0,P|304:240|376:272,2,120,8|0|0,0:0|0:0|0:0,0:0:0:0:
204,152,72878,2,0,P|164:108|136:48,2,120,8|0|0,0:0|0:0|0:0,0:0:0:0:
292,132,74103,2,0,L|356:76,1,80,8|0,0:0|0:0,0:0:0:0:
416,140,74715,2,0,L|484:196,1,80,4|0,0:0|0:0,0:0:0:0:
416,252,75327,1,8,0:0:0:0:
328,252,75634,2,0,L|284:252,1,40,4|0,0:0|0:0,0:0:0:0:
160,216,76246,6,0,L|56:216,2,80,8|0|0,0:0|0:0|0:0,0:0:0:0:
208,144,77164,1,8,0:0:0:0:
268,80,77470,2,0,L|368:80,1,80,8|0,0:0|0:0,0:0:0:0:
408,144,78082,2,0,P|420:172|420:228,1,80,4|0,0:0|0:0,0:0:0:0:
332,220,78695,6,0,L|232:220,1,80,4|0,0:0|0:0,0:0:0:0:
168,244,79307,2,0,P|228:308|324:332,1,160,8|0,0:0|0:0,0:0:0:0:
356,268,80225,2,0,P|368:200|324:104,1,160
160,96,81450,6,0,P|112:136|76:180,2,120,8|0|0,0:0|0:0|0:0,0:0:0:0:
240,56,82674,2,0,P|312:64|368:88,2,120
216,140,83899,2,2,P|268:245|387:324,1,240
256,192,85659,12,0,89103,0:0:0:0:
