osu file format v14

[General]
AudioFilename: audio.mp3
AudioLeadIn: 0
PreviewTime: 20221
Countdown: 1
SampleSet: Normal
StackLeniency: 0.7
Mode: 0
LetterboxInBreaks: 0
WidescreenStoryboard: 0

[Editor]
DistanceSpacing: 1.2
BeatDivisor: 4
GridSize: 4
TimelineZoom: 1

[Metadata]
Title:Koi? de Ai? de Boukun Desu! (Tv Size)
TitleUnicode:恋?で愛?で暴君です!(Tv Size)
Artist:Wake Up, Girls!
ArtistUnicode:Wake Up, Girls!
Creator:I am graduated
Version:Insane
Source:恋愛暴君
Tags:
BeatmapID:1337165
BeatmapSetID:631647

[Difficulty]
HPDrainRate:5
CircleSize:4
OverallDifficulty:8
ApproachRate:9
SliderMultiplier:1.7
SliderTickRate:1

[Events]
//Background and Video events
0,0,"bg.jpg",0,0
//Break Periods
//Storyboard Layer 0 (Background)
//Storyboard Layer 1 (Fail)
//Storyboard Layer 2 (Pass)
//Storyboard Layer 3 (Foreground)
//Storyboard Sound Samples

[TimingPoints]
630,306.122448979592,4,1,1,60,1,0
630,-133.333333333333,4,1,1,60,0,0
9201,-200,4,1,1,60,0,0
9507,-133.333333333333,4,1,1,60,0,0
9813,-100,4,1,1,60,0,0
19915,-66.6666666666667,4,1,1,60,0,0
20221,-100,4,1,1,60,0,0
39507,-66.6666666666667,4,1,1,60,0,0
39813,-100,4,1,1,60,0,0
56497,-200,4,1,1,60,0,0
58640,-66.6666666666667,4,1,1,60,0,0
61854,-80,4,1,1,60,0,0

[Colours]
Combo1 : 255,128,128
Combo2 : 128,0,255
Combo3 : 255,128,192
Combo4 : 128,128,192

[HitObjects]
112,264,630,5,0,0:0:0:0:
416,344,936,1,0,0:0:0:0:
416,344,1089,2,0,P|424:320|424:272,1,63.7500024318696
368,128,1395,2,0,P|368:159|377:190,1,63.7500024318696
424,52,1701,5,0,0:0:0:0:
288,240,2007,1,0,0:0:0:0:
76,172,2313,1,0,0:0:0:0:
424,52,2619,5,0,0:0:0:0:
424,52,2772,1,0,0:0:0:0:
468,152,3078,5,0,0:0:0:0:
152,60,3385,1,0,0:0:0:0:
152,60,3538,2,0,P|144:84|144:132,1,63.7500024318696
200,276,3844,2,0,P|199:244|190:213,1,63.7500024318696
128,352,4150,5,0,0:0:0:0:
292,188,4456,1,0,0:0:0:0:
492,284,4762,1,0,0:0:0:0:
68,216,5068,5,0,0:0:0:0:
68,216,5221,2,0,L|64:192,2,15.9375006079674
344,348,5527,6,0,P|384:344|420:328,1,63.7500024318696
452,268,5834,1,0,0:0:0:0:
208,272,5987,2,0,P|248:276|284:292,1,63.7500024318696
88,352,6293,2,0,P|128:348|164:332,1,63.7500024318696
36,184,6599,2,0,P|96:176|172:204,2,127.500004863739
308,236,7517,6,0,B|280:176|320:132|320:132|312:104|285:99,1,159.375006079674
276,116,7976,6,0,P|372:172|304:36,1,382.500014591218
80,368,9201,6,0,L|144:364,1,63.7500024318696
84,332,9507,6,0,L|184:280,1,95.6250036478044
80,296,9813,6,0,L|164:192,1,127.500004863739
48,264,10119,5,0,0:0:0:0:
332,340,10425,6,0,B|352:316|392:312|392:312|452:348|512:344,1,170
440,160,10885,1,0,0:0:0:0:
440,160,11038,2,0,L|340:184,1,85
468,248,11344,1,0,0:0:0:0:
368,92,11497,1,0,0:0:0:0:
256,187,11650,6,0,P|234:247|224:310,1,127.5
232,344,11956,1,0,0:0:0:0:
116,240,12109,1,0,0:0:0:0:
4,320,12262,2,0,P|36:348|88:352,1,85
100,116,12568,2,0,P|59:129|29:171,1,85
224,272,12874,6,0,L|214:187,1,85
412,128,13181,2,0,L|402:213,1,85
304,136,13487,2,0,L|314:52,1,85
476,284,13793,1,0,0:0:0:0:
384,352,13946,1,0,0:0:0:0:
264,352,14099,6,0,P|224:348|180:312,1,85
184,88,14405,1,0,0:0:0:0:
224,188,14558,1,0,0:0:0:0:
128,248,14711,2,0,P|88:260|20:240,1,85
88,132,15017,2,0,P|52:104|28:60,1,85
320,128,15323,6,0,B|492:156,1,170
244,52,15783,1,0,0:0:0:0:
244,52,15936,2,0,P|228:96|224:144,1,85
436,228,16242,1,0,0:0:0:0:
376,52,16395,1,0,0:0:0:0:
320,128,16548,6,0,L|336:260,1,127.5
340,288,16854,1,0,0:0:0:0:
436,228,17007,1,0,0:0:0:0:
236,240,17160,2,0,L|220:356,1,85
112,360,17466,2,0,P|80:336|12:344,1,85
136,176,17772,6,0,P|172:156|220:152,1,85
328,204,18078,1,0,0:0:0:0:
436,144,18232,1,0,0:0:0:0:
412,20,18385,1,0,0:0:0:0:
412,20,18538,1,0,0:0:0:0:
420,240,18691,2,0,P|432:283|436:323,1,85
236,240,18997,6,0,P|240:197|252:156,1,85
252,156,19226,1,0,0:0:0:0:
252,156,19303,1,0,0:0:0:0:
324,344,19456,1,0,0:0:0:0:
104,296,19609,2,0,L|88:192,1,85
64,84,19839,1,0,0:0:0:0:
44,60,19915,6,0,L|69:259,1,191.250007295609
152,192,20221,6,0,L|312:176,1,127.5
352,208,20527,2,0,L|468:224,1,85
340,92,20834,1,0,0:0:0:0:
340,92,20987,1,0,0:0:0:0:
272,264,21140,1,0,0:0:0:0:
92,224,21293,2,0,L|72:128,1,85
52,52,21599,1,0,0:0:0:0:
192,168,21752,6,0,L|216:48,1,85
36,288,22058,1,0,0:0:0:0:
36,288,22211,1,0,0:0:0:0:
176,264,22364,2,0,P|216:288|244:340,1,85
420,360,22670,6,0,L|396:204,1,127.5
424,156,22976,2,0,L|432:44,1,85
316,236,23283,1,0,0:0:0:0:
316,236,23436,1,0,0:0:0:0:
144,160,23589,1,0,0:0:0:0:
264,72,23742,6,0,P|259:114|247:154,1,85
144,352,24048,1,0,0:0:0:0:
52,324,24201,2,0,P|40:284|36:220,1,85
35,241,24431,1,0,0:0:0:0:
35,241,24507,1,0,0:0:0:0:
176,212,24660,1,0,0:0:0:0:
176,104,24813,1,0,0:0:0:0:
88,152,24966,1,0,0:0:0:0:
344,244,25119,6,0,L|468:216,1,127.5
512,152,25425,2,0,B|520:112|520:112|496:64,1,85
324,156,25732,1,0,0:0:0:0:
324,156,25885,1,0,0:0:0:0:
416,312,26038,1,0,0:0:0:0:
344,244,26191,2,0,B|256:268,1,85
208,348,26497,1,0,0:0:0:0:
116,152,26650,6,0,P|156:172|208:168,1,85
272,104,26956,1,0,0:0:0:0:
272,104,27109,1,0,0:0:0:0:
120,264,27262,2,0,L|52:328,1,85
30,139,27568,6,0,L|155:159,1,127.5
230,134,27874,2,0,L|337:104,1,85
172,68,28181,1,0,0:0:0:0:
172,68,28334,1,0,0:0:0:0:
216,224,28487,1,0,0:0:0:0:
408,140,28640,1,0,0:0:0:0:
444,276,28793,6,0,L|436:376,1,85
320,200,29099,1,0,0:0:0:0:
352,212,29175,1,0,0:0:0:0:
276,312,29328,1,0,0:0:0:0:
244,324,29404,1,0,0:0:0:0:
104,200,29558,2,0,L|108:120,1,42.5
144,80,29711,2,0,L|140:184,1,85
260,88,30017,6,0,P|340:94|386:26,1,170
320,200,30477,1,0,0:0:0:0:
320,200,30630,2,0,L|420:176,1,85
496,156,30936,1,0,0:0:0:0:
340,92,31089,1,0,0:0:0:0:
256,264,31242,6,0,P|292:296|384:340,1,127.5
388,336,31548,1,0,0:0:0:0:
320,200,31701,1,0,0:0:0:0:
164,240,31854,2,0,P|136:283|124:328,1,85
28,180,32160,2,0,L|116:160,1,85
312,52,32466,5,0,0:0:0:0:
232,184,32619,1,0,0:0:0:0:
312,52,32772,1,0,0:0:0:0:
232,184,32925,1,0,0:0:0:0:
136,52,33079,2,0,L|228:96,1,85
320,148,33385,1,0,0:0:0:0:
480,52,33538,1,0,0:0:0:0:
412,148,33691,6,0,L|428:248,1,85
448,336,33997,1,0,0:0:0:0:
312,264,34150,1,0,0:0:0:0:
160,284,34303,2,0,P|124:308|92:364,1,85
351,193,34609,2,0,P|392:206|438:251,1,85
224,192,34915,6,0,B|244:8,1,170
232,328,35374,1,0,0:0:0:0:
232,328,35527,2,0,P|256:292|294:268,1,85
428,244,35834,1,0,0:0:0:0:
324,356,35987,1,0,0:0:0:0:
152,260,36140,6,0,P|123:206|96:120,1,127.5
104,108,36446,1,0,0:0:0:0:
232,196,36599,1,0,0:0:0:0:
400,144,36752,2,0,P|440:156|496:200,1,85
308,96,37058,2,0,P|315:54|331:15,1,85
344,252,37364,5,0,0:0:0:0:
196,336,37517,1,0,0:0:0:0:
216,172,37670,1,0,0:0:0:0:
296,340,37824,1,0,0:0:0:0:
144,256,37976,2,0,P|107:185|135:100,1,170
328,164,38436,1,0,0:0:0:0:
328,164,38589,6,0,L|436:148,1,85
436,148,38818,1,0,0:0:0:0:
436,148,38895,1,0,0:0:0:0:
248,44,39048,1,0,0:0:0:0:
228,176,39201,1,0,0:0:0:0:
396,284,39354,1,0,0:0:0:0:
396,284,39431,1,0,0:0:0:0:
396,284,39507,6,0,L|376:84,1,191.250007295609
296,224,39813,6,0,P|264:268|188:284,1,127.5
124,320,40119,2,0,L|40:316,1,85
80,112,40425,1,0,0:0:0:0:
80,112,40578,1,0,0:0:0:0:
128,232,40731,1,0,0:0:0:0:
292,140,40885,2,0,P|331:154|367:192,1,85
392,284,41190,1,0,0:0:0:0:
200,144,41343,6,0,L|192:36,1,85
32,196,41649,1,0,0:0:0:0:
32,196,41802,1,0,0:0:0:0:
256,280,41956,2,0,P|268:320|252:384,1,85
40,296,42262,6,0,B|168:272,1,127.5
216,196,42567,2,0,L|328:204,1,85
416,348,42874,1,0,0:0:0:0:
416,348,43027,1,0,0:0:0:0:
256,280,43180,1,0,0:0:0:0:
312,108,43333,6,0,L|340:20,1,85
492,288,43639,1,0,0:0:0:0:
408,252,43793,2,0,P|372:264|344:308,1,85
345,301,44022,1,0,0:0:0:0:
345,301,44098,1,0,0:0:0:0:
84,288,44251,1,0,0:0:0:0:
168,252,44404,1,0,0:0:0:0:
156,344,44557,1,0,0:0:0:0:
8,152,44710,6,0,L|152:172,1,127.5
216,164,45017,2,0,P|260:148|292:116,1,85
248,20,45323,1,0,0:0:0:0:
248,20,45476,1,0,0:0:0:0:
168,252,45629,1,0,0:0:0:0:
360,284,45783,2,0,P|328:255|288:242,1,85
168,252,46088,1,0,0:0:0:0:
104,364,46241,6,0,L|200:340,1,85
360,284,46547,1,0,0:0:0:0:
360,284,46700,1,0,0:0:0:0:
208,80,46853,2,0,L|220:184,1,85
436,204,47159,6,0,L|311:184,1,127.5
236,248,47465,2,0,L|150:258,1,85
40,272,47772,1,0,0:0:0:0:
40,272,47925,1,0,0:0:0:0:
217,164,48078,1,0,0:0:0:0:
256,340,48231,1,0,0:0:0:0:
356,356,48384,6,0,P|400:340|424:296,1,85
460,132,48690,1,0,0:0:0:0:
448,100,48766,1,0,0:0:0:0:
336,252,48919,1,0,0:0:0:0:
328,280,48995,1,0,0:0:0:0:
136,96,49149,6,0,L|184:88,1,42.5
160,176,49303,2,0,L|142:221,1,42.5
76,156,49456,2,0,L|45:118,1,42.5
248,164,49609,6,0,L|440:200,1,170
308,276,50068,2,0,P|268:284|220:316,1,85
336,92,50374,2,0,P|376:84|424:52,1,85
256,44,50681,5,0,0:0:0:0:
100,264,50987,1,0,0:0:0:0:
376,304,51293,1,0,0:0:0:0:
48,184,51599,5,0,0:0:0:0:
48,184,51752,1,0,0:0:0:0:
328,168,52058,6,0,P|292:252|232:324,1,170
229,43,52517,2,0,L|240:128,1,85
120,340,52823,2,0,L|130:255,1,85
144,84,53130,5,0,0:0:0:0:
404,152,53436,1,0,0:0:0:0:
224,348,53742,1,0,0:0:0:0:
420,40,54048,5,0,0:0:0:0:
420,40,54201,1,0,0:0:0:0:
376,312,54507,6,0,P|312:276|200:276,1,170
56,320,54966,2,0,P|96:340|152:340,1,85
224,168,55272,2,0,P|181:171|144:191,1,85
28,232,55578,2,0,L|36:116,1,85
316,264,55885,2,0,L|308:380,1,85
124,132,56191,2,0,L|129:47,1,85
212,228,56497,6,0,L|204:344,1,85
192,340,58640,5,0,0:0:0:0:
192,340,58716,1,0,0:0:0:0:
192,340,58793,1,0,0:0:0:0:
420,292,58946,1,0,0:0:0:0:
240,200,59099,2,0,L|232:332,1,127.500004863739
348,232,59405,5,0,0:0:0:0:
128,184,59558,1,0,0:0:0:0:
332,108,59711,1,0,0:0:0:0:
144,268,59864,5,0,0:0:0:0:
396,164,60017,1,0,0:0:0:0:
164,96,60170,1,0,0:0:0:0:
392,252,60323,5,0,0:0:0:0:
96,176,60476,1,0,0:0:0:0:
96,176,60553,1,0,0:0:0:0:
96,176,60629,1,0,0:0:0:0:
372,80,60783,1,0,0:0:0:0:
260,292,60936,1,0,0:0:0:0:
260,292,61013,1,0,0:0:0:0:
260,292,61089,1,0,0:0:0:0:
200,184,61243,1,0,0:0:0:0:
276,44,61395,5,0,0:0:0:0:
271,75,61472,1,0,0:0:0:0:
277,107,61548,1,0,0:0:0:0:
292,134,61625,1,0,0:0:0:0:
314,157,61701,1,0,0:0:0:0:
343,172,61778,1,0,0:0:0:0:
374,179,61854,6,0,L|520:160,1,106.25
432,344,62160,1,0,0:0:0:0:
276,280,62313,2,0,L|48:308,1,212.5
332,344,62772,2,0,P|356:312|340:224,1,106.25
232,36,63078,6,0,L|248:168,1,106.25
344,56,63385,1,0,0:0:0:0:
152,216,63538,2,0,B|128:172|128:172|139:110,1,106.25
184,340,63844,2,0,P|136:320|76:332,1,106.25
272,280,64150,1,0,0:0:0:0:
376,236,64303,6,0,B|424:216|424:216|492:232,1,106.25
368,340,64609,1,0,0:0:0:0:
296,160,64762,2,0,P|252:108|116:140,1,212.5
60,312,65221,2,0,L|172:332,1,106.25
296,160,65527,6,0,L|312:32,1,106.25
300,24,65757,1,0,0:0:0:0:
300,24,65834,1,0,0:0:0:0:
288,256,65987,2,0,P|311:282|360:312,1,53.125
220,204,66140,2,0,P|172:208|100:248,1,106.25
436,344,66446,2,0,L|416:180,1,159.375
432,152,66752,6,0,L|440:96,2,53.125
260,352,67058,1,0,0:0:0:0:
228,272,67211,1,0,0:0:0:0:
336,28,67364,1,0,0:0:0:0:
320,108,67517,1,0,0:0:0:0:
304,188,67670,2,0,L|168:176,1,106.25
24,212,67976,5,0,0:0:0:0:
184,96,68130,1,0,0:0:0:0:
32,264,68283,1,0,0:0:0:0:
252,328,68436,1,0,0:0:0:0:
68,356,68589,2,0,L|156:276,1,106.25
365,284,68895,2,0,L|444:356,1,106.25
320,48,69201,6,0,B|352:92|352:92|356:152,1,106.25
252,328,69507,2,0,L|260:216,1,106.25
92,136,69813,2,0,P|144:129|192:160,1,106.25
448,256,70119,2,0,P|395:262|348:232,1,106.25
348,44,70425,5,0,0:0:0:0:
350,36,70502,1,0,0:0:0:0:
352,28,70578,1,0,0:0:0:0:
420,176,70732,1,0,0:0:0:0:
208,280,70885,1,0,0:0:0:0:
76,136,71038,1,0,0:0:0:0:
111,147,71114,1,0,0:0:0:0:
147,157,71191,1,0,0:0:0:0:
183,165,71267,1,0,0:0:0:0:
220,170,71344,2,0,L|236:108,1,53.125
304,280,71497,2,0,L|312:344,1,53.125
460,224,71650,6,0,L|476:96,1,106.25
368,184,71956,1,0,0:0:0:0:
212,44,72109,2,0,P|120:28|28:120,1,212.5
128,336,72568,2,0,L|240:348,1,106.25
496,232,72874,6,0,B|448:216|448:216|320:252,1,159.375
264,272,73181,1,0,0:0:0:0:
232,104,73334,2,0,P|276:120|304:184,1,106.25
36,352,73640,2,0,P|27:305|69:249,1,106.25
264,272,73946,1,0,0:0:0:0:
148,216,74099,6,0,L|132:92,1,106.25
368,28,74405,1,0,0:0:0:0:
348,172,74558,1,0,0:0:0:0:
184,48,74711,5,0,0:0:0:0:
184,48,74788,1,0,0:0:0:0:
184,48,74864,1,0,0:0:0:0:
276,236,75017,1,0,0:0:0:0:
472,172,75170,1,0,0:0:0:0:
240,128,75323,6,0,P|180:168|180:308,1,212.5
384,328,75783,2,0,P|392:304|388:272,1,53.125
276,236,75936,2,0,L|288:368,1,106.25
512,140,76242,2,0,L|332:164,1,159.375
320,152,76548,5,0,0:0:0:0:
336,52,76701,1,0,0:0:0:0:
160,336,76854,5,0,0:0:0:0:
72,312,77007,1,0,0:0:0:0:
136,244,77160,1,0,0:0:0:0:
136,244,77313,1,0,0:0:0:0:
364,256,77466,5,0,0:0:0:0:
452,232,77619,1,0,0:0:0:0:
388,164,77772,1,0,0:0:0:0:
388,164,77925,1,0,0:0:0:0:
168,152,78078,5,0,0:0:0:0:
80,128,78231,1,0,0:0:0:0:
144,60,78384,1,0,0:0:0:0:
144,60,78537,1,0,0:0:0:0:
432,108,78691,6,0,P|392:72|304:72,1,106.25
272,136,78997,2,0,L|296:312,1,159.375
320,328,79303,1,0,0:0:0:0:
424,236,79456,1,0,0:0:0:0:
172,88,79609,2,0,L|196:264,1,159.375
200,324,79915,2,0,P|156:360|92:364,1,106.25
24,152,80221,5,0,0:0:0:0:
108,272,80374,1,0,0:0:0:0:
272,188,80527,1,0,0:0:0:0:
424,236,80681,1,0,0:0:0:0:
276,367,80834,5,0,0:0:0:0:
249,370,80910,1,0,0:0:0:0:
224,362,80987,1,0,0:0:0:0:
204,344,81063,1,0,0:0:0:0:
193,321,81140,1,0,0:0:0:0:
168,184,81293,1,0,0:0:0:0:
252,80,81446,5,0,0:0:0:0:
380,304,81752,1,0,0:0:0:0:
380,304,81905,1,0,0:0:0:0:
132,304,82211,1,0,0:0:0:0:
376,124,82517,5,0,0:0:0:0:
256,348,82823,1,0,0:0:0:0:
128,124,83130,1,0,0:0:0:0:
328,216,83436,5,0,0:0:0:0:
184,216,83589,1,0,0:0:0:0:
256,136,83895,5,0,0:0:0:0:
256,192,85732,12,0,88946,0:0:0:0:
