osu file format v14

[General]
AudioFilename: audio.mp3
AudioLeadIn: 0
PreviewTime: 175930
Countdown: 0
SampleSet: Soft
StackLeniency: 0.7
Mode: 0
LetterboxInBreaks: 0
WidescreenStoryboard: 0

[Editor]
Bookmarks: 58378,77305,83578,113005,131598,148398,150798,153205,158005,165198,175998,195198,214398,214473,233598,257598,276798,295998,296073
DistanceSpacing: 1.3
BeatDivisor: 4
GridSize: 4
TimelineZoom: 6.199996

[Metadata]
Title:Beyond the Bottom
TitleUnicode:Beyond the Bottom
Artist:Wake Up, Girls!
ArtistUnicode:Wake Up, Girls!
Creator:TyrantsEye2014
Version:Fragile Heart
Source:Wake Up, Girls! Beyond the Bottom
Tags:Mayu Yoshioka 吉岡茉祐 Airi Eino 永野愛理 Minami Tanaka 田中美海 Yoshino Aoyama 青山吉能 Nanami Yamashita 山下七海 Kaya Okuno 奥野香耶 Miyu Takagi 高木美佑 Hidekazu Tanaka MONACA Bon Karaya wug
BeatmapID:1289475
BeatmapSetID:610733

[Difficulty]
HPDrainRate:6
CircleSize:4
OverallDifficulty:9
ApproachRate:9.3
SliderMultiplier:1.8
SliderTickRate:1

[Events]
//Background and Video events
0,0,"BeyondTheBottomBG.jpg",0,0
//Break Periods
2,124605,131051
2,138854,140501
//Storyboard Layer 0 (Background)
//Storyboard Layer 1 (Fail)
//Storyboard Layer 2 (Pass)
//Storyboard Layer 3 (Foreground)
//Storyboard Sound Samples

[TimingPoints]
805,300,4,2,5,40,1,0
805,-111.111111111111,4,2,5,40,0,0
1705,-142.857142857143,4,2,1,40,0,0
2605,-200,4,2,1,40,0,0
3205,-111.111111111111,4,2,1,40,0,0
4105,-142.857142857143,4,2,1,40,0,0
5005,-200,4,2,1,40,0,0
5605,-111.111111111111,4,2,1,40,0,0
6505,-142.857142857143,4,2,1,40,0,0
7405,-200,4,2,1,40,0,0
8005,-125,4,2,1,40,0,0
10405,-125,4,2,1,50,0,0
17605,-100,4,2,1,50,0,0
19405,-100,4,2,1,50,0,0
19705,-90.9090909090909,4,2,1,50,0,0
20005,-133.333333333333,4,2,1,40,0,0
36805,-125,4,2,1,50,0,0
37180,-125,4,2,1,5,0,0
37255,-100,4,2,1,50,0,0
37630,-100,4,2,1,5,0,0
37705,-125,4,2,1,50,0,0
38080,-125,4,2,1,5,0,0
38155,-100,4,2,1,50,0,0
38530,-100,4,2,1,5,0,0
38605,-100,4,2,15,40,0,0
38905,-100,4,2,1,40,0,0
39205,-111.111111111111,4,2,1,50,0,0
56005,-99.9999999999999,4,2,1,60,0,0
56455,-90.9090909090909,4,2,1,60,0,0
56830,-90.9090909090909,4,2,1,5,0,0
56905,-100,4,2,1,60,0,0
57355,-90.9090909090909,4,2,1,60,0,0
57730,-90.9090909090909,4,2,1,5,0,0
57805,-100,4,2,1,60,0,0
58030,-100,4,2,1,5,0,0
58105,-100,4,2,1,60,0,0
58330,-100,4,2,1,5,0,0
58405,-111.111111111111,4,2,1,55,0,0
72805,-99.9999999999999,4,2,1,65,0,0
76405,-83.3333333333333,4,2,1,75,0,0
81205,-200,4,2,1,40,0,0
81430,-200,4,2,1,5,0,0
81505,-142.857142857143,4,2,1,50,0,0
81730,-142.857142857143,4,2,1,5,0,0
81805,-111.111111111111,4,2,1,60,0,0
82030,-111.111111111111,4,2,1,5,0,0
82105,-90.9090909090909,4,2,1,70,0,0
82330,-90.9090909090909,4,2,1,5,0,0
82405,-90.9090909090909,4,2,1,65,0,0
83005,-90.9090909090909,4,2,1,65,0,0
83605,-111.111111111111,4,2,5,60,0,1
83830,-111.111111111111,4,2,5,5,0,0
83905,-111.111111111111,4,2,1,60,0,0
84130,-111.111111111111,4,2,1,5,0,0
84205,-111.111111111111,4,2,1,60,0,0
84430,-111.111111111111,4,2,1,5,0,0
84505,-111.111111111111,4,2,1,60,0,0
84730,-111.111111111111,4,2,1,5,0,0
84805,-111.111111111111,4,2,1,60,0,0
85030,-111.111111111111,4,2,1,5,0,0
85105,-111.111111111111,4,2,1,60,0,0
85330,-111.111111111111,4,2,1,5,0,0
85405,-111.111111111111,4,2,1,60,0,0
85630,-111.111111111111,4,2,1,5,0,0
85705,-111.111111111111,4,2,1,60,0,0
85930,-111.111111111111,4,2,1,5,0,0
86005,-111.111111111111,4,2,9,60,0,0
86905,-100,4,2,1,60,0,0
87805,-111.111111111111,4,2,1,60,0,0
88405,-111.111111111111,4,2,9,60,0,0
88555,-111.111111111111,4,2,1,60,0,0
90805,-111.111111111111,4,2,9,60,0,0
90955,-111.111111111111,4,2,1,60,0,0
91255,-111.111111111111,4,2,1,60,0,0
91705,-100,4,2,1,60,0,0
92005,-100,4,2,9,60,0,0
92605,-100,4,2,10,60,0,0
92755,-100,4,2,1,60,0,0
93205,-111.111111111111,4,2,11,60,0,0
93430,-111.111111111111,4,2,11,5,0,0
93505,-111.111111111111,4,2,1,60,0,0
93730,-111.111111111111,4,2,1,5,0,0
93805,-111.111111111111,4,2,1,60,0,0
94030,-111.111111111111,4,2,1,5,0,0
94105,-111.111111111111,4,2,1,60,0,0
94330,-111.111111111111,4,2,1,5,0,0
94405,-111.111111111111,4,2,61,60,0,0
94630,-111.111111111111,4,2,1,5,0,0
94705,-111.111111111111,4,2,1,60,0,0
94930,-111.111111111111,4,2,1,5,0,0
95005,-111.111111111111,4,2,1,60,0,0
95230,-111.111111111111,4,2,1,5,0,0
95305,-111.111111111111,4,2,1,60,0,0
95530,-111.111111111111,4,2,1,5,0,0
95605,-111.111111111111,4,2,10,60,0,0
95905,-111.111111111111,4,2,1,60,0,0
96505,-99.9999999999999,4,2,1,60,0,0
96805,-90.9090909090909,4,2,9,60,0,0
97555,-142.857142857143,4,2,1,60,0,0
98005,-100,4,2,1,70,0,0
98305,-100,4,2,1,50,0,0
99205,-100,4,2,1,55,0,0
99805,-100,4,2,1,60,0,0
100405,-100,4,2,1,65,0,0
101005,-100,4,2,1,70,0,0
101605,-100,4,2,1,75,0,0
102430,-100,4,2,1,80,0,0
102805,-90.9090909090909,4,2,5,80,0,1
102880,-90.9090909090909,4,2,1,80,0,1
122005,-90.9090909090909,4,2,5,80,0,0
124405,-90.9090909090909,4,2,1,60,0,0
131605,-111.111111111111,4,2,1,40,0,0
139105,-125,4,2,2,30,0,0
141055,-111.111111111111,4,2,1,40,0,0
148405,-100,4,2,1,50,0,0
148855,-90.9090909090909,4,2,1,50,0,0
149230,-90.9090909090909,4,2,1,5,0,0
149305,-100,4,2,1,50,0,0
149755,-90.9090909090909,4,2,1,50,0,0
150130,-90.9090909090909,4,2,1,5,0,0
150205,-100,4,2,1,50,0,0
150430,-100,4,2,1,5,0,0
150505,-100,4,2,1,50,0,0
150730,-100,4,2,1,5,0,0
150805,-111.111111111111,4,2,1,55,0,0
165205,-99.9999999999999,4,2,1,65,0,0
168805,-83.3333333333333,4,2,1,75,0,0
173605,-142.857142857143,4,2,1,40,0,0
173830,-142.857142857143,4,2,1,5,0,0
173905,-142.857142857143,4,2,1,50,0,0
174130,-142.857142857143,4,2,1,5,0,0
174205,-111.111111111111,4,2,1,60,0,0
174430,-111.111111111111,4,2,1,5,0,0
174505,-111.111111111111,4,2,1,70,0,0
174730,-111.111111111111,4,2,1,5,0,0
174805,-90.9090909090909,4,2,1,65,0,0
175405,-111.111111111111,4,2,1,70,0,0
175705,-66.6666666666667,4,2,2,95,0,0
176005,-90.9090909090909,4,2,5,80,0,1
176155,-90.9090909090909,4,2,1,80,0,1
190405,-90.9090909090909,4,2,1,80,0,0
195205,-90.9090909090909,4,2,5,80,0,1
195280,-90.9090909090909,4,2,1,80,0,1
214405,-90.9090909090909,4,2,1,80,0,0
233605,-90.9090909090909,4,2,1,80,0,1
250405,-83.3333333333333,4,2,1,80,0,0
255205,-142.857142857143,4,2,1,40,0,0
255430,-142.857142857143,4,2,1,5,0,0
255505,-111.111111111111,4,2,1,50,0,0
255730,-111.111111111111,4,2,1,5,0,0
255805,-90.9090909090909,4,2,1,60,0,0
256030,-90.9090909090909,4,2,1,5,0,0
256105,-76.9230769230769,4,2,1,70,0,0
256330,-76.9230769230769,4,2,1,5,0,0
256405,-83.3333333333333,4,2,1,80,0,0
257006,-83.3333333333333,4,2,1,80,0,0
257605,-200,4,2,9,55,0,0
266605,-200,4,2,10,55,0,0
267205,-200,4,2,11,55,0,0
268405,-200,4,2,61,55,0,0
269605,-200,4,2,10,55,0,0
270805,-200,4,2,9,70,0,0
272005,-200,4,2,1,70,0,0
272305,-100,4,2,1,50,0,0
273205,-100,4,2,1,55,0,0
273805,-100,4,2,1,60,0,0
274405,-100,4,2,1,65,0,0
275005,-100,4,2,1,70,0,0
275605,-100,4,2,1,75,0,0
276205,-100,4,2,1,70,0,0
276355,-100,4,2,1,80,0,0
276805,-90.9090909090909,4,2,5,80,0,1
276955,-90.9090909090909,4,2,1,80,0,1
296005,-153.846153846154,4,2,5,50,0,0
296455,-153.846153846154,4,2,2,50,0,0
303205,-125,4,2,2,50,0,0
303505,-125,4,2,1,50,0,0
305605,-125,4,2,1,50,0,0
312805,-100,4,2,1,50,0,0
314905,-90.9090909090909,4,2,1,50,0,0
315205,-100,4,2,1,50,0,0
316405,-100,4,2,1,60,0,0
317605,-100,4,2,1,70,0,0
318805,-100,4,2,1,75,0,0
320005,-100,4,2,1,80,0,0
320605,-100,4,2,1,5,0,0

[Colours]
Combo1 : 119,153,170
Combo2 : 187,221,238

[HitObjects]
114,32,805,6,0,P|75:144|139:256,1,242.999992584229,6|0,0:0|0:0,0:0:0:0:
130,249,1705,2,0,P|212:224|315:270,1,188.999994232178
305,260,2605,2,0,P|349:252|387:228,1,90
100,40,3205,6,0,B|116:120|76:160|76:160|44:208|88:280,1,242.999992584229,2|0,0:0|0:0,0:0:0:0:
81,269,4105,2,0,B|129:273|149:253|149:253|189:305|277:293,1,188.999994232178
253,295,5005,2,0,P|290:271|335:263,1,90
339,25,5605,6,0,B|359:75|334:140|334:140|317:193|334:264,1,242.999992584229,2|0,0:0|0:0,0:0:0:0:
334,263,6505,2,0,B|406:263|438:295|438:295|448:232|470:219,1,188.999994232178
464,223,7405,2,0,P|465:183|440:127,1,90
100,288,8005,6,0,L|24:296,1,72,0|0,0:0|0:0,0:0:0:0:
116,204,8305,2,0,P|156:224|164:344,1,144,0|0,0:0|0:0,0:0:0:0:
32,188,8755,2,0,P|52:148|172:140,1,144,0|0,0:0|0:0,0:0:0:0:
187,211,9205,2,0,L|115:203,1,72
115,203,9655,1,0,0:0:0:0:
224,120,9805,2,0,B|256:117|292:149|292:149|340:170|376:130,1,144
374,134,10405,6,0,L|382:205,1,72,4|0,0:0|0:0,0:0:0:0:
469,305,10705,2,0,L|487:142,1,144
363,283,11155,2,0,L|371:355,2,72
284,182,11605,2,0,P|214:189|173:246,1,144
97,349,12055,2,0,B|80:321|94:275|94:275|93:222|41:207,1,144
64,80,12505,2,0,L|99:83,3,36
124,84,12805,6,0,L|194:70,1,72,2|0,0:0|0:0,0:0:0:0:
296,44,13105,2,0,P|296:92|268:136,1,72
217,197,13405,1,0,0:0:0:0:
217,197,13555,2,0,P|286:204|327:261,1,144
224,360,14005,2,0,L|238:290,1,72
139,348,14305,1,0,0:0:0:0:
139,348,14455,1,0,0:0:0:0:
86,260,14605,2,0,P|55:242|17:238,1,72
81,139,14905,2,0,P|116:134|147:116,1,72
263,50,15205,6,0,P|298:54|329:72,1,72,2|0,0:0|0:0,0:0:0:0:
406,173,15505,2,0,B|389:127|389:127|415:98|423:64|405:16,1,144
468,248,15955,2,0,P|437:265|402:272,1,72
239,243,16255,1,0,0:0:0:0:
257,328,16405,2,0,P|297:308|305:188,1,144
181,205,16855,2,0,P|207:230|241:244,1,72
257,152,17155,1,0,0:0:0:0:
241,60,17305,2,0,P|207:73|181:98,1,72,2|2,0:0|0:0,0:0:0:0:
97,199,17605,5,6,0:0:0:0:
259,250,17755,1,0,0:0:0:0:
162,92,17905,1,2,0:0:0:0:
119,329,18055,2,0,B|171:313|211:329|211:329|251:345|295:329,1,180,2|0,0:0|0:0,0:0:0:0:
445,158,18505,5,6,0:0:0:0:
259,250,18655,1,0,0:0:0:0:
476,310,18805,1,0,0:0:0:0:
389,60,18955,2,0,P|346:103|351:221,1,180,2|0,0:0|0:0,0:0:0:0:
252,339,19405,6,0,L|259:242,1,90,2|0,0:0|0:0,0:0:0:0:
93,22,19705,2,0,L|102:143,1,99.0000030212403,2|0,0:0|0:0,0:0:0:0:
53,254,20005,6,0,P|125:264|184:219,1,135.000005149842,6|0,0:0|0:0,0:0:0:0:
227,162,20455,1,0,0:0:0:0:
362,131,20605,2,0,P|332:115|299:112,2,67.5000025749208
310,198,21055,1,0,0:0:0:0:
396,211,21205,2,0,P|435:177|435:88,1,135.000005149842
227,162,21655,2,0,P|225:227|271:275,2,135.000005149842
299,111,22405,6,0,L|164:100,1,135.000005149842,2|0,0:0|0:0,0:0:0:0:
6,187,22855,2,0,L|140:176,1,135.000005149842
227,162,23305,1,0,0:0:0:0:
299,111,23455,1,0,0:0:0:0:
305,198,23605,2,0,P|271:237|182:237,1,135.000005149842
140,176,24055,1,0,0:0:0:0:
232,94,24205,2,0,L|226:161,1,67.5000025749208
107,259,24505,2,0,L|65:255,3,33.7500012874604
55,252,24805,6,0,L|44:117,1,135.000005149842
120,73,25255,1,0,0:0:0:0:
205,52,25405,2,0,P|244:50|288:71,1,67.5000025749208
340,111,25705,2,0,P|373:113|405:104,1,67.5000025749208
442,24,26005,2,0,P|481:58|481:147,1,135.000005149842
295,224,26455,2,0,P|293:158|339:110,2,135.000005149842,0|0|2,0:0|0:0|0:0,0:0:0:0:
488,235,27205,6,0,P|440:189|375:191,1,135.000005149842,2|0,0:0|0:0,0:0:0:0:
295,224,27655,1,0,0:0:0:0:
224,275,27805,2,0,L|211:341,1,67.5000025749208
135,280,28105,2,0,L|122:346,1,67.5000025749208
54,241,28405,2,0,P|101:195|167:196,1,135.000005149842
358,285,28855,2,0,L|223:274,1,135.000005149842
135,280,29305,2,0,L|123:336,2,33.7500012874604
138,102,29605,6,0,P|203:100|251:146,1,135.000005149842,6|0,0:0|0:0,0:0:0:0:
295,224,30055,1,0,0:0:0:0:
358,285,30205,2,0,B|388:252|387:222|378:197|378:197|394:137,1,135.000005149842
424,76,30655,1,0,0:0:0:0:
479,143,30805,2,0,B|468:181|468:181|477:206|478:236|461:279,1,135.000005149842
250,336,31255,2,0,P|248:271|294:223,2,135.000005149842,0|0|2,0:0|0:0|0:0,0:0:0:0:
380,254,32005,6,0,P|382:189|336:141,1,135.000005149842,2|0,0:0|0:0,0:0:0:0:
161,155,32605,2,0,P|195:173|238:169,1,67.5000025749208
215,89,32905,2,0,P|181:71|137:74,1,67.5000025749208
83,190,33205,2,0,L|94:325,1,135.000005149842
181,316,33655,2,0,B|250:287|247:347|336:303,1,135.000005149842
380,254,34105,2,0,P|410:256|432:263,2,33.7500012874604
299,216,34405,6,0,P|346:170|412:171,1,135.000005149842,2|0,0:0|0:0,0:0:0:0:
412,171,35005,2,0,P|442:185|463:211,1,67.5000025749208
420,305,35305,2,0,P|393:284|379:253,1,67.5000025749208
299,216,35605,2,0,L|164:205,1,135.000005149842
51,161,36055,2,0,P|116:159|164:205,1,135.000005149842
164,205,36655,1,0,0:0:0:0:
212,330,36805,6,0,B|308:370|304:284|398:333,1,180,2|0,0:0|0:0,0:0:0:0:
459,171,37255,2,0,P|390:192|405:341,1,225
453,264,37705,6,0,B|400:243|400:243|256:272,1,180
167,330,38155,2,0,B|233:356|233:356|413:320,1,225
323,154,38605,6,0,P|277:201|278:267,1,135.000005149842,2|0,0:0|0:0,0:0:0:0:
414,192,38905,2,0,P|420:126|383:71,1,135,2|0,0:0|0:0,0:0:0:0:
278,267,39205,6,0,L|143:256,1,121.499996292114,6|0,0:0|0:0,0:0:0:0:
133,257,39505,1,2,0:0:0:0:
55,185,39655,1,0,0:0:0:0:
120,102,39805,2,0,P|150:140|154:196,1,80.9999975280763,2|0,0:0|0:0,0:0:0:0:
40,264,40105,2,0,L|54:185,1,80.9999975280763
257,91,40405,2,0,L|337:77,1,80.9999975280763
156,171,40705,1,0,0:0:0:0:
259,188,40855,2,0,L|338:173,1,80.9999975280763
406,41,41155,2,0,P|367:51|336:77,1,80.9999975280763,0|2,0:0|0:0,0:0:0:0:
348,290,41455,1,0,0:0:0:0:
427,218,41605,6,0,L|412:139,1,80.9999975280763
326,75,41905,1,2,0:3:0:0:
286,172,42055,1,0,0:3:0:0:
181,162,42205,2,0,P|191:123|217:92,1,80.9999975280763,2|0,0:0|0:0,0:0:0:0:
222,248,42505,2,0,P|183:258|143:250,1,80.9999975280763,2|0,0:0|0:0,0:0:0:0:
286,172,42805,2,0,L|365:157,1,80.9999975280763,2|0,0:0|0:0,0:0:0:0:
470,171,43105,1,0,0:0:0:0:
452,274,43255,2,0,P|413:263|382:237,1,80.9999975280763,0|2,0:0|0:0,0:0:0:0:
328,87,43555,2,0,P|354:117|364:156,1,80.9999975280763,0|2,0:0|0:0,0:0:0:0:
310,271,43855,1,0,0:0:0:0:
239,83,44005,6,0,P|249:44|275:13,1,80.9999975280763,2|0,0:0|0:0,0:0:0:0:
411,29,44305,1,2,0:0:0:0:
328,87,44455,1,0,0:0:0:0:
420,125,44605,2,0,P|458:114|489:88,1,80.9999975280763,2|0,0:0|0:0,0:0:0:0:
346,181,44905,2,0,L|361:260,1,80.9999975280763,2|0,0:0|0:0,0:0:0:0:
225,349,45205,2,0,L|240:270,1,80.9999975280763,2|0,0:0|0:0,0:0:0:0:
182,152,45505,1,2,0:0:0:0:
132,241,45655,2,0,L|147:320,1,80.9999975280763,0|2,0:0|0:0,0:0:0:0:
281,142,45955,2,0,P|270:103|244:72,1,80.9999975280763,0|2,0:0|0:0,0:0:0:0:
122,21,46255,1,0,0:0:0:0:
102,167,46405,6,0,L|181:152,1,80.9999975280763,2|0,0:0|0:0,0:0:0:0:
361,199,46705,2,0,P|330:225|291:235,1,80.9999975280763,2|0,0:0|0:0,0:0:0:0:
324,97,47005,2,0,P|392:93|462:172,1,161.999995056153,2|0,0:0|0:0,0:0:0:0:
428,350,47455,1,0,0:0:0:0:
345,278,47605,2,0,L|360:199,1,80.9999975280763,2|0,0:0|0:0,0:0:0:0:
324,97,47905,1,2,0:0:0:0:
226,107,48055,2,0,P|236:145|262:176,1,80.9999975280763,0|2,0:0|0:0,0:0:0:0:
395,38,48355,2,0,P|364:11|325:1,1,80.9999975280763,0|2,0:0|0:0,0:0:0:0:
202,15,48655,1,0,0:0:0:0:
143,198,48805,6,0,L|282:171,1,121.499996292114,4|0,0:0|0:0,0:0:0:0:
279,166,49105,1,2,0:0:0:0:
186,14,49255,1,0,0:0:0:0:
104,80,49405,2,0,P|134:106|173:116,1,80.9999975280763,2|0,0:0|0:0,0:0:0:0:
348,202,49705,2,0,P|317:175|278:165,1,80.9999975280763,2|0,0:0|0:0,0:0:0:0:
185,283,50005,2,0,L|264:268,1,80.9999975280763
143,198,50305,1,2,0:0:0:0:
88,287,50455,2,0,P|98:325|124:356,1,80.9999975280763,0|2,0:0|0:0,0:0:0:0:
333,304,50755,2,0,P|302:277|263:267,1,80.9999975280763,0|2,0:0|0:0,0:0:0:0:
76,272,51055,1,0,0:0:0:0:
152,111,51205,6,0,P|190:121|221:147,1,80.9999975280763,2|0,0:0|0:0,0:0:0:0:
57,148,51505,2,0,P|53:79|132:10,1,161.999995056153,2|2,0:0|0:0,0:0:0:0:
240,29,51955,1,0,0:0:0:0:
300,132,52105,2,0,L|221:147,1,80.9999975280763,2|0,0:0|0:0,0:0:0:0:
45,339,52405,2,0,P|53:275|133:219,1,161.999995056153,2|2,0:0|0:0,0:0:0:0:
260,308,52855,2,0,P|220:316|168:300,1,80.9999975280763,0|2,0:0|0:0,0:0:0:0:
364,264,53155,2,0,L|379:343,1,80.9999975280763,0|2,0:0|0:0,0:0:0:0:
296,204,53455,1,0,0:0:0:0:
356,88,53605,6,0,P|396:80|448:96,1,80.9999975280763,2|0,0:0|0:0,0:0:0:0:
219,231,53905,2,0,L|204:152,1,80.9999975280763,2|0,0:0|0:0,0:0:0:0:
260,72,54205,1,2,0:0:0:0:
356,88,54355,1,0,0:0:0:0:
396,172,54505,2,0,L|411:251,1,80.9999975280763,2|0,0:0|0:0,0:0:0:0:
228,320,54805,2,0,P|188:313|155:290,1,80.9999975280763,2|0,0:0|0:0,0:0:0:0:
200,192,55105,1,2,0:0:0:0:
296,204,55255,2,0,L|311:283,1,80.9999975280763,0|2,0:0|0:0,0:0:0:0:
200,192,55555,2,0,L|215:113,1,80.9999975280763,0|2,0:0|0:0,0:0:0:0:
296,45,55855,1,0,0:0:0:0:
413,173,56005,5,6,0:0:0:0:
202,113,56155,1,0,0:0:0:0:
430,59,56305,1,2,0:0:0:0:
238,279,56455,2,0,P|132:252|228:205,1,247.500007553101,2|0,0:0|0:0,0:0:0:0:
287,210,56905,5,6,0:0:0:0:
81,322,57055,1,0,0:0:0:0:
142,111,57205,1,2,0:0:0:0:
369,244,57355,2,0,B|395:252|415:275|415:275|331:327|276:315|214:259,1,247.500007553101,2|0,0:0|0:0,0:0:0:0:
287,210,57805,6,0,P|245:261|180:228,1,135,2|0,0:0|0:0,0:0:0:0:
232,136,58105,2,0,P|296:121|356:149,1,135,2|0,0:0|0:0,0:0:0:0:
256,340,58405,6,0,L|175:328,1,80.9999975280763,6|0,0:0|0:0,0:0:0:0:
88,308,58705,1,2,0:0:0:0:
203,178,58855,2,0,P|211:217|206:257,1,80.9999975280763,2|0,0:0|0:0,0:0:0:0:
120,220,59155,1,0,0:0:0:0:
176,88,59305,2,0,L|256:99,1,80.9999975280763,2|0,0:0|0:0,0:0:0:0:
432,136,59605,5,0,3:0:0:0:
432,136,59755,1,0,0:0:0:0:
456,228,59905,2,0,L|444:308,1,80.9999975280763,2|0,0:0|0:0,0:0:0:0:
344,160,60205,2,0,L|367:237,1,80.9999975280763,2|0,0:0|0:0,0:0:0:0:
216,140,60505,2,0,L|270:200,1,80.9999975280763,2|0,0:0|0:0,0:0:0:0:
140,296,60805,6,0,P|99:298|61:285,1,80.9999975280763,2|0,0:0|0:0,0:0:0:0:
16,200,61105,1,0,0:0:0:0:
123,119,61255,2,0,L|111:199,1,80.9999975280763,2|0,0:0|0:0,0:0:0:0:
61,285,61555,1,0,0:0:0:0:
216,140,61705,2,0,L|204:220,1,80.9999975280763,2|0,0:0|0:0,0:0:0:0:
344,312,62005,5,0,3:0:0:0:
344,312,62155,1,0,0:0:0:0:
388,232,62305,2,0,P|349:218|309:221,1,80.9999975280763,2|0,0:0|0:0,0:0:0:0:
140,296,62605,1,2,0:0:0:0:
264,136,62755,1,2,0:0:0:0:
344,312,62905,1,0,0:0:0:0:
204,220,63055,1,2,0:0:0:0:
468,212,63205,6,0,P|470:252|457:290,1,80.9999975280763,6|0,0:0|0:0,0:0:0:0:
376,336,63505,1,0,0:0:0:0:
291,228,63655,2,0,L|372:240,1,80.9999975280763,2|0,0:0|0:0,0:0:0:0:
276,328,63955,1,0,0:0:0:0:
240,148,64105,2,0,P|278:134|318:137,1,80.9999975280763,2|0,0:0|0:0,0:0:0:0:
208,268,64405,5,0,3:0:0:0:
208,268,64555,1,0,0:0:0:0:
116,260,64705,2,0,P|127:221|154:192,1,80.9999975280763,2|0,0:0|0:0,0:0:0:0:
92,124,65005,2,0,P|127:104|166:102,1,80.9999975280763,2|0,0:0|0:0,0:0:0:0:
176,12,65305,2,0,P|215:23|244:50,1,80.9999975280763,2|0,0:0|0:0,0:0:0:0:
364,240,65605,6,0,P|323:242|285:229,1,80.9999975280763,2|0,0:0|0:0,0:0:0:0:
240,144,65905,1,0,0:0:0:0:
347,63,66055,2,0,L|335:143,1,80.9999975280763,2|0,0:0|0:0,0:0:0:0:
285,229,66355,1,0,0:0:0:0:
440,84,66505,2,0,L|428:164,1,80.9999975280763,2|0,0:0|0:0,0:0:0:0:
336,320,66805,5,0,3:0:0:0:
336,320,66955,1,0,0:0:0:0:
240,328,67105,2,0,L|159:316,1,80.9999975280763,2|0,0:0|0:0,0:0:0:0:
16,208,67405,1,2,0:0:0:0:
232,236,67555,2,0,L|176:200,1,40.4999987640381,0|0,3:0|3:0,0:0:0:0:
84,140,67705,1,2,0:0:0:0:
159,316,67855,1,2,0:0:0:0:
332,236,68005,6,0,P|325:196|302:163,1,80.9999975280763,6|0,0:0|0:0,0:0:0:0:
168,140,68305,1,2,0:0:0:0:
232,236,68455,1,0,0:0:0:0:
236,72,68605,2,0,P|203:48|163:42,1,80.9999975280763
87,151,68905,2,0,L|168:139,1,80.9999975280763,2|0,0:0|0:0,0:0:0:0:
328,112,69205,5,0,3:0:0:0:
328,112,69355,1,0,0:0:0:0:
320,200,69505,2,0,P|282:189|252:162,1,80.9999975280763
376,36,69805,2,0,P|403:65|414:104,1,80.9999975280763,2|0,0:0|0:0,0:0:0:0:
416,212,70105,2,0,L|404:292,1,80.9999975280763,2|0,0:0|0:0,0:0:0:0:
251,238,70405,6,0,P|280:210|319:199,1,80.9999975280763,2|0,0:0|0:0,0:0:0:0:
403,292,70705,1,0,0:0:0:0:
288,340,70855,2,0,L|208:328,1,80.9999975280763,2|0,0:0|0:0,0:0:0:0:
132,272,71155,2,0,P|162:245|201:234,1,80.9999975280763,2|0,0:0|0:0,0:0:0:0:
69,123,71455,1,0,0:0:0:0:
69,123,71605,6,0,P|98:149|137:160,1,80.9999975280763,0|0,3:0|0:0,0:0:0:0:
228,71,71905,2,0,L|147:59,1,80.9999975280763,2|0,0:0|0:0,0:0:0:0:
256,232,72205,1,2,0:0:0:0:
147,59,72355,1,2,0:0:0:0:
336,182,72505,1,0,0:0:0:0:
137,160,72655,1,2,0:0:0:0:
388,102,72805,6,0,P|419:135|431:180,1,90,6|0,0:0|0:0,0:0:0:0:
377,292,73105,1,2,0:0:0:0:
336,182,73255,1,0,0:0:0:0:
476,284,73405,2,0,P|470:328|445:365,1,90,2|0,0:0|0:0,0:0:0:0:
288,306,73705,2,0,L|389:290,1,90,2|0,0:0|0:0,0:0:0:0:
222,382,74005,6,0,P|197:345|190:300,1,90,2|0,0:0|0:0,0:0:0:0:
302,217,74305,2,0,L|286:318,1,90,2|0,0:0|0:0,0:0:0:0:
118,186,74605,2,0,L|219:170,1,90,2|0,0:0|0:0,0:0:0:0:
383,186,74905,2,0,P|346:210|301:216,1,90,2|0,0:0|0:0,0:0:0:0:
376,74,75205,6,0,P|451:96|487:204,1,180,2|2,0:0|0:0,0:0:0:0:
414,304,75655,1,0,0:0:0:0:
301,216,75805,2,0,P|338:191|382:186,1,90,2|0,0:0|0:0,0:0:0:0:
276,315,76105,2,0,L|174:300,1,90,2|0,0:0|0:0,0:0:0:0:
0,160,76405,6,0,B|56:140|104:156|104:156|146:178|212:165,1,215.999993408203,12|2,0:0|0:0,0:0:0:0:
422,236,76855,2,0,P|337:308|259:252,1,215.999993408203,12|2,0:0|0:0,0:0:0:0:
312,44,77305,2,0,B|355:46|383:27|383:27|460:34|512:79,1,215.999993408203,12|2,0:0|0:0,0:0:0:0:
261,259,77755,2,0,B|216:120|216:120|292:164,1,215.999993408203,12|2,0:0|0:0,0:0:0:0:
496,288,78205,5,12,0:0:0:0:
169,278,78505,1,12,0:0:0:0:
370,113,78805,6,0,B|357:179|379:221|379:221|395:269|375:325,1,215.999993408203,12|2,0:0|0:0,0:0:0:0:
207,163,79255,2,0,P|295:114|367:186,1,215.999993408203,12|2,0:0|0:0,0:0:0:0:
140,264,79705,2,0,P|95:203|140:57,1,215.999993408203,12|2,0:0|0:0,0:0:0:0:
252,296,80155,2,0,B|224:340|224:340|156:388|60:352,1,215.999993408203,12|2,0:0|0:0,0:0:0:0:
122,73,80605,5,12,0:0:0:0:
382,285,80905,1,12,0:0:0:0:
200,340,81205,6,0,P|215:300|207:261,1,67.5,2|0,0:0|0:0,0:0:0:0:
304,244,81505,6,0,P|295:296|316:346,1,94.499997116089,2|0,0:0|0:0,0:0:0:0:
212,256,81805,6,0,P|199:181|152:128,1,121.499996292114,2|0,0:0|0:0,0:0:0:0:
372,100,82105,6,0,P|317:164|313:248,1,148.50000453186,2|0,0:0|0:0,0:0:0:0:
408,308,82405,6,0,B|373:266|284:263|284:263|248:309|204:341|112:325,1,297.000009063721,2|0,0:0|0:0,0:0:0:0:
160,76,83005,2,0,P|235:182|117:237,1,297.000009063721,2|0,0:0|0:0,0:0:0:0:
46,187,83605,6,0,P|95:155|155:159,1,121.499996292114,6|0,0:0|0:0,0:0:0:0:
212,224,83905,2,0,P|261:256|321:252,1,121.499996292114
392,204,84205,2,0,L|362:49,1,121.499996292114,2|0,0:0|0:0,0:0:0:0:
296,44,84505,2,0,P|236:39|186:72,1,121.499996292114
155,159,84805,6,0,L|274:181,1,121.499996292114,2|0,0:0|0:0,0:0:0:0:
320,252,85105,2,0,P|270:284|210:280,1,121.499996292114
132,248,85405,2,0,L|109:128,1,121.499996292114,2|0,0:0|0:0,0:0:0:0:
177,75,85705,2,0,P|210:57|306:62,1,121.499996292114,8|0,3:0|0:0,0:0:0:0:
400,200,86005,6,0,B|426:247|410:286|410:286|439:316|438:370,1,161.999995056153,6|2,0:0|0:0,0:0:0:0:
303,183,86455,2,0,P|346:116|423:104,1,161.999995056153
483,182,86905,2,0,P|436:204|390:195,1,90,2|0,0:0|0:0,0:0:0:0:
196,160,87205,2,0,B|146:143|105:147|105:147|138:188|156:228|157:280|126:307|82:301|56:282|56:253|68:225|88:216|114:230,1,360,2|2,0:0|0:0,0:0:0:0:
312,224,88105,2,0,P|360:248|392:284,1,80.9999975280763,8|0,0:3|0:0,0:0:0:0:
476,356,88405,6,0,P|488:248|512:188,1,161.999995056153,6|2,0:0|0:0,0:0:0:0:
349,109,88855,2,0,P|374:185|379:266,1,161.999995056153
272,357,89305,2,0,P|218:360|172:345,1,80.9999975280763,2|0,0:0|0:0,0:0:0:0:
87,223,89605,2,0,P|167:228|244:253,1,161.999995056153,2|0,0:0|0:0,0:0:0:0:
460,349,90205,2,0,P|476:312|502:281,1,80.9999975280763,2|0,0:0|0:0,0:0:0:0:
349,114,90505,2,0,P|375:144|391:181,1,80.9999975280763,8|0,0:3|0:0,0:0:0:0:
272,357,90805,6,0,P|277:276|302:199,1,161.999995056153,6|2,0:0|0:0,0:0:0:0:
476,48,91255,2,0,B|461:90|475:124|475:124|493:170|480:210,1,161.999995056153
440,320,91705,2,0,P|396:327|332:307,1,90,2|0,0:0|0:0,0:0:0:0:
182,304,92005,2,0,B|174:299|160:299|131:289|104:291|82:302|73:325|71:347|105:371|142:350|150:332|151:264|130:218|86:191,1,270,6|0,0:0|0:0,0:0:0:0:
66,99,92605,2,0,P|114:83|178:87,1,90,2|0,0:0|0:0,0:0:0:0:
292,189,92905,2,0,P|247:187|204:172,1,90,8|0,0:3|0:0,0:0:0:0:
341,40,93205,6,0,P|400:34|450:67,1,121.499996292114,6|0,0:0|0:0,0:0:0:0:
474,145,93506,2,0,B|460:195|460:195|463:218|463:218|450:264,1,121.499996292114
422,337,93805,2,0,B|382:317|373:286|373:286|335:299|295:287,1,121.499996292114
244,284,94105,2,0,B|184:282|164:304|164:304|138:286|116:281,1,121.499996292114
60,169,94405,6,0,B|110:183|110:183|133:180|133:180|179:192,1,121.499996292114,6|0,0:0|0:0,0:0:0:0:
258,186,94705,2,0,B|264:176|251:138|251:138|282:129|302:89,1,121.499996292114
358,29,95005,2,0,B|394:72|381:116|381:116|393:140|419:161,1,121.499996292114
460,188,95305,2,0,P|465:247|441:303,1,121.499996292114,8|0,3:0|0:0,0:0:0:0:
239,352,95605,6,0,P|161:339|110:278,1,161.999995056153,6|0,0:0|0:0,0:0:0:0:
228,84,96055,2,0,B|220:140|220:140|228:184|228:184|216:243,1,161.999995056153
56,200,96505,2,0,P|96:181|140:188,1,90,8|0,0:3|0:0,0:0:0:0:
301,221,96805,6,0,B|337:232|357:260|357:260|353:208|389:172|445:164|489:196|517:232|509:292|469:344|430:335,1,396.000012084961,6|0,0:0|0:0,0:0:0:0:
280,312,97555,1,2,0:0:0:0:
280,312,97705,2,0,B|248:307|248:307|193:328|128:301,1,125.999996154785,8|6,0:0|0:0,0:0:0:0:
156,310,98305,6,0,P|170:261|223:220,1,90,0|0,3:0|3:0,0:0:0:0:
149,152,98605,2,0,P|198:139|260:165,1,90,0|0,3:0|3:0,0:0:0:0:
281,68,98905,2,0,P|316:104|325:171,1,90,0|0,3:0|2:0,0:0:0:0:
288,227,99205,5,0,3:0:0:0:
196,233,99355,1,0,3:0:0:0:
327,141,99505,1,0,3:0:0:0:
149,152,99655,1,0,3:0:0:0:
281,68,99805,5,0,3:0:0:0:
374,218,99955,1,0,3:0:0:0:
360,10,100105,1,0,3:0:0:0:
472,195,100255,1,0,3:0:0:0:
235,148,100405,5,0,3:0:0:0:
414,118,100555,1,0,3:0:0:0:
196,233,100705,1,0,3:0:0:0:
446,268,100855,1,0,3:0:0:0:
148,157,101005,5,0,3:0:0:0:
374,218,101155,1,0,3:0:0:0:
107,231,101305,1,0,3:0:0:0:
414,118,101455,1,0,3:0:0:0:
268,280,101605,5,8,3:2:0:0:
168,104,101755,1,0,3:0:0:0:
288,268,101905,1,8,3:2:0:0:
432,116,102055,1,0,3:0:0:0:
167,317,102205,5,8,0:0:0:0:
188,88,102355,1,2,0:0:0:0:
212,68,102430,1,2,0:0:0:0:
248,59,102505,1,8,0:0:0:0:
299,60,102580,1,8,0:0:0:0:
341,79,102655,1,8,0:0:0:0:
360,121,102730,1,8,0:0:0:0:
359,167,102805,6,0,L|338:293,1,99.0000030212403,6|0,0:0|0:0,0:0:0:0:
150,192,103105,2,0,P|190:168|270:180,1,99.0000030212403,8|0,0:0|0:0,0:0:0:0:
320,279,103405,2,0,L|221:266,1,99.0000030212403,2|0,0:0|0:0,0:0:0:0:
359,167,103705,2,0,L|456:179,1,99.0000030212403,8|0,0:0|0:0,0:0:0:0:
337,377,104005,2,0,P|288:376|245:352,1,99.0000030212403,2|0,0:0|0:0,0:0:0:0:
441,282,104305,2,0,L|457:379,1,99.0000030212403,8|0,0:0|0:0,0:0:0:0:
222,266,104605,1,2,0:0:0:0:
359,167,104755,1,2,0:0:0:0:
245,352,104905,2,0,L|147:369,1,99.0000030212403,8|0,0:0|0:0,0:0:0:0:
102,77,105205,6,0,P|178:77|238:201,1,198.000006042481,6|8,0:0|0:0,0:0:0:0:
147,368,105655,1,0,0:0:0:0:
86,174,105805,2,0,L|102:76,1,99.0000030212403,2|0,0:0|0:0,0:0:0:0:
336,76,106105,2,0,P|360:118|360:167,1,99.0000030212403,8|0,0:0|0:0,0:0:0:0:
280,323,106405,1,2,0:0:0:0:
280,140,106555,1,0,0:0:0:0:
426,237,106705,2,0,P|384:261|335:261,1,99.0000030212403,8|0,0:0|0:0,0:0:0:0:
204,176,107005,1,2,0:0:0:0:
432,120,107155,1,2,0:0:0:0:
334,260,107305,1,8,0:0:0:0:
376,56,107455,1,0,0:0:0:0:
402,325,107605,6,0,B|350:329|306:297|306:297|262:269|206:285,1,198.000006042481,6|8,0:0|0:0,0:0:0:0:
99,355,108055,2,0,P|115:291|99:235,1,99.0000030212403,0|2,0:0|0:0,0:0:0:0:
162,56,108355,1,0,0:0:0:0:
162,56,108505,2,0,P|147:103|152:152,1,99.0000030212403,8|0,0:0|0:0,0:0:0:0:
296,272,108805,1,2,0:0:0:0:
256,116,108955,1,0,0:0:0:0:
110,260,109105,2,0,P|158:264|205:249,1,99.0000030212403,8|0,0:0|0:0,0:0:0:0:
353,100,109405,2,0,L|255:116,1,99.0000030212403,2|2,0:0|0:0,0:0:0:0:
258,361,109705,2,0,P|285:321|295:273,1,99.0000030212403,8|0,0:0|0:0,0:0:0:0:
284,4,110005,6,0,P|208:4|148:128,1,198.000006042481,6|8,0:0|0:0,0:0:0:0:
295,271,110455,1,0,0:0:0:0:
353,100,110605,2,0,L|255:116,1,99.0000030212403,2|0,0:0|0:0,0:0:0:0:
110,260,110905,2,0,P|158:264|205:249,1,99.0000030212403,8|0,0:0|0:0,0:0:0:0:
400,165,111205,1,2,0:0:0:0:
219,40,111355,1,0,0:0:0:0:
294,271,111505,1,8,0:0:0:0:
362,85,111655,1,0,0:0:0:0:
150,178,111805,5,8,0:0:0:0:
368,300,111955,1,2,0:0:0:0:
205,248,112105,1,8,0:0:0:0:
393,205,112255,1,8,0:0:0:0:
393,205,112330,1,8,0:0:0:0:
393,205,112405,6,0,B|341:201|297:233|297:233|253:261|197:245,1,198.000006042481,6|8,0:0|0:0,0:0:0:0:
36,172,112855,1,0,0:0:0:0:
132,92,113005,2,0,P|180:98|223:123,1,99.0000030212403,2|0,0:0|0:0,0:0:0:0:
128,324,113305,2,0,P|103:281|96:232,1,99.0000030212403,8|0,0:0|0:0,0:0:0:0:
300,56,113605,2,0,L|398:40,1,99.0000030212403,2|0,0:0|0:0,0:0:0:0:
484,236,113905,2,0,P|435:229|392:204,1,99.0000030212403,8|0,0:0|0:0,0:0:0:0:
223,123,114205,1,2,0:0:0:0:
397,40,114355,1,2,0:0:0:0:
254,214,114505,2,0,P|229:171|222:122,1,99.0000030212403,8|0,0:0|0:0,0:0:0:0:
352,276,114805,6,0,P|270:328|178:303,1,198.000006042481,6|8,0:0|0:0,0:0:0:0:
222,122,115255,2,0,P|248:163|257:211,1,99.0000030212403,0|2,0:0|0:0,0:0:0:0:
148,204,115555,1,2,0:0:0:0:
144,48,115705,2,0,P|184:20|233:12,1,99.0000030212403,8|0,0:0|0:0,0:0:0:0:
354,227,116005,2,0,L|256:211,1,99.0000030212403,2|0,0:0|0:0,0:0:0:0:
416,144,116305,1,8,0:0:0:0:
196,288,116455,2,0,P|168:248|160:198,1,99.0000030212403,0|2,0:0|0:0,0:0:0:0:
304,316,116755,1,2,0:0:0:0:
84,136,116905,2,0,P|124:108|173:100,1,99.0000030212403,8|0,0:0|0:0,0:0:0:0:
348,157,117205,6,0,B|296:153|252:185|252:185|208:213|152:197,2,198.000006042481,6|8|2,0:0|0:0|0:0,0:0:0:0:
488,160,117955,1,2,0:0:0:0:
416,307,118105,2,0,P|368:300|328:272,1,99.0000030212403,8|0,0:0|0:0,0:0:0:0:
332,59,118405,2,0,L|348:157,1,99.0000030212403,2|0,0:0|0:0,0:0:0:0:
232,284,118705,2,0,P|239:235|267:195,1,99.0000030212403,8|0,0:0|0:0,0:0:0:0:
448,164,119005,1,2,0:0:0:0:
328,272,119155,1,2,0:0:0:0:
243,23,119305,2,0,P|291:30|331:58,1,99.0000030212403,8|0,0:0|0:0,0:0:0:0:
232,284,119605,6,0,P|142:247|109:157,2,198.000006042481,6|8|2,0:0|0:0|0:0,0:0:0:0:
356,176,120355,1,0,0:0:0:0:
259,79,120505,2,0,P|231:119|224:168,1,99.0000030212403,8|0,0:0|0:0,0:0:0:0:
371,273,120805,2,0,L|355:175,1,99.0000030212403,2|0,0:0|0:0,0:0:0:0:
504,56,121105,2,0,L|488:154,1,99.0000030212403,8|0,0:0|0:0,0:0:0:0:
464,292,121405,5,2,0:0:0:0:
292,288,121555,1,2,0:0:0:0:
262,285,121630,1,2,0:0:0:0:
232,286,121705,1,8,0:0:0:0:
203,291,121780,1,8,0:0:0:0:
174,299,121855,1,8,0:0:0:0:
147,310,121930,1,8,0:0:0:0:
121,325,122005,5,6,0:0:0:0:
256,192,122080,12,2,124405,0:0:0:0:
104,232,131605,5,6,0:0:0:0:
164,312,131905,2,0,P|196:272|200:224,1,80.9999975280763
104,232,132205,2,0,P|56:168|62:88,1,161.999995056153,2|0,0:0|0:0,0:0:0:0:
136,24,132655,1,0,0:0:0:0:
220,68,132805,2,0,B|300:109|297:39|377:73,1,161.999995056153,2|0,0:0|0:0,0:0:0:0:
448,136,133255,2,0,P|445:182|422:223,1,80.9999975280763,0|2,0:0|0:0,0:0:0:0:
336,232,133555,2,0,P|339:185|362:144,2,80.9999975280763
408,320,134005,5,2,0:0:0:0:
412,336,134305,2,0,P|375:319|335:318,1,80.9999975280763
240,336,134605,2,0,B|159:377|162:307|84:340,1,161.999995056153,2|0,0:0|0:0,0:0:0:0:
28,260,135055,1,0,0:0:0:0:
28,260,135205,2,0,L|36:160,1,80.9999975280763,2|0,0:0|0:0,0:0:0:0:
104,112,135505,1,0,0:0:0:0:
104,112,135655,2,0,P|150:114|191:137,1,80.9999975280763,0|2,0:0|0:0,0:0:0:0:
200,224,135955,2,0,P|153:220|112:197,2,80.9999975280763
296,160,136405,5,2,0:0:0:0:
312,144,136705,1,0,0:0:0:0:
328,240,136855,1,0,0:0:0:0:
424,256,137005,2,0,P|421:209|398:168,1,80.9999975280763,2|0,0:0|0:0,0:0:0:0:
232,84,137305,2,0,P|215:120|214:160,1,80.9999975280763
232,276,137605,2,0,P|168:228|88:248,1,161.999995056153,2|0,0:0|0:0,0:0:0:0:
71,345,138055,2,0,P|111:344|148:328,1,80.9999975280763,0|2,0:0|0:0,0:0:0:0:
244,288,138355,2,0,P|284:288|320:305,2,80.9999975280763
48,64,141055,6,0,B|100:48|144:68|144:68|140:72|140:72|188:88|238:66,1,202.499993820191,6|0,0:0|0:0,0:0:0:0:
256,56,141505,1,0,0:0:0:0:
388,200,141805,2,0,P|351:216|311:217,1,80.9999975280763,2|0,0:0|0:0,0:0:0:0:
330,123,142105,2,0,P|366:106|406:104,1,80.9999975280763
488,228,142405,2,0,P|460:280|348:300,1,161.999995056153,2|0,0:0|0:0,0:0:0:0:
268,296,142855,2,0,P|220:296|168:320,1,80.9999975280763,0|2,0:0|0:0,0:0:0:0:
92,204,143155,2,0,P|130:215|170:214,1,80.9999975280763
256,144,143455,1,0,0:0:0:0:
256,144,143530,1,0,0:0:0:0:
256,144,143605,5,2,0:0:0:0:
256,144,143905,2,0,P|239:107|238:67,1,80.9999975280763
333,86,144205,2,0,P|349:122|351:162,1,80.9999975280763,2|0,0:0|0:0,0:0:0:0:
288,236,144505,1,0,0:0:0:0:
288,236,144655,1,0,0:0:0:0:
160,168,144805,2,0,P|76:138|4:192,1,161.999995056153,2|0,0:0|0:0,0:0:0:0:
18,267,145255,2,0,P|57:262|88:236,1,80.9999975280763,0|2,0:0|0:0,0:0:0:0:
178,91,145555,2,0,P|161:127|159:167,1,80.9999975280763
176,264,145855,1,0,0:0:0:0:
176,264,145930,1,0,0:0:0:0:
176,264,146005,5,2,0:0:0:0:
176,264,146305,2,0,B|256:305|253:235|333:269,1,161.999995056153,0|2,0:0|0:0,0:0:0:0:
424,304,146755,1,0,0:0:0:0:
480,224,146905,2,0,P|443:208|403:206,1,80.9999975280763
228,152,147205,6,0,P|303:173|371:132,1,161.999995056153,2|0,0:0|0:0,0:0:0:0:
477,34,147655,2,0,P|461:70|459:111,1,80.9999975280763,0|2,0:0|0:0,0:0:0:0:
497,301,147955,2,0,P|495:260|479:223,1,80.9999975280763
371,132,148255,1,0,0:0:0:0:
194,249,148405,5,6,0:0:0:0:
295,81,148555,1,0,0:0:0:0:
284,344,148705,1,0,0:0:0:0:
94,265,148855,2,0,P|154:159|274:187,1,247.500007553101,2|0,0:0|0:0,0:0:0:0:
284,256,149305,5,6,0:0:0:0:
88,288,149455,1,0,0:0:0:0:
272,76,149605,1,0,0:0:0:0:
453,167,149755,2,0,P|399:270|283:255,1,247.500007553101,2|0,0:0|0:0,0:0:0:0:
94,265,150205,6,0,P|159:261|208:305,1,135,2|0,0:0|0:0,0:0:0:0:
128,352,150505,2,0,P|124:286|168:237,1,135,2|0,0:0|0:0,0:0:0:0:
288,177,150805,6,0,L|400:165,1,80.9999975280763,6|0,0:0|0:0,0:0:0:0:
415,83,151105,1,0,0:0:0:0:
346,14,151255,2,0,P|325:48|320:88,1,80.9999975280763,2|0,0:0|0:0,0:0:0:0:
368,168,151555,1,0,0:0:0:0:
486,113,151705,2,0,P|453:88|413:83,1,80.9999975280763
379,248,152005,5,0,3:0:0:0:
252,178,152155,1,0,0:0:0:0:
379,248,152305,2,0,L|363:140,1,80.9999975280763
282,266,152605,2,0,L|266:374,1,80.9999975280763,2|0,0:0|0:0,0:0:0:0:
470,234,152905,2,0,L|454:126,1,80.9999975280763
279,42,153205,6,0,P|239:46|208:71,1,80.9999975280763,2|0,0:0|0:0,0:0:0:0:
143,188,153505,1,0,0:0:0:0:
280,138,153655,2,0,L|360:149,1,80.9999975280763,2|0,0:0|0:0,0:0:0:0:
485,266,153955,1,0,0:0:0:0:
396,326,154105,2,0,P|380:286|380:243,1,80.9999975280763,2|0,0:0|0:0,0:0:0:0:
358,53,154405,5,0,3:0:0:0:
458,153,154555,1,2,0:0:0:0:
358,53,154705,2,0,L|250:37,1,80.9999975280763
156,197,155005,1,2,0:0:0:0:
202,78,155155,1,0,0:0:0:0:
302,251,155305,1,0,0:0:0:0:
282,146,155455,1,0,0:0:0:0:
94,291,155605,6,0,P|131:306|171:307,1,80.9999975280763,6|0,0:0|0:0,0:0:0:0:
287,250,155905,1,0,0:0:0:0:
169,116,156055,2,0,L|153:224,1,80.9999975280763,2|0,0:0|0:0,0:0:0:0:
258,159,156355,1,0,0:0:0:0:
85,54,156505,2,0,P|69:91|68:131,1,80.9999975280763,2|0,0:0|0:0,0:0:0:0:
94,291,156805,5,0,3:0:0:0:
0,196,156955,1,0,0:0:0:0:
94,291,157105,2,0,P|131:306|171:307,1,80.9999975280763
250,237,157405,2,0,P|287:221|327:220,1,80.9999975280763,2|0,0:0|0:0,0:0:0:0:
407,289,157705,1,0,0:0:0:0:
311,332,157855,1,0,0:0:0:0:
326,117,158005,6,0,P|365:125|399:147,1,80.9999975280763,2|0,0:0|0:0,0:0:0:0:
421,268,158305,1,0,0:0:0:0:
232,234,158455,2,0,L|216:126,1,80.9999975280763,2|0,0:0|0:0,0:0:0:0:
244,30,158755,1,0,0:0:0:0:
399,86,158905,2,0,P|365:107|325:116,1,80.9999975280763
119,96,159205,5,0,3:0:0:0:
233,165,159355,1,0,0:0:0:0:
119,96,159505,2,0,L|11:112,1,80.9999975280763,2|0,0:0|0:0,0:0:0:0:
30,278,159805,1,0,0:0:0:0:
115,188,159955,1,0,0:0:0:0:
234,335,160105,1,0,0:0:0:0:
139,280,160255,1,0,0:0:0:0:
298,193,160405,6,0,P|337:201|371:222,1,80.9999975280763,6|0,0:0|0:0,0:0:0:0:
436,307,160705,1,0,0:0:0:0:
492,189,160855,1,2,0:0:0:0:
305,294,161005,1,0,0:0:0:0:
387,216,161155,1,0,0:0:0:0:
231,121,161305,2,0,P|209:155|201:194,1,80.9999975280763,2|0,0:0|0:0,0:0:0:0:
223,354,161605,5,0,3:0:0:0:
104,279,161755,1,0,0:0:0:0:
223,354,161905,2,0,L|239:246,1,80.9999975280763
117,121,162205,2,0,L|133:229,1,80.9999975280763,2|0,0:0|0:0,0:0:0:0:
322,315,162505,2,0,L|338:207,1,80.9999975280763
327,47,162805,6,0,P|328:106|350:146,1,80.9999975280763,2|0,0:0|0:0,0:0:0:0:
419,205,163105,1,0,0:0:0:0:
503,62,163255,2,0,L|423:74,1,80.9999975280763,2|0,0:0|0:0,0:0:0:0:
253,157,163555,1,0,0:0:0:0:
409,283,163705,2,0,P|420:244|418:204,1,80.9999975280763,2|0,0:0|0:0,0:0:0:0:
327,47,164005,5,0,3:0:0:0:
345,167,164155,1,0,0:0:0:0:
327,47,164305,2,0,L|246:35,1,80.9999975280763
168,141,164605,1,0,0:0:0:0:
256,197,164755,1,0,0:0:0:0:
342,137,164905,1,0,0:0:0:0:
428,196,165055,1,0,0:0:0:0:
236,300,165205,6,0,L|136:292,1,90,6|0,0:0|0:0,0:0:0:0:
39,195,165505,2,0,L|139:187,1,90,2|0,0:0|0:0,0:0:0:0:
78,361,165805,2,0,P|50:301|62:245,1,90,2|0,0:0|0:0,0:0:0:0:
224,224,166105,1,2,0:0:0:0:
146,292,166255,1,0,0:0:0:0:
128,187,166405,6,0,L|135:97,1,90,2|0,0:0|0:0,0:0:0:0:
306,196,166705,2,0,P|246:224|190:212,1,90,2|0,0:0|0:0,0:0:0:0:
288,92,167005,2,0,L|377:99,1,90,2|0,0:0|0:0,0:0:0:0:
492,188,167305,2,0,L|402:195,1,90,2|0,0:0|0:0,0:0:0:0:
160,123,167605,6,0,P|232:123|312:235,1,180,2|2,0:0|0:0,0:0:0:0:
244,336,168055,1,0,0:0:0:0:
244,336,168205,2,0,L|136:328,1,90,2|0,0:0|0:0,0:0:0:0:
112,224,168505,2,0,L|220:216,1,90,8|0,0:0|0:0,0:0:0:0:
457,219,168805,6,0,B|483:227|503:250|503:250|436:290|332:251,1,215.999993408203,12|0,0:0|0:0,0:0:0:0:
220,104,169255,2,0,P|296:48|340:140,1,215.999993408203,12|2,0:0|0:0,0:0:0:0:
255,282,169705,2,0,B|179:274|179:274|127:246|127:246|39:234,1,215.999993408203,12|2,0:0|0:0,0:0:0:0:
343,132,170155,2,0,P|355:212|239:280,1,215.999993408203,12|2,0:0|0:0,0:0:0:0:
256,52,170605,5,12,0:0:0:0:
452,320,170905,1,12,0:0:0:0:
8,156,171205,6,0,B|64:136|112:152|112:152|154:174|220:161,1,215.999993408203,12|2,0:0|0:0,0:0:0:0:
378,310,171655,2,0,P|302:366|258:274,1,215.999993408203,12|2,0:0|0:0,0:0:0:0:
424,80,172105,2,0,B|456:48|456:48|428:240,1,215.999993408203,12|2,0:0|0:0,0:0:0:0:
156,288,172555,2,0,P|203:197|306:199,1,215.999993408203,12|2,0:0|0:0,0:0:0:0:
480,352,173005,5,12,0:0:0:0:
324,100,173305,1,12,0:0:0:0:
352,276,173605,6,0,P|294:288|255:314,1,94.499997116089,2|0,0:0|0:0,0:0:0:0:
160,276,173905,2,0,P|218:288|257:314,1,94.499997116089,2|0,0:0|0:0,0:0:0:0:
424,212,174205,6,0,P|346:181|284:204,1,121.499996292114,2|0,0:0|0:0,0:0:0:0:
88,212,174505,2,0,P|166:181|228:204,1,121.499996292114,2|0,0:0|0:0,0:0:0:0:
352,276,174805,6,0,P|262:369|160:264,1,297.000009063721,2|0,0:0|0:0,0:0:0:0:
432,104,175405,2,0,P|460:100|512:120,1,80.9999975280763,2|2,0:0|0:0,0:0:0:0:
454,202,175705,6,0,B|383:197|383:197|331:175|331:175|238:171,1,202.500007724762,8|0,0:0|0:0,0:0:0:0:
160,163,176005,6,0,P|232:163|284:191,1,99.0000030212403,6|0,0:0|0:0,0:0:0:0:
115,313,176305,2,0,L|91:193,1,99.0000030212403,8|0,0:0|0:0,0:0:0:0:
276,75,176605,2,0,L|256:172,1,99.0000030212403,2|0,0:0|0:0,0:0:0:0:
104,48,176905,2,0,P|151:34|200:38,1,99.0000030212403,8|0,0:0|0:0,0:0:0:0:
212,261,177205,2,0,P|176:227|159:177,1,99.0000030212403,2|0,0:0|0:0,0:0:0:0:
361,69,177505,2,0,L|481:45,1,99.0000030212403,8|0,0:0|0:0,0:0:0:0:
428,264,177805,1,2,0:0:0:0:
332,157,177955,1,2,0:0:0:0:
512,232,178105,2,0,P|516:281|495:327,1,99.0000030212403,8|0,0:0|0:0,0:0:0:0:
168,285,178405,6,0,P|232:240|361:279,1,198.000006042481,6|8,0:0|0:0,0:0:0:0:
267,357,178855,1,0,0:0:0:0:
224,160,179005,2,0,L|204:63,1,99.0000030212403,2|0,0:0|0:0,0:0:0:0:
431,161,179305,2,0,P|383:175|334:171,1,99.0000030212403,8|0,0:0|0:0,0:0:0:0:
467,73,179605,1,2,0:0:0:0:
429,286,179755,1,0,0:0:0:0:
334,171,179905,2,0,L|354:74,1,99.0000030212403,8|0,0:0|0:0,0:0:0:0:
478,191,180205,1,2,0:0:0:0:
254,261,180355,1,2,0:0:0:0:
429,286,180505,1,8,0:0:0:0:
222,168,180655,1,0,0:0:0:0:
455,305,180805,6,0,P|414:367|296:368,1,198.000006042481,6|8,0:0|0:0,0:0:0:0:
169,232,181255,1,0,0:0:0:0:
334,171,181405,2,0,L|431:151,1,99.0000030212403,2|0,0:0|0:0,0:0:0:0:
280,356,181705,2,0,P|266:308|270:259,1,99.0000030212403,8|0,0:0|0:0,0:0:0:0:
353,74,182005,1,2,0:0:0:0:
353,302,182155,1,0,0:0:0:0:
222,168,182305,2,0,L|242:71,1,99.0000030212403,8|0,0:0|0:0,0:0:0:0:
431,152,182605,1,2,0:0:0:0:
269,259,182755,1,2,0:0:0:0:
353,74,182905,1,8,0:0:0:0:
478,228,183055,1,0,0:0:0:0:
200,320,183205,6,0,B|176:268|192:218|192:218|210:163|173:105,1,198.000006042481,6|8,0:0|0:0,0:0:0:0:
44,25,183655,1,0,0:0:0:0:
16,160,183805,2,0,L|113:180,1,99.0000030212403,2|0,0:0|0:0,0:0:0:0:
224,36,184105,2,0,P|172:29|123:48,1,99.0000030212403,8|0,0:0|0:0,0:0:0:0:
272,268,184405,1,2,0:0:0:0:
185,127,184555,1,0,0:0:0:0:
272,268,184705,2,0,L|369:248,1,99.0000030212403,8|0,0:0|0:0,0:0:0:0:
481,88,185005,1,2,0:0:0:0:
294,143,185155,1,2,0:0:0:0:
478,227,185305,1,8,0:0:0:0:
410,34,185455,1,0,0:0:0:0:
196,175,185605,6,0,P|259:241|370:212,1,198.000006042481,6|8,0:0|0:0,0:0:0:0:
481,88,186055,1,0,0:0:0:0:
305,46,186205,2,0,L|208:66,1,99.0000030212403,2|0,0:0|0:0,0:0:0:0:
283,239,186505,2,0,P|299:191|293:142,1,99.0000030212403,8|0,0:0|0:0,0:0:0:0:
160,261,186805,2,0,L|180:358,1,99.0000030212403,2|0,0:0|0:0,0:0:0:0:
379,250,187105,2,0,P|333:234|282:239,1,99.0000030212403,8|0,0:0|0:0,0:0:0:0:
179,357,187405,1,2,0:0:0:0:
319,335,187555,1,2,0:0:0:0:
196,175,187705,2,0,P|146:171|99:185,1,99.0000030212403,8|0,0:0|0:0,0:0:0:0:
179,357,188005,6,0,B|232:338|232:338|300:342|300:342|368:314,1,198.000006042481,6|8,0:0|0:0,0:0:0:0:
435,192,188455,1,0,0:0:0:0:
292,155,188605,2,0,L|195:175,1,99.0000030212403,2|0,0:0|0:0,0:0:0:0:
82,346,188905,2,0,P|129:359|178:356,1,99.0000030212403,8|0,0:0|0:0,0:0:0:0:
361,236,189205,1,2,0:0:0:0:
140,265,189355,1,0,0:0:0:0:
301,334,189505,2,0,L|398:314,1,99.0000030212403,8|0,0:0|0:0,0:0:0:0:
477,130,189805,1,2,0:0:0:0:
282,238,189955,1,2,0:0:0:0:
501,241,190105,1,8,0:0:0:0:
306,133,190255,1,0,0:0:0:0:
490,337,190405,6,0,P|503:289|500:240,1,99.0000030212403,6|0,0:0|0:0,0:0:0:0:
282,238,190705,2,0,L|302:335,1,99.0000030212403,8|0,0:0|0:0,0:0:0:0:
409,183,191005,1,2,0:0:0:0:
216,161,191155,1,2,0:0:0:0:
416,285,191305,2,0,L|513:265,1,99.0000030212403,8|0,0:0|0:0,0:0:0:0:
251,67,191605,6,0,P|201:61|156:79,1,99.0000030212403,6|0,0:0|0:0,0:0:0:0:
409,183,191905,2,0,L|506:163,1,99.0000030212403,8|0,0:0|0:0,0:0:0:0:
216,161,192205,1,2,0:0:0:0:
301,334,192355,1,2,0:0:0:0:
322,144,192505,1,8,0:0:0:0:
203,292,192655,1,0,0:0:0:0:
409,183,192805,6,0,P|415:135|398:86,1,99.0000030212403,6|0,0:0|0:0,0:0:0:0:
183,195,193105,2,0,L|203:292,1,99.0000030212403,8|0,0:0|0:0,0:0:0:0:
406,334,193405,1,2,0:0:0:0:
322,144,193555,1,0,0:0:0:0:
202,291,193705,2,0,P|249:304|298:301,1,99.0000030212403,8|0,0:0|0:0,0:0:0:0:
496,196,194005,5,6,0:0:0:0:
244,132,194155,1,0,0:0:0:0:
420,344,194305,1,8,0:0:0:0:
376,56,194455,1,0,0:0:0:0:
188,300,194605,1,6,0:0:0:0:
480,176,194755,1,2,0:0:0:0:
164,96,194905,1,8,0:0:0:0:
164,96,194980,1,8,0:0:0:0:
164,96,195055,2,8,P|156:132|160:164,1,49.5000015106202
340,240,195205,6,0,L|320:143,1,99.0000030212403,6|0,0:0|0:0,0:0:0:0:
116,236,195505,2,0,P|165:239|212:226,1,99.0000030212403,8|0,0:0|0:0,0:0:0:0:
376,56,195805,2,0,P|330:42|279:46,1,99.0000030212403,2|0,0:0|0:0,0:0:0:0:
340,240,196105,2,0,L|437:220,1,99.0000030212403,8|0,0:0|0:0,0:0:0:0:
166,47,196405,2,0,P|152:94|156:143,1,99.0000030212403,2|0,0:0|0:0,0:0:0:0:
330,336,196705,2,0,P|344:289|340:240,1,99.0000030212403,8|0,0:0|0:0,0:0:0:0:
279,46,197005,1,2,0:0:0:0:
212,228,197155,1,2,0:0:0:0:
452,232,197305,2,0,P|436:185|405:147,1,99.0000030212403,8|0,0:0|0:0,0:0:0:0:
200,68,197605,6,0,B|146:48|101:66|101:66|59:85|-5:72,1,198.000006042481,6|8,0:0|0:0,0:0:0:0:
156,200,198055,1,0,0:0:0:0:
308,122,198205,2,0,L|288:25,1,99.0000030212403,2|0,0:0|0:0,0:0:0:0:
270,225,198505,2,0,P|319:229|366:215,1,99.0000030212403,8|0,0:0|0:0,0:0:0:0:
476,80,198805,1,2,0:0:0:0:
308,122,198955,1,0,0:0:0:0:
486,284,199105,2,0,L|466:187,1,99.0000030212403,8|0,0:0|0:0,0:0:0:0:
227,90,199405,1,2,0:0:0:0:
448,72,199555,1,2,0:0:0:0:
276,200,199705,1,8,0:0:0:0:
352,12,199855,1,0,0:0:0:0:
434,283,200005,6,0,B|400:259|367:260|367:260|327:331|268:323,1,198.000006042481,6|8,0:0|0:0,0:0:0:0:
105,331,200455,1,0,0:0:0:0:
172,214,200605,2,0,P|222:210|269:224,1,99.0000030212403,2|0,0:0|0:0,0:0:0:0:
66,236,200905,2,0,L|86:139,1,99.0000030212403,8|0,0:0|0:0,0:0:0:0:
247,75,201205,1,2,0:0:0:0:
173,214,201355,1,0,0:0:0:0:
26,58,201505,2,0,P|73:44|122:48,1,99.0000030212403,8|0,0:0|0:0,0:0:0:0:
269,194,201805,2,0,L|172:214,1,99.0000030212403,2|2,0:0|0:0,0:0:0:0:
11,314,202105,2,0,P|56:332|105:332,1,99.0000030212403,8|0,0:0|0:0,0:0:0:0:
360,148,202405,6,0,P|405:233|364:320,1,198.000006042481,6|8,0:0|0:0,0:0:0:0:
172,215,202855,1,0,0:0:0:0:
318,65,203005,2,0,P|370:57|413:72,1,99.0000030212403,2|0,0:0|0:0,0:0:0:0:
191,311,203305,2,0,L|171:214,1,99.0000030212403,8|0,0:0|0:0,0:0:0:0:
360,148,203605,1,2,0:0:0:0:
274,347,203755,1,0,0:0:0:0:
238,114,203905,1,8,0:0:0:0:
458,184,204055,1,0,0:0:0:0:
204,236,204205,5,8,0:0:0:0:
418,63,204355,1,2,0:0:0:0:
239,28,204505,1,8,0:0:0:0:
465,192,204655,1,8,0:0:0:0:
465,192,204730,1,8,0:0:0:0:
465,191,204805,6,0,P|380:239|283:226,1,198.000006042481,6|8,0:0|0:0,0:0:0:0:
205,51,205255,1,0,0:0:0:0:
144,200,205405,2,0,L|164:297,1,99.0000030212403,2|0,0:0|0:0,0:0:0:0:
340,144,205705,2,0,P|294:126|243:133,1,99.0000030212403,8|0,0:0|0:0,0:0:0:0:
163,296,206005,2,0,P|209:314|260:307,1,99.0000030212403,2|0,0:0|0:0,0:0:0:0:
434,132,206305,2,0,P|385:126|339:144,1,99.0000030212403,8|0,0:0|0:0,0:0:0:0:
257,308,206605,1,2,0:0:0:0:
399,225,206755,1,2,0:0:0:0:
233,91,206905,2,0,L|136:111,1,99.0000030212403,8|0,0:0|0:0,0:0:0:0:
111,231,207205,6,0,P|196:186|283:227,1,198.000006042481,6|8,0:0|0:0,0:0:0:0:
207,346,207655,1,0,0:0:0:0:
25,269,207805,2,0,P|19:219|36:173,1,99.0000030212403,2|0,0:0|0:0,0:0:0:0:
302,128,208105,2,0,L|282:225,1,99.0000030212403,8|0,0:0|0:0,0:0:0:0:
131,53,208405,2,0,P|171:50|225:82,1,99.0000030212403,2|0,0:0|0:0,0:0:0:0:
282,224,208705,1,8,0:0:0:0:
133,254,208855,2,0,L|153:157,1,99.0000030212403,0|2,0:0|0:0,0:0:0:0:
221,77,209155,1,2,0:0:0:0:
157,350,209305,2,0,P|116:352|63:321,1,99.0000030212403,8|0,0:0|0:0,0:0:0:0:
282,224,209605,6,0,P|377:232|428:312,1,198.000006042481,6|8,0:0|0:0,0:0:0:0:
317,331,210055,1,0,0:0:0:0:
133,254,210205,1,2,0:0:0:0:
282,224,210355,1,2,0:0:0:0:
133,254,210505,2,0,L|153:157,1,99.0000030212403,8|0,0:0|0:0,0:0:0:0:
333,114,210805,2,0,P|382:110|429:124,1,99.0000030212403,2|0,0:0|0:0,0:0:0:0:
302,320,211105,2,0,L|282:223,1,99.0000030212403,8|0,0:0|0:0,0:0:0:0:
399,20,211405,1,2,0:0:0:0:
375,201,211555,1,2,0:0:0:0:
230,139,211705,2,0,L|250:42,1,99.0000030212403,8|0,0:0|0:0,0:0:0:0:
282,223,212005,6,0,B|228:243|183:225|183:225|144:200|77:219,1,198.000006042481,6|8,0:0|0:0,0:0:0:0:
144,112,212455,1,0,0:0:0:0:
251,313,212605,2,0,P|201:316|154:302,1,99.0000030212403,2|0,0:0|0:0,0:0:0:0:
230,139,212905,2,0,L|327:119,1,99.0000030212403,8|0,0:0|0:0,0:0:0:0:
483,243,213205,1,2,0:0:0:0:
282,223,213355,1,0,0:0:0:0:
464,96,213505,1,8,0:0:0:0:
400,324,213655,1,0,0:0:0:0:
212,124,213805,5,2,0:0:0:0:
372,240,213955,1,2,0:0:0:0:
172,232,214105,1,8,0:0:0:0:
172,232,214180,1,8,0:0:0:0:
172,232,214255,2,0,L|123:241,1,49.5000015106202,8|8,0:0|0:0,0:0:0:0:
88,40,214405,6,0,B|142:20|187:38|187:38|229:57|281:46,1,198.000006042481,6|8,0:0|0:0,0:0:0:0:
469,114,214855,1,0,0:0:0:0:
346,215,215005,2,0,L|326:118,1,99.0000030212403,2|0,0:0|0:0,0:0:0:0:
406,302,215305,2,0,P|357:320|310:315,1,99.0000030212403,8|0,0:0|0:0,0:0:0:0:
162,173,215605,2,0,L|259:193,1,99.0000030212403,2|0,0:0|0:0,0:0:0:0:
129,355,215905,2,0,P|113:306|121:258,1,99.0000030212403,8|0,0:0|0:0,0:0:0:0:
238,113,216205,1,2,0:0:0:0:
211,300,216355,1,2,0:0:0:0:
66,178,216505,2,0,P|111:165|162:173,1,99.0000030212403,8|0,0:0|0:0,0:0:0:0:
346,215,216805,6,0,L|443:195,1,99.0000030212403,2|0,0:0|0:0,0:0:0:0:
238,113,217105,1,8,0:0:0:0:
313,306,217255,2,0,P|362:309|412:287,1,99.0000030212403,2|0,0:0|0:0,0:0:0:0:
512,128,217555,1,2,0:0:0:0:
326,118,217705,2,0,L|346:215,1,99.0000030212403,8|0,0:0|0:0,0:0:0:0:
496,328,218005,2,0,P|499:279|485:232,1,99.0000030212403,2|0,0:0|0:0,0:0:0:0:
326,118,218305,1,8,0:0:0:0:
310,310,218455,2,0,L|407:290,1,99.0000030212403,2|0,0:0|0:0,0:0:0:0:
512,128,218755,1,2,0:0:0:0:
360,16,218905,2,0,P|311:13|264:27,1,99.0000030212403,8|0,0:0|0:0,0:0:0:0:
136,160,219205,6,0,B|189:141|189:141|257:145|257:145|325:117,1,198.000006042481,6|8,0:0|0:0,0:0:0:0:
172,260,219655,2,0,P|122:262|75:248,1,99.0000030212403,2|0,0:0|0:0,0:0:0:0:
146,55,219955,1,2,0:0:0:0:
325,116,220105,2,0,L|305:213,1,99.0000030212403,8|0,0:0|0:0,0:0:0:0:
61,112,220405,2,0,P|46:64|54:15,1,99.0000030212403,2|2,0:0|0:0,0:0:0:0:
224,144,220705,1,8,0:0:0:0:
95,345,220855,2,0,L|75:248,1,99.0000030212403,2|0,0:0|0:0,0:0:0:0:
147,56,221155,1,2,0:0:0:0:
281,222,221305,2,0,P|235:238|180:231,1,99.0000030212403,8|0,0:0|0:0,0:0:0:0:
405,127,221605,6,0,L|502:147,1,99.0000030212403,2|0,0:0|0:0,0:0:0:0:
293,318,221905,2,0,P|278:270|281:221,1,99.0000030212403,8|0,0:0|0:0,0:0:0:0:
364,32,222205,1,2,0:0:0:0:
373,260,222355,1,0,0:0:0:0:
224,138,222505,2,0,P|271:123|323:130,1,99.0000030212403,8|0,0:0|0:0,0:0:0:0:
189,358,222805,2,0,L|92:338,1,99.0000030212403,2|0,0:0|0:0,0:0:0:0:
373,260,223105,2,0,P|375:309|361:356,1,99.0000030212403,8|0,0:0|0:0,0:0:0:0:
157,260,223405,1,2,0:0:0:0:
319,128,223555,1,2,0:0:0:0:
126,163,223705,1,8,0:0:0:0:
290,293,223855,1,0,0:0:0:0:
403,63,224005,6,0,P|316:21|231:66,1,198.000006042481,6|8,0:0|0:0,0:0:0:0:
373,260,224455,1,0,0:0:0:0:
373,260,224605,2,0,P|422:262|469:248,1,99.0000030212403,2|0,0:0|0:0,0:0:0:0:
319,128,224905,2,0,P|269:125|222:139,1,99.0000030212403,8|0,0:0|0:0,0:0:0:0:
227,374,225205,2,0,L|324:354,1,99.0000030212403,2|0,0:0|0:0,0:0:0:0:
411,190,225505,1,8,0:0:0:0:
235,44,225655,2,0,P|217:93|223:140,1,99.0000030212403,2|0,0:0|0:0,0:0:0:0:
374,260,225955,1,2,0:0:0:0:
410,83,226105,2,0,L|313:103,1,99.0000030212403,8|0,0:0|0:0,0:0:0:0:
253,279,226405,5,2,0:0:0:0:
411,190,226555,1,2,0:0:0:0:
222,138,226705,2,0,P|172:135|125:149,1,99.0000030212403,8|0,0:0|0:0,0:0:0:0:
324,355,227005,2,0,L|344:258,1,99.0000030212403,2|0,0:0|0:0,0:0:0:0:
125,148,227305,2,0,L|145:245,1,99.0000030212403,8|0,0:0|0:0,0:0:0:0:
332,31,227605,2,0,P|282:27|235:41,1,99.0000030212403,2|0,0:0|0:0,0:0:0:0:
343,258,227905,1,8,0:0:0:0:
452,172,228055,2,0,L|432:75,1,99.0000030212403,2|0,0:0|0:0,0:0:0:0:
235,41,228355,1,2,0:0:0:0:
233,177,228505,2,0,L|330:157,1,99.0000030212403,8|0,0:0|0:0,0:0:0:0:
125,51,228805,6,0,P|111:98|114:147,1,99.0000030212403,6|0,0:0|0:0,0:0:0:0:
253,279,229105,5,8,0:0:0:0:
356,88,229255,1,2,0:0:0:0:
380,300,229405,5,8,0:0:0:0:
240,76,229555,1,2,0:0:0:0:
244,304,229705,5,8,0:0:0:0:
368,60,229855,1,2,0:0:0:0:
472,280,230005,6,0,L|455:377,1,99.0000030212403,6|0,0:0|0:0,0:0:0:0:
224,304,230305,5,8,0:0:0:0:
452,200,230455,1,2,0:0:0:0:
175,180,230605,5,8,0:0:0:0:
392,280,230755,1,2,0:0:0:0:
112,288,230905,5,8,0:0:0:0:
360,168,231055,1,2,0:0:0:0:
320,320,231205,6,0,P|271:324|225:306,1,99.0000030212403,6|0,0:0|0:0,0:0:0:0:
79,200,231505,1,8,0:0:0:0:
284,210,231655,1,0,0:0:0:0:
131,384,231805,2,0,L|111:287,1,99.0000030212403,2|0,0:0|0:0,0:0:0:0:
270,115,232106,2,0,P|287:160|285:209,1,99.0000030212403,8|0,0:0|0:0,0:0:0:0:
79,200,232405,6,0,L|176:180,1,99.0000030212403,6|0,0:0|0:0,0:0:0:0:
402,197,232705,1,8,0:0:0:0:
220,308,232855,1,0,0:0:0:0:
344,32,233005,1,2,0:0:0:0:
368,26,233080,1,2,0:0:0:0:
395,24,233155,1,2,0:0:0:0:
422,27,233230,1,2,0:0:0:0:
436,40,233305,5,8,0:0:0:0:
412,83,233380,1,8,0:0:0:0:
370,105,233455,1,8,0:0:0:0:
322,98,233530,1,8,0:0:0:0:
276,64,233605,6,0,B|203:54|203:54|138:76|138:76|82:71,1,198.000006042481,6|8,0:0|0:0,0:0:0:0:
108,240,234055,1,0,0:0:0:0:
220,176,234205,2,0,P|267:159|316:162,1,99.0000030212403,2|0,0:0|0:0,0:0:0:0:
476,100,234505,2,0,P|426:102|380:85,1,99.0000030212403,8|0,0:0|0:0,0:0:0:0:
216,47,234805,1,2,0:0:0:0:
280,259,234955,1,0,0:0:0:0:
400,182,235105,2,0,L|380:85,1,99.0000030212403,8|0,0:0|0:0,0:0:0:0:
193,224,235405,2,0,P|190:273|207:319,1,99.0000030212403,2|0,0:0|0:0,0:0:0:0:
386,367,235705,2,0,L|366:270,1,99.0000030212403,8|0,0:0|0:0,0:0:0:0:
228,127,236005,6,0,P|178:124|132:141,2,99.0000030212403,2|0|8,0:0|0:0|0:0,0:0:0:0:
366,270,236455,2,0,L|463:250,1,99.0000030212403,2|0,0:0|0:0,0:0:0:0:
317,151,236755,1,2,0:0:0:0:
194,225,236905,2,0,P|191:274|208:320,1,99.0000030212403,8|0,0:0|0:0,0:0:0:0:
317,151,237205,2,0,L|297:54,1,99.0000030212403,2|0,0:0|0:0,0:0:0:0:
98,210,237505,2,0,P|144:227|193:224,1,99.0000030212403,8|0,0:0|0:0,0:0:0:0:
297,54,237805,1,2,0:0:0:0:
159,128,237955,1,2,0:0:0:0:
278,266,238105,2,0,P|327:269|373:252,1,99.0000030212403,8|0,0:0|0:0,0:0:0:0:
391,69,238405,6,0,P|344:51|295:54,1,99.0000030212403,6|0,0:0|0:0,0:0:0:0:
98,210,238705,2,0,P|144:227|193:224,1,99.0000030212403,8|0,0:0|0:0,0:0:0:0:
332,140,239005,1,2,0:0:0:0:
159,128,239155,1,0,0:0:0:0:
304,240,239305,2,0,L|401:220,1,99.0000030212403,8|0,0:0|0:0,0:0:0:0:
192,32,239605,2,0,P|142:28|96:45,1,99.0000030212403,2|0,0:0|0:0,0:0:0:0:
332,140,239905,2,0,L|352:43,1,99.0000030212403,8|0,0:0|0:0,0:0:0:0:
160,128,240205,1,2,0:0:0:0:
278,266,240355,1,2,0:0:0:0:
427,153,240505,2,0,P|381:136|332:139,1,99.0000030212403,8|0,0:0|0:0,0:0:0:0:
104,301,240805,6,0,P|199:320|278:265,1,198.000006042481,6|8,0:0|0:0,0:0:0:0:
331,139,241255,1,0,0:0:0:0:
160,128,241405,2,0,L|180:225,1,99.0000030212403,2|0,0:0|0:0,0:0:0:0:
360,328,241705,2,0,P|378:282|375:233,1,99.0000030212403,8|0,0:0|0:0,0:0:0:0:
232,56,242005,2,0,L|135:36,1,99.0000030212403,2|0,0:0|0:0,0:0:0:0:
331,139,242305,1,8,0:0:0:0:
179,224,242455,2,0,P|160:178|163:129,1,99.0000030212403,2|0,0:0|0:0,0:0:0:0:
332,20,242755,1,2,0:0:0:0:
375,233,242905,2,0,L|355:330,1,99.0000030212403,8|0,0:0|0:0,0:0:0:0:
83,121,243205,6,0,P|132:118|177:136,1,99.0000030212403,6|0,0:0|0:0,0:0:0:0:
139,311,243505,2,0,L|119:214,1,99.0000030212403,8|0,0:0|0:0,0:0:0:0:
247,64,243805,1,2,0:0:0:0:
218,248,243955,1,0,0:0:0:0:
247,64,244105,2,0,L|344:84,1,99.0000030212403,8|0,0:0|0:0,0:0:0:0:
427,301,244405,2,0,P|377:303|332:285,1,99.0000030212403,6|0,0:0|0:0,0:0:0:0:
343,83,244705,2,0,L|440:63,1,99.0000030212403,8|0,0:0|0:0,0:0:0:0:
394,223,245005,1,2,0:0:0:0:
247,64,245155,1,2,0:0:0:0:
394,223,245305,2,0,L|491:203,1,99.0000030212403,8|0,0:0|0:0,0:0:0:0:
504,177,245530,1,0,0:0:0:0:
504,177,245605,6,0,P|506:127|488:82,1,99.0000030212403,6|0,0:0|0:0,0:0:0:0:
314,191,245905,2,0,P|311:240|332:285,1,99.0000030212403,8|0,0:0|0:0,0:0:0:0:
489,349,246205,1,2,0:0:0:0:
394,223,246355,1,0,0:0:0:0:
246,346,246505,2,0,L|343:366,1,99.0000030212403,8|0,0:0|0:0,0:0:0:0:
314,191,246805,2,0,P|264:189|219:207,1,99.0000030212403,2|0,0:0|0:0,0:0:0:0:
484,273,247105,2,0,L|504:176,1,99.0000030212403,8|0,0:0|0:0,0:0:0:0:
367,64,247405,1,2,0:0:0:0:
394,223,247555,1,2,0:0:0:0:
455,97,247705,2,0,P|457:47|439:2,1,99.0000030212403,8|0,0:0|0:0,0:0:0:0:
217,171,248005,6,0,L|314:191,1,99.0000030212403,6|0,0:0|0:0,0:0:0:0:
296,1,248305,2,0,P|277:46|280:95,1,99.0000030212403,8|0,0:0|0:0,0:0:0:0:
394,223,248605,1,2,0:0:0:0:
367,64,248755,1,0,0:0:0:0:
428,308,248905,2,0,P|379:311|333:292,1,99.0000030212403,8|0,0:0|0:0,0:0:0:0:
123,185,249205,2,0,P|169:165|218:169,1,99.0000030212403,2|0,0:0|0:0,0:0:0:0:
208,352,249505,2,0,L|188:255,1,99.0000030212403,8|0,0:0|0:0,0:0:0:0:
202,58,249805,1,2,0:0:0:0:
276,239,249955,1,2,0:0:0:0:
120,94,250105,2,0,P|117:44|135:0,1,99.0000030212403,8|0,0:0|0:0,0:0:0:0:
426,176,250405,5,6,0:0:0:0:
414,227,250480,1,0,0:0:0:0:
374,261,250555,1,0,0:0:0:0:
322,266,250630,1,0,0:0:0:0:
276,239,250705,1,8,0:0:0:0:
202,58,250855,1,6,0:0:0:0:
340,172,251005,1,0,0:0:0:0:
112,244,251155,1,8,0:0:0:0:
320,64,251305,6,0,P|372:56|440:104,1,107.999996704102,6|0,0:0|0:0,0:0:0:0:
512,208,251605,1,8,0:0:0:0:
180,163,251755,2,0,L|201:57,1,107.999996704102,6|0,0:0|0:0,0:0:0:0:
276,239,252055,1,8,0:0:0:0:
52,144,252205,5,6,0:0:0:0:
464,344,252505,1,8,0:0:0:0:
428,220,252655,1,0,0:0:0:0:
221,251,252805,6,0,P|269:273|321:265,1,107.999996704102,6|0,0:0|0:0,0:0:0:0:
496,156,253105,1,8,0:0:0:0:
242,145,253255,2,0,L|220:250,1,107.999996704102,6|0,0:0|0:0,0:0:0:0:
362,358,253555,1,8,0:0:0:0:
284,60,253705,2,0,P|231:52|183:74,1,107.999996704102,6|0,0:0|0:0,0:0:0:0:
76,260,254005,1,8,0:0:0:0:
442,156,254155,6,0,B|366:136|334:172|334:172|270:184|226:128,1,215.999993408203,6|8,0:0|0:0,0:0:0:0:
404,48,254605,2,0,B|439:46|472:60|472:60|512:32,1,107.999996704102,6|0,0:0|0:0,0:0:0:0:
464,248,254905,2,0,B|428:249|396:236|396:236|356:264,1,107.999996704102,12|0,0:0|0:0,0:0:0:0:
208,252,255205,6,0,P|182:291|178:338,1,94.499997116089,2|0,0:0|0:0,0:0:0:0:
329,358,255505,6,0,P|332:299|298:250,1,121.499996292114,2|0,0:0|0:0,0:0:0:0:
149,205,255805,6,0,P|109:267|101:341,1,148.50000453186,2|0,0:0|0:0,0:0:0:0:
411,353,256105,6,0,P|404:267|355:196,1,175.499991966248,2|0,0:0|0:0,0:0:0:0:
174,25,256405,6,0,B|140:-14|91:-11|46:21|39:74|43:130|77:143|120:149|152:176|152:231,1,323.999990112305,2|0,0:0|0:0,0:0:0:0:
338,25,257005,2,0,B|371:-14|420:-11|465:21|472:74|468:130|434:143|391:149|359:176|359:231,1,323.999990112305,2|0,0:0|0:0,0:0:0:0:
363,204,257605,6,0,B|399:210|422:211|422:211|437:242|478:280|478:280|407:258|346:260|346:260|298:280|298:280|258:268|218:272|218:272|178:276|138:240|126:200|138:160|174:128|202:128|242:140|250:172|250:172|222:201,1,720,6|2,0:0|0:0,0:0:0:0:
222,201,261205,1,2,0:0:0:0:
128,40,261805,1,0,0:0:0:0:
406,270,262405,6,0,B|365:245|365:220|369:200|369:185|373:173|366:159|357:157|342:149|334:139|334:131|340:116|343:97|343:79|349:67|364:55|381:44|403:37|418:38|436:42|455:47|471:62|486:77|491:99|492:116|486:130|481:142|483:160|478:168|468:180|454:190|441:196|420:201|400:199|381:197|369:193|362:185|355:170|356:149|352:132|334:102|309:117|287:132|267:155|235:170|206:160|161:139,1,720,2|2,0:0|0:0,0:0:0:0:
177,146,266005,1,2,0:0:0:0:
78,326,266605,1,2,0:0:0:0:
312,284,267205,5,6,0:0:0:0:
244,208,267505,2,0,L|232:116,2,90
320,296,268405,5,6,0:0:0:0:
324,176,268705,2,0,L|336:84,2,90
332,308,269605,5,6,0:0:0:0:
204,328,269905,2,0,L|112:316,2,90
344,320,270805,5,6,0:0:0:0:
422,215,271105,2,0,L|514:203,2,90
252,201,272005,5,6,0:0:0:0:
252,201,272305,2,0,P|300:196|368:224,1,90,0|0,3:0|3:0,0:0:0:0:
200,284,272605,2,0,P|173:248|160:205,1,90,0|0,3:0|3:0,0:0:0:0:
292,288,272905,2,0,P|274:329|243:361,1,90,0|0,3:0|3:0,0:0:0:0:
56,337,273205,5,0,3:0:0:0:
80,249,273355,1,0,3:0:0:0:
160,205,273505,1,0,3:0:0:0:
252,201,273655,1,0,3:0:0:0:
356,341,273805,5,0,3:0:0:0:
264,337,273955,1,0,3:0:0:0:
184,293,274105,1,0,3:0:0:0:
160,205,274255,1,0,3:0:0:0:
368,248,274405,5,0,3:0:0:0:
264,337,274555,1,0,3:0:0:0:
208,120,274705,1,0,3:0:0:0:
336,149,274855,1,0,3:0:0:0:
184,293,275005,5,0,3:0:0:0:
84,160,275155,1,0,3:0:0:0:
295,44,275305,1,0,3:0:0:0:
252,201,275455,1,0,3:0:0:0:
120,64,275605,5,8,3:2:0:0:
371,249,275755,1,2,3:2:0:0:
122,268,275905,1,8,3:2:0:0:
219,27,276055,1,2,3:2:0:0:
264,336,276205,5,8,0:0:0:0:
8,200,276355,1,2,0:0:0:0:
40,202,276430,1,2,0:0:0:0:
65,189,276505,1,8,0:0:0:0:
102,153,276580,1,8,0:0:0:0:
145,137,276655,1,8,0:0:0:0:
188,153,276730,1,8,0:0:0:0:
234,155,276805,6,0,L|331:135,1,99.0000030212403,6|0,0:0|0:0,0:0:0:0:
248,332,277105,2,0,P|230:285|233:236,1,99.0000030212403,8|0,0:0|0:0,0:0:0:0:
412,96,277405,2,0,P|420:146|397:191,1,99.0000030212403,2|0,0:0|0:0,0:0:0:0:
218,151,277705,2,0,L|315:131,1,99.0000030212403,8|0,0:0|0:0,0:0:0:0:
431,290,278005,2,0,P|381:292|335:275,1,99.0000030212403,2|0,0:0|0:0,0:0:0:0:
160,74,278305,2,0,P|206:56|255:59,1,99.0000030212403,8|0,0:0|0:0,0:0:0:0:
396,193,278605,1,2,0:0:0:0:
224,168,278755,1,2,0:0:0:0:
348,40,278905,2,0,L|445:60,1,99.0000030212403,8|0,0:0|0:0,0:0:0:0:
281,245,279205,6,4,B|234:265|189:245|189:245|141:225|80:248,1,198.000006042481,6|8,0:0|0:0,0:0:0:0:
248,336,279655,1,0,0:0:0:0:
234,155,279805,2,0,P|187:137|138:140,1,99.0000030212403,2|0,0:0|0:0,0:0:0:0:
281,245,280105,2,0,L|378:225,1,99.0000030212403,8|0,0:0|0:0,0:0:0:0:
460,63,280405,1,2,0:0:0:0:
444,292,280555,1,0,0:0:0:0:
349,139,280705,2,0,P|346:89|363:43,1,99.0000030212403,8|0,0:0|0:0,0:0:0:0:
464,208,281005,1,2,0:0:0:0:
234,155,281155,1,2,0:0:0:0:
448,108,281305,1,8,0:0:0:0:
348,312,281455,1,0,0:0:0:0:
133,127,281605,6,0,P|200:59|295:72,1,198.000006042481,6|8,0:0|0:0,0:0:0:0:
384,220,282055,1,0,0:0:0:0:
214,251,282205,2,0,L|234:154,1,99.0000030212403,2|0,0:0|0:0,0:0:0:0:
418,316,282505,2,0,P|368:319|322:302,1,99.0000030212403,8|0,0:0|0:0,0:0:0:0:
294,71,282805,1,2,0:0:0:0:
384,220,282955,1,0,0:0:0:0:
214,251,283105,2,0,L|117:231,1,99.0000030212403,8|0,0:0|0:0,0:0:0:0:
131,53,283405,2,0,P|177:36|226:39,1,99.0000030212403,2|2,0:0|0:0,0:0:0:0:
294,71,283630,1,0,0:0:0:0:
294,71,283705,2,0,L|360:64,1,49.5000015106202,8|0,0:0|0:0,0:0:0:0:
448,48,283855,1,2,0:0:0:0:
440,296,284005,6,4,B|390:320|390:320|239:296,1,198.000006042481,6|8,0:0|0:0,0:0:0:0:
61,250,284455,1,0,0:0:0:0:
235,155,284605,1,2,0:0:0:0:
52,120,284755,1,0,0:0:0:0:
198,250,284905,2,0,P|247:253|293:236,1,99.0000030212403,8|0,0:0|0:0,0:0:0:0:
440,48,285205,1,8,0:0:0:0:
235,155,285355,1,2,0:0:0:0:
435,268,285505,1,8,0:0:0:0:
312,60,285655,1,2,0:0:0:0:
261,288,285805,5,8,0:0:0:0:
337,72,285955,1,2,0:0:0:0:
406,274,286105,1,8,0:0:0:0:
202,106,286255,1,8,0:0:0:0:
202,106,286330,1,8,0:0:0:0:
202,106,286405,6,0,P|144:182|171:274,1,198.000006042481,6|8,0:0|0:0,0:0:0:0:
344,336,286855,1,0,0:0:0:0:
337,188,287005,2,0,P|288:183|242:202,1,99.0000030212403,2|0,0:0|0:0,0:0:0:0:
112,356,287305,2,0,P|158:372|207:366,1,99.0000030212403,8|0,0:0|0:0,0:0:0:0:
243,202,287605,2,0,L|223:105,1,99.0000030212403,2|0,0:0|0:0,0:0:0:0:
47,207,287905,2,0,P|93:227|142:220,1,99.0000030212403,8|0,0:0|0:0,0:0:0:0:
352,100,288205,1,2,0:0:0:0:
108,132,288355,1,2,0:0:0:0:
337,188,288505,2,0,P|386:182|425:151,1,99.0000030212403,8|0,0:0|0:0,0:0:0:0:
236,40,288805,6,0,B|204:24|184:36|184:36|176:120|212:200,1,198.000006042481,6|8,0:0|0:0,0:0:0:0:
256,292,289255,1,0,0:0:0:0:
352,100,289405,1,2,0:0:0:0:
95,142,289555,1,0,0:0:0:0:
336,187,289705,2,0,L|433:167,1,99.0000030212403,8|0,0:0|0:0,0:0:0:0:
256,314,290005,2,0,P|207:317|161:301,2,99.0000030212403,2|0|8,0:0|0:0|0:0,0:0:0:0:
337,188,290455,2,0,L|317:91,1,99.0000030212403,0|2,0:0|0:0,0:0:0:0:
377,368,290755,1,2,0:0:0:0:
161,301,290905,2,0,P|157:251|174:205,1,99.0000030212403,8|0,0:0|0:0,0:0:0:0:
420,126,291205,6,0,P|432:221|364:288,1,198.000006042481,6|8,0:0|0:0,0:0:0:0:
174,205,291655,1,0,0:0:0:0:
317,91,291805,2,0,L|337:188,1,99.0000030212403,2|0,0:0|0:0,0:0:0:0:
76,240,292105,2,0,P|72:190|89:144,1,99.0000030212403,8|0,0:0|0:0,0:0:0:0:
250,265,292405,2,0,L|230:362,1,99.0000030212403,2|0,0:0|0:0,0:0:0:0:
221,104,292705,2,0,P|267:87|316:90,1,99.0000030212403,8|0,0:0|0:0,0:0:0:0:
405,252,293005,1,2,0:0:0:0:
284,188,293155,1,0,0:0:0:0:
508,224,293305,2,0,P|511:273|494:319,1,99.0000030212403,8|0,0:0|0:0,0:0:0:0:
416,124,293605,6,0,L|436:27,1,99.0000030212403,6|0,0:0|0:0,0:0:0:0:
284,188,293905,2,0,L|304:285,1,99.0000030212403,8|0,0:0|0:0,0:0:0:0:
508,224,294205,1,2,0:0:0:0:
316,90,294355,1,0,0:0:0:0:
244,364,294505,2,0,P|290:381|339:378,1,99.0000030212403,8|0,0:0|0:0,0:0:0:0:
508,224,294805,1,8,0:0:0:0:
303,284,294955,1,2,0:0:0:0:
416,124,295105,1,8,0:0:0:0:
472,304,295255,1,2,0:0:0:0:
316,90,295405,5,8,0:0:0:0:
140,268,295555,1,2,0:0:0:0:
166,281,295630,1,2,0:0:0:0:
194,291,295705,1,8,0:0:0:0:
223,296,295780,1,8,0:0:0:0:
253,297,295855,1,8,0:0:0:0:
282,293,295930,1,8,0:0:0:0:
303,284,296005,6,0,P|367:264|479:312,1,175.499991966248,6|0,0:0|0:0,0:0:0:0:
184,264,296905,2,0,P|215:204|328:159,1,175.499991966248
72,312,297805,2,0,P|58:269|90:195,1,116.999994644165
452,72,298405,6,0,B|412:100|412:100|348:76|276:96,1,175.499991966248,2|0,0:0|0:0,0:0:0:0:
81,203,299305,2,0,B|121:231|121:231|185:207|257:227,1,175.499991966248,2|0,0:0|0:0,0:0:0:0:
287,93,300205,2,0,P|230:80|178:103,1,116.999994644165
40,312,300805,6,0,B|80:328|124:312|124:312|172:288|228:304,1,175.499991966248,2|0,0:0|0:0,0:0:0:0:
472,72,301705,2,0,B|432:56|388:72|388:72|340:96|284:80,1,175.499991966248,2|0,0:0|0:0,0:0:0:0:
100,96,302605,1,0,0:0:0:0:
412,288,302905,1,0,3:0:0:0:
412,288,303055,1,0,3:0:0:0:
412,288,303205,6,0,L|488:296,1,72,4|0,3:0|0:0,0:0:0:0:
396,204,303505,2,0,P|356:224|348:344,1,144
480,188,303955,2,0,P|460:148|340:140,1,144
325,211,304405,1,0,0:0:0:0:
325,211,304555,2,0,L|397:203,1,72
284,124,304855,1,0,0:0:0:0:
240,232,305005,2,0,P|260:272|380:280,1,144
160,128,305605,6,0,L|60:140,1,72,4|0,0:0|0:0,0:0:0:0:
169,223,305905,2,0,L|241:231,1,72
397,203,306205,1,0,0:0:0:0:
397,203,306355,2,0,L|325:211,1,72
368,300,306655,1,0,0:0:0:0:
480,188,306805,6,0,P|460:148|340:140,1,144
215,275,307255,2,0,P|285:267|326:210,1,144
272,124,307705,1,0,0:0:0:0:
156,116,307855,1,0,0:0:0:0:
156,116,308005,6,0,L|72:100,1,72,2|0,0:0|0:0,0:0:0:0:
168,208,308305,2,0,L|252:192,1,72,0|0,0:0|0:0,0:0:0:0:
156,116,308605,1,0,0:0:0:0:
76,192,308755,2,0,P|76:240|104:284,1,72
184,320,309055,1,0,0:0:0:0:
280,284,309205,6,0,L|364:268,1,72
487,288,309505,1,0,0:0:0:0:
412,338,309655,1,0,0:0:0:0:
428,220,309805,2,0,P|458:202|494:197,1,72
451,104,310105,2,0,L|379:107,1,72,2|0,0:0|0:0,0:0:0:0:
224,140,310405,6,0,P|184:132|144:104,1,72,2|0,0:0|0:0,0:0:0:0:
72,64,310705,2,0,L|80:216,1,144,0|0,0:0|0:0,0:0:0:0:
140,276,311155,1,0,0:0:0:0:
140,276,311305,2,0,P|180:284|220:312,1,72,0|0,0:0|0:0,0:0:0:0:
292,336,311605,6,0,P|252:316|244:196,1,144
367,213,312055,2,0,P|341:238|308:252,1,72
292,160,312355,1,0,0:0:0:0:
308,68,312505,2,0,P|341:81|367:106,1,72,2|2,0:0|0:0,0:0:0:0:
204,216,312805,5,6,0:0:0:0:
28,212,312955,1,0,0:0:0:0:
124,56,313105,1,2,0:0:0:0:
219,224,313255,2,0,B|165:208|125:224|125:224|84:241|39:224,1,180
301,368,313705,6,0,P|352:364|409:326,2,90,6|0|0,0:0|0:0|0:0,0:0:0:0:
102,343,314155,2,0,P|56:302|72:184,1,180,2|0,0:0|0:0,0:0:0:0:
195,152,314605,6,0,L|317:143,1,90,2|0,0:0|0:0,0:0:0:0:
412,261,314905,2,0,L|290:252,1,99.0000030212403,2|0,0:0|0:0,0:0:0:0:
256,192,315205,12,0,320605,0:0:0:0:
