osu file format v14

[General]
AudioFilename: 7 senses.mp3
AudioLeadIn: 0
PreviewTime: 46444
Countdown: 0
SampleSet: Soft
StackLeniency: 0.7
Mode: 0
LetterboxInBreaks: 0
WidescreenStoryboard: 0

[Editor]
DistanceSpacing: 1
BeatDivisor: 4
GridSize: 4
TimelineZoom: 2

[Metadata]
Title:7 Senses
TitleUnicode:7 Senses
Artist:Wake Up, Girls!
ArtistUnicode:Wake Up, Girls!
Creator:kunka
Version:Normal
Source:Wake Up, Girls! 新章
Tags:opening tv size shinshou wug! Momochikun kunkakunkakunkakunka
BeatmapID:1465145
BeatmapSetID:686456

[Difficulty]
HPDrainRate:4
CircleSize:3.5
OverallDifficulty:5
ApproachRate:5
SliderMultiplier:1.2
SliderTickRate:1

[Events]
//Background and Video events
Video,0,"7 senses.avi"
0,0,"BG.jpg",0,0
//Break Periods
//Storyboard Layer 0 (Background)
//Storyboard Layer 1 (Fail)
//Storyboard Layer 2 (Pass)
//Storyboard Layer 3 (Foreground)
//Storyboard Sound Samples

[TimingPoints]
526,306.122448979592,4,2,1,60,1,0
526,-111.111111111111,4,2,1,60,0,0
2362,-111.111111111111,4,2,2,50,0,0
2974,-111.111111111111,4,2,1,60,0,0
5423,-111.111111111111,4,2,1,50,0,0
46903,-111.111111111111,4,2,1,70,0,1
66036,-111.111111111111,4,2,1,60,0,0
66495,-111.111111111111,4,2,1,70,0,1
86087,-111.111111111111,4,2,1,70,0,0
87464,-111.111111111111,4,2,1,60,0,0

[Colours]
Combo1 : 255,128,255
Combo2 : 128,255,128
Combo3 : 128,255,255
Combo4 : 255,128,128
Combo5 : 255,255,128

[HitObjects]
312,296,526,6,0,L|366:292,1,53.9999983520508,10|10,0:0|0:0,0:0:0:0:
345,186,985,2,0,L|291:190,1,53.9999983520508,10|10,0:0|0:0,0:0:0:0:
226,103,1444,2,0,L|221:49,1,53.9999983520508,10|10,0:0|0:0,0:0:0:0:
115,70,1903,2,0,L|119:123,1,53.9999983520508,10|10,0:0|0:0,0:0:0:0:
192,207,2362,2,0,P|245:215|291:188,1,107.999996704102,2|2,0:0|0:0,0:0:0:0:
392,154,2974,6,0,L|445:158,1,53.9999983520508,10|10,0:0|0:0,0:0:0:0:
425,265,3433,2,0,L|371:260,1,53.9999983520508,10|10,0:0|0:0,0:0:0:0:
290,189,3893,2,0,P|283:162|285:135,1,53.9999983520508,10|10,0:0|0:0,0:0:0:0:
344,45,4352,2,0,L|397:49,2,53.9999983520508
292,28,4811,2,0,P|239:13|186:28,1,107.999996704102,2|12,0:0|0:0,0:0:0:0:
99,86,5423,5,6,0:0:0:0:
101,194,5730,2,0,L|105:247,1,53.9999983520508,8|0,0:0|0:0,0:0:0:0:
127,297,6036,2,0,P|173:323|226:314,1,107.999996704102,0|8,0:0|0:0,0:0:0:0:
326,276,6648,2,0,P|352:269|379:270,1,53.9999983520508,2|2,0:0|0:0,0:0:0:0:
432,279,6954,1,8,0:0:0:0:
494,191,7260,2,0,P|502:137|475:90,1,107.999996704102,0|8,0:0|0:0,0:0:0:0:
374,58,7872,6,0,P|347:63|319:62,1,53.9999983520508,2|2,0:0|0:0,0:0:0:0:
267,56,8178,1,8,0:0:0:0:
222,87,8332,2,0,B|208:142|208:142|235:187|235:187|222:243,1,161.999995056152,0|8,0:0|0:0,0:0:0:0:
163,327,9097,2,0,P|135:325|109:333,2,53.9999983520508,2|2|8,0:0|0:0|0:0,0:0:0:0:
270,331,9709,2,0,P|296:331|323:324,2,53.9999983520508,2|2|8,0:0|0:0|0:0,0:0:0:0:
223,237,10321,5,2,0:0:0:0:
124,193,10628,2,0,L|117:139,1,53.9999983520508,8|0,0:0|0:0,0:0:0:0:
138,89,10934,2,0,P|189:67|244:72,1,107.999996704102,0|8,0:0|0:0,0:0:0:0:
322,141,11546,2,0,L|375:134,1,53.9999983520508,2|2,0:0|0:0,0:0:0:0:
422,160,11852,1,8,0:0:0:0:
440,266,12158,2,0,P|388:287|333:282,1,107.999996704102,0|8,0:0|0:0,0:0:0:0:
233,311,12770,6,0,P|205:314|180:325,1,53.9999983520508,2|2,0:0|0:0,0:0:0:0:
131,345,13077,1,8,0:0:0:0:
80,325,13230,2,0,B|66:270|66:270|93:225|93:225|80:171,1,161.999995056152,0|8,0:0|0:0,0:0:0:0:
24,81,13995,2,0,P|16:54|17:27,2,53.9999983520508,2|2|8,0:0|0:0|0:0,0:0:0:0:
131,78,14607,2,0,P|157:70|184:71,2,53.9999983520508,2|2|8,0:0|0:0|0:0,0:0:0:0:
171,178,15219,6,0,P|177:204|177:231,1,53.9999983520508,2|2,0:0|0:0,0:0:0:0:
188,284,15526,2,0,P|236:306|289:301,1,107.999996704102,8|0,0:0|0:0,0:0:0:0:
394,325,16138,2,0,P|419:317|446:319,1,53.9999983520508,8|0,0:0|0:0,0:0:0:0:
494,292,16444,2,0,P|506:234|505:182,1,107.999996704102,2|8,0:0|0:0,0:0:0:0:
442,98,17056,2,0,P|389:93|341:115,1,107.999996704102,0|8,0:0|0:0,0:0:0:0:
291,212,17668,6,0,P|263:216|236:212,1,53.9999983520508,2|2,0:0|0:0,0:0:0:0:
185,201,17974,1,8,0:0:0:0:
150,98,18281,2,0,P|203:93|251:115,1,107.999996704102,0|8,0:0|0:0,0:0:0:0:
291,212,18893,2,0,L|274:266,1,53.9999983520508,2|2,0:0|0:0,0:0:0:0:
282,317,19199,1,8,0:0:0:0:
181,355,19505,1,8,0:0:0:0:
181,355,19658,1,8,0:0:0:0:
87,300,19964,6,0,P|60:253|68:199,1,107.999996704102,6|2,0:0|0:0,0:0:0:0:
85,150,20423,1,8,0:0:0:0:
188,118,20730,2,0,P|214:125|241:123,1,53.9999983520508,2|2,0:0|0:0,0:0:0:0:
331,65,21189,2,0,P|377:38|430:45,1,107.999996704102,6|2,0:0|0:0,0:0:0:0:
472,77,21648,1,8,0:0:0:0:
444,181,21954,2,0,L|433:235,1,53.9999983520508,2|2,0:0|0:0,0:0:0:0:
339,286,22413,6,0,P|282:272|231:286,1,107.999996704102,6|2,0:0|0:0,0:0:0:0:
183,303,22872,1,8,0:0:0:0:
128,209,23179,2,0,P|111:186|89:170,1,53.9999983520508,2|2,0:0|0:0,0:0:0:0:
40,267,23638,2,0,P|79:303|130:315,1,107.999996704102,6|2,0:0|0:0,0:0:0:0:
183,303,24097,1,8,0:0:0:0:
283,264,24403,2,0,P|309:256|336:257,1,53.9999983520508,12|8,0:0|0:3,0:0:0:0:
387,272,24709,2,0,P|413:279|440:278,1,53.9999983520508,8|8,0:3|0:3,0:0:0:0:
482,244,25015,6,0,P|507:168|482:88,1,161.999995056152,6|2,0:0|0:0,0:0:0:0:
453,47,25628,1,8,1:2:0:0:
349,15,25934,1,0,0:0:0:0:
249,57,26240,2,0,P|198:83|145:84,1,107.999996704102,8|2,0:0|0:0,0:0:0:0:
68,157,26852,2,0,L|68:212,1,53.9999983520508,8|2,0:0|0:0,0:0:0:0:
79,317,27311,6,0,P|125:343|179:335,1,107.999996704102,6|2,0:0|0:0,0:0:0:0:
226,313,27770,1,2,0:0:0:0:
194,209,28077,1,8,0:0:0:0:
238,110,28383,2,0,L|248:56,1,53.9999983520508,0|2,0:0|0:0,0:0:0:0:
289,21,28689,2,0,P|342:12|388:39,1,107.999996704102,8|2,0:0|0:0,0:0:0:0:
424,139,29301,2,0,L|412:192,1,53.9999983520508,8|2,0:0|0:0,0:0:0:0:
338,270,29760,6,0,P|384:299|437:296,1,107.999996704102,6|8,0:0|0:0,0:0:0:0:
484,273,30219,1,2,0:0:0:0:
412,191,30526,1,12,0:0:0:0:
338,270,30832,2,0,P|310:267|284:275,1,53.9999983520508,0|2,0:0|0:0,0:0:0:0:
245,311,31138,2,0,P|198:337|144:329,1,107.999996704102,8|2,0:0|0:0,0:0:0:0:
78,245,31750,2,0,L|66:191,1,53.9999983520508,8|2,0:0|0:0,0:0:0:0:
100,89,32209,6,0,P|146:62|199:69,1,107.999996704102,6|8,0:0|0:0,0:0:0:0:
251,77,32668,2,0,L|305:65,1,53.9999983520508,0|2,0:0|0:0,0:0:0:0:
357,57,32974,1,12,0:0:0:0:
319,159,33281,2,0,L|265:170,1,53.9999983520508,0|2,0:0|0:0,0:0:0:0:
225,205,33587,2,0,P|223:260|248:307,1,107.999996704102,8|0,0:0|0:0,0:0:0:0:
353,326,34199,2,0,L|364:379,2,53.9999983520508,8|0|2,0:0|0:0|0:0,0:0:0:0:
389,286,34658,6,0,P|391:231|366:184,1,107.999996704102,12|2,0:0|0:0,0:0:0:0:
319,159,35117,1,2,0:0:0:0:
225,205,35423,1,8,0:0:0:0:
118,188,35730,1,0,0:0:0:0:
14,217,36036,2,0,P|12:162|37:115,1,107.999996704102,8|2,0:0|0:0,0:0:0:0:
136,75,36648,2,0,P|162:81|189:79,1,53.9999983520508,8|2,0:0|0:0,0:0:0:0:
295,66,37107,6,0,P|348:57|394:84,1,107.999996704102,6|2,0:0|0:0,0:0:0:0:
430,122,37566,1,2,0:0:0:0:
448,228,37872,1,8,0:0:0:0:
386,317,38179,1,0,0:0:0:0:
278,313,38485,2,0,P|221:299|170:313,1,107.999996704102,12|0,0:0|0:0,0:0:0:0:
67,291,39097,2,0,L|60:344,2,53.9999983520508,8|8|8,0:0|0:0|0:0,0:0:0:0:
41,243,39556,6,0,L|53:132,1,107.999996704102,4|2,0:1|0:0,0:0:0:0:
83,91,40015,1,8,0:0:0:0:
176,36,40321,2,0,P|202:33|229:41,1,53.9999983520508,2|2,0:0|0:0,0:0:0:0:
320,98,40781,2,0,P|365:68|419:70,1,107.999996704102,6|2,0:0|0:0,0:0:0:0:
470,80,41240,1,8,0:0:0:0:
446,185,41546,2,0,P|418:186|392:178,1,53.9999983520508,2|2,0:0|0:0,0:0:0:0:
320,98,42005,6,0,P|273:67|219:69,1,107.999996704102,6|2,0:0|0:0,0:0:0:0:
169,77,42464,1,8,0:0:0:0:
94,154,42770,1,2,0:0:0:0:
109,261,43077,2,0,P|113:287|127:310,1,53.9999983520508,8|0,0:0|0:0,0:0:0:0:
170,342,43383,2,0,P|221:329|278:334,1,107.999996704102,6|8,0:0|0:0,0:0:0:0:
371,283,43995,2,0,P|382:228|361:178,1,107.999996704102,2|8,0:0|0:0,0:0:0:0:
256,192,44607,12,10,45832,0:0:0:0:
256,247,46444,5,2,0:0:0:0:
256,247,46597,1,2,0:0:0:0:
303,344,46903,6,0,P|356:362|406:344,1,107.999996704102,6|2,0:0|0:0,0:0:0:0:
452,322,47362,1,8,0:0:0:0:
412,221,47668,1,2,0:0:0:0:
448,119,47974,2,0,L|434:67,1,53.9999983520508,8|0,0:0|0:0,0:0:0:0:
405,20,48281,2,0,P|352:2|302:20,1,107.999996704102,2|8,0:0|0:0,0:0:0:0:
210,70,48893,2,0,P|186:60|158:56,1,53.9999983520508,2|2,0:0|0:0,0:0:0:0:
164,163,49352,6,0,P|218:181|268:163,1,107.999996704102,6|2,0:0|0:0,0:0:0:0:
311,138,49811,1,8,0:0:0:0:
418,151,50117,1,2,0:0:0:0:
443,255,50423,2,0,L|429:307,1,53.9999983520508,8|0,0:0|0:0,0:0:0:0:
396,350,50730,2,0,P|343:367|292:350,1,107.999996704102,2|8,0:0|0:0,0:0:0:0:
204,291,51342,2,0,P|176:294|151:305,1,53.9999983520508,2|2,0:0|0:0,0:0:0:0:
45,286,51801,6,0,P|18:237|27:184,1,107.999996704102,6|2,0:0|0:0,0:0:0:0:
49,139,52260,1,8,0:0:0:0:
96,113,52413,2,0,B|122:102|149:113|149:113|176:124|203:113,1,107.999996704102,0|2,0:0|0:0,0:0:0:0:
253,100,52872,1,8,0:0:0:0:
353,60,53179,1,2,0:0:0:0:
422,143,53485,1,8,0:0:0:0:
366,234,53791,1,2,0:0:0:0:
261,207,54097,1,8,0:0:0:0:
253,100,54403,6,0,P|204:73|151:82,1,107.999996704102,6|8,0:0|0:0,0:0:0:0:
106,105,54862,2,0,B|88:215|88:215|106:265,1,161.999995056152,0|8,0:0|0:0,0:0:0:0:
169,349,55628,2,0,P|219:376|272:367,1,107.999996704102,2|12,0:0|0:0,0:0:0:0:
325,278,56240,2,0,L|378:289,2,53.9999983520508,8|8|8,0:0|0:3|0:3,0:0:0:0:
294,233,56699,6,0,P|244:206|191:215,1,107.999996704102,6|2,0:0|0:0,0:0:0:0:
150,242,57158,1,8,0:0:0:0:
44,220,57464,1,2,0:0:0:0:
15,115,57770,2,0,P|18:88|28:62,1,53.9999983520508,8|0,0:0|0:0,0:0:0:0:
66,25,58077,2,0,L|176:45,1,107.999996704102,2|8,0:0|0:0,0:0:0:0:
262,104,58689,2,0,L|315:93,1,53.9999983520508,2|2,0:0|0:0,0:0:0:0:
431,147,59148,6,0,P|456:196|449:249,1,107.999996704102,6|2,0:0|0:0,0:0:0:0:
428,295,59607,1,8,0:0:0:0:
323,317,59913,1,2,0:0:0:0:
217,296,60219,2,0,L|163:307,1,53.9999983520508,8|0,0:0|0:0,0:0:0:0:
124,269,60526,2,0,P|97:220|106:167,1,107.999996704102,2|8,0:0|0:0,0:0:0:0:
197,115,61138,2,0,L|187:62,2,53.9999983520508,2|2|8,0:0|0:0|0:0,0:0:0:0:
245,139,61597,6,0,P|272:188|264:241,1,107.999996704102,6|2,0:0|0:0,0:0:0:0:
237,283,62056,1,8,0:0:0:0:
335,326,62362,2,0,L|346:379,2,53.9999983520508,2|2|8,0:0|0:0|0:0,0:0:0:0:
357,277,62821,2,0,P|406:250|459:259,1,107.999996704102,6|2,0:0|0:0,0:0:0:0:
508,245,63281,1,8,0:0:0:0:
495,137,63587,2,0,L|506:84,2,53.9999983520508,2|2|8,0:0|0:0|0:0,0:0:0:0:
442,155,64046,6,0,P|388:162|342:135,1,107.999996704102,6|2,0:0|0:0,0:0:0:0:
304,99,64505,1,8,0:0:0:0:
211,42,64811,2,0,P|182:44|157:54,2,53.9999983520508,2|2|8,0:0|0:0|0:0,0:0:0:0:
207,149,65423,2,0,P|180:195|187:249,1,107.999996704102,8|8,0:0|0:0,0:0:0:0:
290,278,66036,2,0,P|293:250|290:223,1,53.9999983520508,10|10,0:0|0:0,0:0:0:0:
186,247,66495,6,0,P|139:273|85:266,1,107.999996704102,6|2,0:0|0:0,0:0:0:0:
34,253,66954,1,8,0:0:0:0:
11,147,67260,1,2,0:0:0:0:
73,59,67566,2,0,L|128:67,1,53.9999983520508,8|0,0:0|0:0,0:0:0:0:
178,81,67872,2,0,P|224:107|278:100,1,107.999996704102,2|8,0:0|0:0,0:0:0:0:
365,163,68485,2,0,L|374:218,1,53.9999983520508,2|2,0:0|0:0,0:0:0:0:
457,147,68944,6,0,P|430:94|388:72,1,107.999996704102,6|2,0:0|0:0,0:0:0:0:
336,56,69403,1,8,0:0:0:0:
245,115,69709,1,2,0:0:0:0:
140,86,70015,2,0,P|112:88|87:98,1,53.9999983520508,8|0,0:0|0:0,0:0:0:0:
46,131,70321,2,0,P|28:184|46:235,1,107.999996704102,2|8,0:0|0:0,0:0:0:0:
118,311,70934,2,0,P|144:312|170:323,1,53.9999983520508,2|2,0:0|0:0,0:0:0:0:
270,359,71393,6,0,P|323:366|370:339,1,107.999996704102,6|2,0:0|0:0,0:0:0:0:
415,313,71852,1,8,0:0:0:0:
430,261,72005,2,0,L|423:152,1,107.999996704102,0|2,0:0|0:0,0:0:0:0:
395,106,72464,1,8,0:0:0:0:
303,49,72770,1,2,0:0:0:0:
220,115,73077,1,8,0:0:0:0:
258,212,73383,1,2,0:0:0:0:
365,210,73689,1,8,0:0:0:0:
395,106,73995,6,0,P|362:60|310:46,1,107.999996704102,6|8,0:0|0:0,0:0:0:0:
261,57,74454,2,0,B|221:73|182:57|182:57|141:41|100:57,1,161.999995056152,0|8,0:0|0:0,0:0:0:0:
29,134,75219,1,8,0:0:0:0:
33,242,75526,1,12,0:0:0:0:
116,310,75832,2,0,P|143:311|168:322,1,53.9999983520508,2|8,0:0|0:0,0:0:0:0:
221,322,76138,2,0,P|247:311|273:309,1,53.9999983520508,8|8,0:0|0:0,0:0:0:0:
323,327,76444,6,0,L|342:215,1,107.999996704102,6|8,0:0|0:0,0:0:0:0:
372,117,77056,1,2,0:0:0:0:
442,199,77362,2,0,P|417:218|392:224,1,53.9999983520508,8|0,0:0|0:0,0:0:0:0:
341,220,77668,2,0,L|229:201,1,107.999996704102,2|8,0:0|0:0,0:0:0:0:
174,112,78281,2,0,L|120:120,1,53.9999983520508,2|2,0:0|0:0,0:0:0:0:
47,198,78740,6,0,P|35:251|58:299,1,107.999996704102,6|2,0:0|0:0,0:0:0:0:
93,337,79199,1,8,0:0:0:0:
191,292,79505,1,2,0:0:0:0:
294,323,79811,2,0,P|299:297|296:269,1,53.9999983520508,8|0,0:0|0:0,0:0:0:0:
275,220,80117,2,0,P|263:166|285:118,1,107.999996704102,2|8,0:0|0:0,0:0:0:0:
387,89,80730,2,0,L|397:36,2,53.9999983520508,8|2|8,0:3|0:0|0:0,0:0:0:0:
419,131,81189,6,0,P|431:184|408:233,1,107.999996704102,6|2,0:0|0:0,0:0:0:0:
376,273,81648,1,8,0:0:0:0:
274,308,81954,2,0,L|263:361,2,53.9999983520508,2|2|8,0:0|0:0|0:0,0:0:0:0:
256,257,82413,2,0,P|206:234|154:246,1,107.999996704102,6|2,0:0|0:0,0:0:0:0:
105,262,82872,1,8,0:0:0:0:
38,176,83179,2,0,L|28:123,2,53.9999983520508,2|2|8,0:0|0:0|0:0,0:0:0:0:
5,219,83638,6,0,P|-8:271|14:320,1,107.999996704102,6|2,0:0|0:0,0:0:0:0:
58,348,84097,1,8,0:0:0:0:
158,307,84403,1,2,0:0:0:0:
264,325,84709,1,2,0:0:0:0:
364,284,85015,2,0,L|374:231,1,53.9999983520508,8|2,0:0|0:0,0:0:0:0:
350,70,85628,2,0,L|339:123,1,53.9999983520508,8|2,0:0|0:0,0:0:0:0:
256,192,86087,5,6,0:0:0:0:
256,192,86240,12,0,88612,0:0:0:0:
