osu file format v14

[General]
AudioFilename: audio.mp3
AudioLeadIn: 0
PreviewTime: 129715
Countdown: 0
SampleSet: Soft
StackLeniency: 0.7
Mode: 0
LetterboxInBreaks: 0
WidescreenStoryboard: 1

[Editor]
Bookmarks: 613,20051,25102,39643,46990,88776,103317,108368,122908,130255,169592,179235,198827,220868,233113,272296,291888,311480
DistanceSpacing: 1.2
BeatDivisor: 4
GridSize: 32
TimelineZoom: 2.3

[Metadata]
Title:7 Senses
TitleUnicode:7 Senses
Artist:Wake Up, Girls!
ArtistUnicode:Wake Up, Girls!
Creator:otudou
Version:Promise
Source:Wake Up, Girls! 新章
Tags:anime op opening full size wug! shin shou japanese pop jpop j-pop tanaka hidekazu
BeatmapID:3486485
BeatmapSetID:1706306

[Difficulty]
HPDrainRate:6
CircleSize:4
OverallDifficulty:9
ApproachRate:9.4
SliderMultiplier:1.8
SliderTickRate:1

[Events]
//Background and Video events
0,0,"BG.jpg",0,0
//Break Periods
2,211272,220309
//Storyboard Layer 0 (Background)
//Storyboard Layer 1 (Fail)
//Storyboard Layer 2 (Pass)
//Storyboard Layer 3 (Foreground)
//Storyboard Layer 4 (Overlay)
//Storyboard Sound Samples

[TimingPoints]
613,306.122448979592,4,2,1,60,1,0
2449,-111.111111111111,4,2,1,60,0,0
2755,-83.3333333333333,4,2,22,60,0,0
2984,-83.3333333333333,4,2,22,5,0,0
3061,-83.3333333333333,4,2,1,60,0,0
4898,-111.111111111111,4,2,1,60,0,0
5204,-90.9090909090909,4,2,1,60,0,0
5433,-90.9090909090909,4,2,1,5,0,0
5510,-90.9090909090909,4,2,1,50,0,0
5817,-133.333333333333,4,2,1,50,0,0
9184,-133.333333333333,4,2,2,50,0,0
9490,-133.333333333333,4,2,1,50,0,0
9796,-133.333333333333,4,2,2,50,0,0
10102,-133.333333333333,4,2,1,50,0,0
14082,-133.333333333333,4,2,2,50,0,0
14388,-133.333333333333,4,2,1,50,0,0
14694,-133.333333333333,4,2,2,50,0,0
15000,-133.333333333333,4,2,1,50,0,0
15306,-133.333333333333,4,2,2,50,0,0
15459,-133.333333333333,4,2,1,50,0,0
17755,-133.333333333333,4,2,2,50,0,0
18061,-133.333333333333,4,2,1,50,0,0
19515,-133.333333333333,4,2,1,5,0,0
19592,-133.333333333333,4,2,1,60,0,0
20051,-100,4,2,1,60,0,0
21276,-100,4,2,2,60,0,0
21582,-100,4,2,1,60,0,0
23725,-100,4,2,2,60,0,0
24031,-100,4,2,1,60,0,0
25102,-111.111111111111,4,2,2,60,0,0
25561,-111.111111111111,4,2,1,60,0,0
26327,-90.9090909090909,4,2,1,60,0,0
26556,-90.9090909090909,4,2,1,5,0,0
26633,-90.9090909090909,4,2,1,60,0,0
26862,-90.9090909090909,4,2,1,5,0,0
26939,-90.9090909090909,4,2,1,60,0,0
27398,-111.111111111111,4,2,1,60,0,0
28393,-111.111111111111,4,2,1,5,0,0
28470,-111.111111111111,4,2,1,60,0,0
29847,-111.111111111111,4,2,2,60,0,0
30153,-111.111111111111,4,2,1,60,0,0
32219,-111.111111111111,4,2,1,5,0,0
32296,-111.111111111111,4,2,1,60,0,0
34745,-111.111111111111,4,2,2,60,0,0
35051,-111.111111111111,4,2,1,60,0,0
36046,-111.111111111111,4,2,1,5,0,0
36123,-90.9090909090908,4,2,1,60,0,0
36352,-90.9090909090908,4,2,1,5,0,0
36429,-90.9090909090908,4,2,1,60,0,0
36658,-90.9090909090908,4,2,1,5,0,0
36735,-90.9090909090908,4,2,1,60,0,0
37194,-111.111111111111,4,2,1,60,0,0
38188,-111.111111111111,4,2,1,5,0,0
38266,-111.111111111111,4,2,1,60,0,0
39643,-100,4,2,1,60,0,0
40868,-100,4,2,2,60,0,0
41174,-100,4,2,1,60,0,0
43470,-100,4,2,2,60,0,0
43776,-100,4,2,1,60,0,0
45919,-100,4,2,2,60,0,0
46531,-100,4,2,1,60,0,0
46990,-95.2380952380952,4,2,1,70,0,1
49439,-95.2380952380952,4,2,2,70,0,1
49745,-95.2380952380952,4,2,1,70,0,1
54490,-95.2380952380952,4,2,2,70,0,1
54796,-95.2380952380952,4,2,1,70,0,1
59235,-95.2380952380952,4,2,2,70,0,1
59541,-95.2380952380952,4,2,1,70,0,1
62908,-95.2380952380952,4,2,2,70,0,1
63214,-95.2380952380952,4,2,1,70,0,1
69031,-95.2380952380952,4,2,2,70,0,1
69337,-95.2380952380952,4,2,1,70,0,1
71480,-95.2380952380952,4,2,2,70,0,1
71786,-95.2380952380952,4,2,1,70,0,1
74082,-95.2380952380952,4,2,2,70,0,1
74388,-95.2380952380952,4,2,1,70,0,1
78827,-95.2380952380952,4,2,2,70,0,1
79133,-95.2380952380952,4,2,1,70,0,1
82500,-95.2380952380952,4,2,2,70,0,1
82806,-95.2380952380952,4,2,1,70,0,1
83725,-95.2380952380952,4,2,2,70,0,1
84031,-95.2380952380952,4,2,1,70,0,1
86327,-95.2380952380952,4,2,1,60,0,0
87704,-111.111111111111,4,2,1,60,0,0
88470,-90.9090909090909,4,2,1,60,0,0
88699,-90.9090909090909,4,2,1,5,0,0
88776,-90.9090909090909,4,2,1,50,0,0
89847,-111.111111111111,4,2,1,50,0,0
91148,-111.111111111111,4,2,1,5,0,0
91225,-111.111111111111,4,2,2,50,0,0
91378,-111.111111111111,4,2,1,50,0,0
92449,-111.111111111111,4,2,2,50,0,0
92755,-111.111111111111,4,2,1,50,0,0
93061,-111.111111111111,4,2,2,50,0,0
93368,-111.111111111111,4,2,1,50,0,0
97347,-111.111111111111,4,2,2,50,0,0
97653,-111.111111111111,4,2,1,50,0,0
97959,-111.111111111111,4,2,2,50,0,0
98266,-111.111111111111,4,2,1,50,0,0
98572,-111.111111111111,4,2,2,50,0,0
98725,-111.111111111111,4,2,1,50,0,0
102168,-111.111111111111,4,2,1,5,0,0
102245,-111.111111111111,4,2,1,50,0,0
102857,-111.111111111111,4,2,1,60,0,0
103317,-100,4,2,1,60,0,0
104541,-100,4,2,2,60,0,0
104847,-100,4,2,1,60,0,0
105766,-100,4,2,2,60,0,0
106072,-100,4,2,1,60,0,0
108368,-111.111111111111,4,2,1,60,0,0
109592,-90.9090909090909,4,2,1,60,0,0
109821,-90.9090909090909,4,2,1,5,0,0
109898,-90.9090909090909,4,2,1,60,0,0
110127,-90.9090909090909,4,2,1,5,0,0
110204,-90.9090909090909,4,2,1,60,0,0
110664,-111.111111111111,4,2,1,60,0,0
112882,-111.111111111111,4,2,1,5,0,0
112959,-111.111111111111,4,2,1,60,0,0
113113,-111.111111111111,4,2,2,60,0,0
113419,-111.111111111111,4,2,1,60,0,0
118010,-111.111111111111,4,2,2,60,0,0
118316,-111.111111111111,4,2,1,60,0,0
118776,-111.111111111111,4,2,2,60,0,0
119235,-111.111111111111,4,2,1,60,0,0
119388,-90.9090909090909,4,2,1,60,0,0
119617,-90.9090909090909,4,2,1,5,0,0
119694,-90.9090909090909,4,2,1,60,0,0
119923,-90.9090909090909,4,2,1,5,0,0
120000,-90.9090909090909,4,2,1,60,0,0
120459,-111.111111111111,4,2,1,60,0,0
122908,-100,4,2,1,60,0,0
124133,-100,4,2,2,60,0,0
124439,-100,4,2,1,60,0,0
130255,-95.2380952380952,4,2,1,70,0,1
132704,-95.2380952380952,4,2,2,70,0,1
133010,-95.2380952380952,4,2,1,70,0,1
137755,-95.2380952380952,4,2,2,70,0,1
138061,-95.2380952380952,4,2,1,70,0,1
142500,-95.2380952380952,4,2,2,70,0,1
142806,-95.2380952380952,4,2,1,70,0,1
146174,-95.2380952380952,4,2,2,70,0,1
146480,-95.2380952380952,4,2,1,70,0,1
152296,-95.2380952380952,4,2,2,70,0,1
152602,-95.2380952380952,4,2,1,70,0,1
157347,-95.2380952380952,4,2,2,70,0,1
157500,-95.2380952380952,4,2,1,70,0,1
162092,-95.2380952380952,4,2,2,70,0,1
162398,-95.2380952380952,4,2,1,70,0,1
165766,-95.2380952380952,4,2,2,70,0,1
166072,-95.2380952380952,4,2,1,70,0,1
166990,-95.2380952380952,4,2,2,70,0,1
167296,-95.2380952380952,4,2,1,70,0,1
169592,-95.2380952380952,4,2,1,60,0,0
171429,-100,4,2,1,60,0,0
171735,-83.3333333333333,4,2,22,60,0,0
171964,-83.3333333333333,4,2,22,5,0,0
172041,-83.3333333333333,4,2,1,60,0,0
174413,-83.3333333333333,4,2,1,5,0,0
174490,-83.3333333333333,4,2,1,60,0,0
176327,-100,4,2,1,60,0,0
176633,-83.3333333333333,4,2,22,60,0,0
176862,-83.3333333333333,4,2,22,5,0,0
176939,-83.3333333333333,4,2,1,60,0,0
177857,-100,4,2,1,60,0,0
178086,-100,4,2,1,5,0,0
178164,-100,4,2,1,60,0,0
178240,-100,4,2,1,5,0,0
178776,-100,4,2,1,60,0,0
179158,-100,4,2,1,5,0,0
179235,-100,4,2,1,60,0,0
180000,-100,4,2,2,60,0,0
180230,-100,4,2,1,60,0,0
180459,-100,4,2,2,60,0,0
180765,-100,4,2,1,60,0,0
181225,-100,4,2,2,60,0,0
181531,-100,4,2,1,60,0,0
181684,-100,4,2,2,60,0,0
181913,-100,4,2,2,5,0,0
181990,-100,4,2,1,60,0,0
182449,-100,4,2,2,60,0,0
182755,-100,4,2,1,60,0,0
183061,-100,4,2,2,60,0,0
183368,-100,4,2,1,60,0,0
183674,-100,4,2,2,60,0,0
183980,-100,4,2,1,60,0,0
184898,-100,4,2,2,60,0,0
185204,-100,4,2,1,60,0,0
185510,-83.3333333333333,4,2,2,60,0,0
185817,-83.3333333333333,4,2,1,60,0,0
186123,-83.3333333333333,4,2,2,60,0,0
186429,-83.3333333333333,4,2,1,60,0,0
186582,-100,4,2,2,60,0,0
186811,-100,4,2,2,5,0,0
186888,-100,4,2,2,60,0,0
187041,-100,4,2,1,60,0,0
187347,-100,4,2,2,60,0,0
187653,-100,4,2,1,60,0,0
187959,-90.9090909090909,4,2,2,60,0,0
188266,-90.9090909090909,4,2,1,60,0,0
189031,-100,4,2,1,60,0,0
189796,-100,4,2,2,60,0,0
190102,-100,4,2,1,60,0,0
190408,-100,4,2,2,60,0,0
190715,-100,4,2,1,60,0,0
191021,-100,4,2,2,60,0,0
191327,-100,4,2,1,60,0,0
191480,-100,4,2,2,60,0,0
191939,-100,4,2,1,60,0,0
192245,-100,4,2,2,60,0,0
192551,-100,4,2,1,60,0,0
192857,-100,4,2,2,60,0,0
193164,-100,4,2,1,60,0,0
193470,-100,4,2,2,60,0,0
193776,-100,4,2,1,60,0,0
194694,-100,4,2,2,60,0,0
195459,-100,4,2,1,60,0,0
195919,-100,4,2,2,60,0,0
196225,-100,4,2,1,60,0,0
198290,-100,4,2,1,5,0,0
198368,-100,4,2,1,60,0,0
198827,-90.9090909090909,4,2,1,60,0,0
199286,-100,4,2,1,60,0,0
201276,-100,4,2,2,60,0,0
201582,-100,4,2,1,60,0,0
203725,-100,4,2,2,60,0,0
204031,-100,4,2,1,60,0,0
207551,-100,4,2,2,60,0,0
207704,-100,4,2,1,60,0,0
208776,-100,4,2,2,60,0,0
209005,-100,4,2,2,5,0,0
209082,-100,4,2,1,60,0,0
211072,-100,4,2,1,50,0,0
220868,-200,4,2,2,50,0,0
222245,-250,4,2,2,50,0,0
223317,-200,4,2,1,50,0,0
225229,-200,4,2,1,5,0,0
225306,-200,4,2,1,60,0,0
226454,-200,4,2,1,5,0,0
226531,-200,4,2,1,60,0,0
226913,-200,4,2,1,5,0,0
226990,-200,4,2,1,60,0,0
227678,-200,4,2,1,5,0,0
227755,-200,4,2,1,60,0,0
228215,-200,4,2,2,60,0,0
228903,-200,4,2,2,5,0,0
228980,-200,4,2,1,60,0,0
229439,-200,4,2,2,60,0,0
230204,-200,4,2,1,60,0,0
230664,-100,4,2,2,60,0,0
230893,-100,4,2,2,5,0,0
230970,-100,4,2,2,60,0,0
231123,-100,4,2,1,60,0,0
232117,-100,4,2,1,5,0,0
232194,-100,4,2,1,60,0,0
233113,-95.2380952380952,4,2,1,70,0,1
235561,-95.2380952380952,4,2,2,70,0,1
235867,-95.2380952380952,4,2,1,70,0,1
240613,-95.2380952380952,4,2,2,70,0,1
240919,-95.2380952380952,4,2,1,70,0,1
245357,-95.2380952380952,4,2,2,70,0,1
245663,-95.2380952380952,4,2,1,70,0,1
249031,-95.2380952380952,4,2,2,70,0,1
249337,-95.2380952380952,4,2,1,70,0,1
250255,-95.2380952380952,4,2,2,70,0,1
250561,-95.2380952380952,4,2,1,70,0,1
251939,-95.2380952380952,4,2,2,70,0,1
252168,-95.2380952380952,4,2,2,5,0,1
252245,-95.2380952380952,4,2,1,70,0,1
255153,-95.2380952380952,4,2,2,70,0,1
255459,-95.2380952380952,4,2,1,70,0,1
260051,-95.2380952380952,4,2,2,70,0,1
260510,-95.2380952380952,4,2,1,70,0,1
264949,-95.2380952380952,4,2,2,70,0,1
265255,-95.2380952380952,4,2,1,70,0,1
268623,-95.2380952380952,4,2,2,70,0,1
268929,-95.2380952380952,4,2,1,70,0,1
269847,-95.2380952380952,4,2,2,70,0,1
270153,-95.2380952380952,4,2,1,70,0,1
272296,-95.2380952380952,4,2,1,60,0,0
274898,-95.2380952380952,4,2,2,60,0,0
275204,-95.2380952380952,4,2,1,60,0,0
284694,-95.2380952380952,4,2,2,60,0,0
285000,-95.2380952380952,4,2,1,60,0,0
288215,-95.2380952380952,4,2,2,60,0,0
288521,-95.2380952380952,4,2,1,60,0,0
291888,-90.9090909090909,4,2,1,70,0,0
294490,-90.9090909090909,4,2,2,70,0,0
294796,-90.9090909090909,4,2,1,70,0,0
299235,-90.9090909090909,4,2,2,70,0,0
299541,-90.9090909090909,4,2,1,70,0,0
302066,-90.9090909090909,4,2,1,5,0,0
302143,-90.9090909090909,4,2,1,70,0,0
304286,-90.9090909090909,4,2,2,70,0,0
304592,-90.9090909090909,4,2,1,70,0,0
306658,-90.9090909090909,4,2,1,5,0,0
306735,-90.9090909090909,4,2,1,70,0,0
307806,-90.9090909090909,4,2,2,70,0,0
308112,-90.9090909090909,4,2,1,70,0,0
311480,-90.9090909090909,4,2,1,60,0,0
320740,-90.9090909090909,4,2,1,20,0,0

[Colours]
Combo1 : 128,255,255
Combo2 : 227,155,155
Combo3 : 160,222,222
Combo4 : 255,181,106

[HitObjects]
119,249,613,5,8,2:0:0:0:
339,190,766,1,8,2:0:0:0:
364,202,1072,5,8,2:0:0:0:
156,115,1225,1,8,2:0:0:0:
127,99,1531,5,8,2:0:0:0:
251,278,1684,1,8,2:0:0:0:
244,308,1990,5,8,2:0:0:0:
313,76,2143,1,8,2:0:0:0:
313,76,2449,6,0,L|324:37,3,40.5,2|2|2|2,2:0|2:0|2:0|2:0,2:0:0:0:
258,136,2755,2,0,P|245:173|315:143,1,162,4|0,2:0|2:0,2:0:0:0:
313,76,3061,5,8,2:0:0:0:
117,176,3215,1,8,2:0:0:0:
88,189,3521,5,8,2:0:0:0:
302,280,3674,1,8,2:0:0:0:
331,300,3980,5,8,2:0:0:0:
194,49,4133,1,8,2:0:0:0:
194,49,4439,5,2,2:0:0:0:
265,114,4592,1,2,2:0:0:0:
204,179,4745,1,2,2:0:0:0:
293,207,4898,2,0,P|340:192|388:184,1,81.0000000000001,2|8,2:0|2:1,2:0:0:0:
486,109,5204,2,0,P|421:109|350:34,1,148.5,14|0,2:0|2:0,2:0:0:0:
346,25,5510,5,8,2:1:0:0:
346,25,5664,1,8,2:1:0:0:
265,114,5817,2,0,P|258:68|248:35,2,67.5000000000002,8|0|2,2:0|2:0|2:0,2:0:0:0:
317,197,6276,2,0,P|262:205|224:218,1,67.5000000000002,2|8,2:0|2:0,2:0:0:0:
150,256,6582,1,0,2:0:0:0:
73,116,6735,6,0,P|82:160|87:194,1,67.5000000000002,8|8,2:1|2:1,2:0:0:0:
195,80,7041,2,0,P|186:124|181:158,1,67.5000000000002,8|0,2:0|2:0,2:0:0:0:
310,82,7347,2,0,P|301:38|296:4,1,67.5000000000002,2|2,2:0|2:0,2:0:0:0:
357,166,7653,2,0,P|308:173|268:191,1,67.5000000000002,8|0,2:0|2:0,2:0:0:0:
418,87,7959,6,0,P|453:123|447:219,1,135,8|8,2:1|2:0,2:0:0:0:
509,318,8419,2,0,P|463:303|356:282,1,135,0|0,2:0|2:0,2:0:0:0:
285,205,8878,2,0,P|326:195|363:186,1,67.5000000000002,8|0,2:0|2:0,2:0:0:0:
248,312,9184,5,10,2:0:0:0:
248,312,9337,1,10,2:0:0:0:
161,216,9490,2,0,P|171:171|175:139,1,67.5000000000002,8|0,2:0|2:0,2:0:0:0:
19,267,9796,5,10,2:0:0:0:
19,267,9949,1,10,2:0:0:0:
87,346,10102,2,0,P|121:331|166:321,1,67.5000000000002,8|0,2:0|2:0,2:0:0:0:
326,349,10408,5,8,2:1:0:0:
326,349,10561,1,8,2:1:0:0:
255,277,10715,2,0,P|240:315|234:350,2,67.5000000000002,8|0|2,2:0|2:0|2:0,2:0:0:0:
312,178,11174,1,2,2:0:0:0:
426,278,11327,2,0,P|386:272|351:262,1,67.5000000000002,8|0,2:0|2:0,2:0:0:0:
421,124,11633,6,0,P|409:167|403:196,1,67.5000000000002,8|8,2:1|2:1,2:0:0:0:
291,77,11939,2,0,P|303:120|309:149,1,67.5000000000002,8|0,2:0|2:0,2:0:0:0:
141,142,12245,2,0,P|193:134|222:127,1,67.5000000000002,2|2,2:0|2:0,2:0:0:0:
146,35,12551,2,0,P|94:27|65:20,1,67.5000000000002,8|0,2:0|2:0,2:0:0:0:
323,0,12857,6,0,P|305:54|291:153,1,135,8|8,2:1|2:0,2:0:0:0:
120,243,13317,2,0,P|189:229|240:285,1,135,0|0,2:0|2:0,2:0:0:0:
402,252,13776,2,0,P|370:245|330:230,1,67.5000000000002,8|0,2:0|2:0,2:0:0:0:
210,152,14082,5,10,2:0:0:0:
210,152,14235,1,10,2:0:0:0:
250,292,14388,2,0,P|259:330|264:364,1,67.5000000000002,8|0,2:0|2:0,2:0:0:0:
98,229,14694,5,10,2:0:0:0:
98,229,14847,1,10,2:0:0:0:
55,371,15000,2,0,P|95:357|134:352,1,67.5000000000002,8|0,2:0|2:0,2:0:0:0:
250,292,15306,6,0,P|255:248|261:214,1,67.5000000000002,8|8,2:0|2:1,2:0:0:0:
214,139,15613,1,8,2:0:0:0:
347,194,15766,2,0,P|335:147|328:60,1,135,0|0,2:0|2:0,2:0:0:0:
447,180,16225,2,0,P|442:218|431:257,1,67.5000000000002,8|0,2:0|2:0,2:0:0:0:
292,313,16531,6,0,P|333:323|372:340,1,67.5000000000002,8|8,2:1|2:1,2:0:0:0:
186,323,16837,2,0,P|198:284|207:240,1,67.5000000000002,8|0,2:0|2:0,2:0:0:0:
267,149,17143,2,0,P|274:181|284:214,1,67.5000000000002,2|2,2:0|2:0,2:0:0:0:
275,62,17449,2,0,P|234:72|195:89,1,67.5000000000002,8|0,2:0|2:0,2:0:0:0:
54,33,17755,6,0,P|67:82|74:115,1,67.5000000000002,10|10,2:0|2:0,2:0:0:0:
120,226,18061,1,8,2:0:0:0:
120,226,18368,6,0,P|107:275|100:308,1,67.5000000000002,2|2,2:0|2:0,2:0:0:0:
163,111,18674,1,8,2:0:0:0:
163,111,18980,6,0,P|203:120|253:136,1,67.5000000000002,8|8,2:1|2:1,2:0:0:0:
366,170,19286,2,0,P|305:184|251:216,1,101.25,10|0,2:0|2:0,2:0:0:0:
200,248,19592,5,10,2:0:0:0:
432,352,19745,1,10,2:0:0:0:
432,352,20051,6,0,P|442:273|466:143,1,180,12|8,2:1|2:1,2:0:0:0:
328,44,20510,2,0,P|340:98|347:146,1,90,8|0,2:0|2:0,2:0:0:0:
242,112,20817,1,8,2:1:0:0:
406,275,20970,2,0,P|413:230|423:186,1,90,8|8,2:1|2:0,2:0:0:0:
192,365,21276,6,0,P|147:384|56:301,1,180,14|8,2:0|2:1,2:0:0:0:
196,142,21735,2,0,P|211:208|213:236,1,90,8|0,2:0|2:0,2:0:0:0:
108,206,22041,1,8,2:1:0:0:
294,159,22194,2,0,P|345:149|390:143,1,90,8|8,2:1|2:0,2:0:0:0:
509,273,22500,6,0,P|421:250|348:302,1,180,12|8,2:1|2:1,2:0:0:0:
248,381,22959,2,0,P|243:322|237:281,1,90,8|0,2:0|2:0,2:0:0:0:
137,146,23266,1,8,2:1:0:0:
289,228,23419,1,8,2:1:0:0:
373,40,23572,1,8,2:0:0:0:
239,139,23725,6,0,P|153:116|49:96,1,180,14|8,2:0|2:1,2:0:0:0:
8,248,24184,2,0,P|84:227|118:222,1,90,8|8,2:0|2:1,2:0:0:0:
254,9,24490,5,10,2:0:0:0:
332,146,24643,1,8,2:3:0:0:
209,241,24796,1,4,2:3:0:0:
160,84,24949,1,8,2:1:0:0:
323,257,25102,6,0,B|368:235|411:247|394:258|444:273|499:248,1,162,14|0,2:0|2:0,2:0:0:0:
442,167,25561,1,8,2:1:0:0:
288,363,25715,2,0,P|289:312|259:179,1,162,8|0,2:0|2:1,2:0:0:0:
161,298,26174,1,8,2:1:0:0:
269,120,26327,6,0,P|326:91|337:155,1,148.5,8|0,2:0|2:0,2:0:0:0:
268,203,26633,2,0,P|206:188|115:170,1,148.5,8|0,2:1|2:0,2:0:0:0:
46,152,26939,1,8,2:0:0:0:
243,5,27092,1,8,2:1:0:0:
243,5,27398,6,0,B|229:67|229:67|249:107|249:107|237:177,1,162,12|8,2:1|2:1,2:0:0:0:
118,82,27857,2,0,P|77:65|37:53,1,81.0000000000001,8|0,2:1|2:0,2:0:0:0:
16,246,28164,2,0,P|66:222|153:199,1,121.5,8|0,2:0|2:0,2:0:0:0:
159,190,28470,1,0,2:0:0:0:
259,289,28623,1,8,2:1:0:0:
375,116,28776,6,0,P|386:67|398:27,1,81.0000000000001,8|0,2:0|2:0,2:0:0:0:
484,226,29082,2,0,P|431:210|394:203,1,81.0000000000001,8|0,2:1|2:0,2:0:0:0:
309,186,29388,1,8,2:0:0:0:
404,373,29541,2,0,P|415:324|427:284,1,81.0000000000001,8|0,2:1|2:0,2:0:0:0:
464,42,29847,6,0,B|421:32|376:54|397:66|347:86|304:76,1,162,14|8,2:0|2:0,2:0:0:0:
142,111,30306,2,0,P|137:53|131:20,1,81.0000000000001,8|0,2:1|2:0,2:0:0:0:
70,173,30613,2,0,P|143:154|256:142,1,162,14|0,2:0|2:0,2:0:0:0:
308,63,31072,1,8,2:1:0:0:
238,223,31225,6,0,P|232:162|224:126,1,81.0000000000001,8|0,2:0|2:0,2:0:0:0:
378,212,31531,2,0,P|371:251|368:292,1,81.0000000000001,8|0,2:1|2:0,2:0:0:0:
462,262,31837,1,8,2:0:0:0:
297,352,31990,2,0,P|256:340|172:326,1,121.5,8|0,2:1|2:0,2:0:0:0:
97,337,32296,6,0,P|59:318|77:192,1,162,12|8,2:1|2:0,2:0:0:0:
126,125,32755,2,0,P|81:116|41:106,1,81.0000000000001,8|0,2:1|2:0,2:1:0:0:
247,237,33061,2,0,P|298:223|424:213,1,162,14|0,2:0|2:0,2:0:0:0:
382,112,33521,1,8,2:1:0:0:
483,281,33674,6,0,P|490:224|500:177,1,81.0000000000001,8|8,2:0|2:1,2:0:0:0:
314,55,33980,2,0,B|290:88|290:88|292:149,1,81.0000000000001,8|8,2:3|2:1,2:0:0:0:
297,165,34209,5,8,2:1:0:0:
297,165,34286,1,8,2:3:0:0:
146,276,34439,1,4,2:3:0:0:
80,95,34592,1,8,2:1:0:0:
146,290,34745,6,0,P|166:226|179:105,1,162,14|8,2:0|2:1,2:0:0:0:
23,187,35204,2,0,P|26:235|37:267,1,81.0000000000001,8|0,2:1|2:0,2:0:0:0:
80,95,35510,2,0,L|-25:69,1,81.0000000000001,8|0,2:0|2:0,2:0:0:0:
208,184,35817,2,0,P|258:168|340:164,1,121.5,0|0,2:0|2:0,2:0:0:0:
416,142,36123,6,0,P|432:101|351:96,1,148.5,8|0,2:0|2:0,2:0:0:0:
337,183,36429,2,0,P|355:248|366:335,1,148.5,8|0,2:1|2:0,2:0:0:0:
369,361,36735,1,10,2:0:0:0:
194,208,36888,1,8,2:1:0:0:
194,208,37194,6,0,B|245:200|286:224|286:224|327:208|346:164,1,162,12|8,2:1|2:1,2:0:0:0:
258,26,37653,2,0,P|259:68|265:113,1,81.0000000000001,8|0,2:1|2:0,2:0:0:0:
96,254,37959,2,0,P|108:203|114:119,1,121.5,8|0,2:0|2:0,2:0:0:0:
122,106,38266,2,0,L|26:87,1,81.0000000000001,0|8,2:0|2:1,2:0:0:0:
11,84,38495,5,8,2:1:0:0:
11,84,38572,1,8,2:0:0:0:
199,194,38725,1,8,2:1:0:0:
89,267,38878,1,8,2:0:0:0:
217,71,39031,2,0,L|226:136,1,40.5,8|8,2:1|2:1,2:0:0:0:
327,309,39184,5,8,2:0:0:0:
399,158,39337,1,8,2:0:0:0:
212,54,39490,1,4,2:3:0:0:
216,300,39643,6,0,P|281:283|411:267,1,180,12|8,2:1|2:1,2:0:0:0:
318,64,40102,2,0,P|297:121|298:161,1,90,8|0,2:0|2:0,2:0:0:0:
87,302,40408,1,8,2:1:0:0:
155,115,40561,1,8,2:1:0:0:
225,324,40715,1,8,2:0:0:0:
30,222,40868,6,0,B|93:203|93:203|144:219|144:219|214:200,1,180,14|8,2:0|2:1,2:0:0:0:
429,293,41327,2,0,P|372:289|333:267,1,90,8|0,2:0|2:0,2:0:0:0:
310,115,41633,1,8,2:1:0:0:
241,304,41786,1,8,2:1:0:0:
426,171,41939,1,8,2:0:0:0:
194,43,42092,6,0,P|208:115|222:226,1,180,12|8,2:1|2:1,2:0:0:0:
27,194,42551,2,0,P|73:174|119:169,1,90,8|0,2:0|2:0,2:0:0:0:
246,156,42857,1,8,2:1:0:0:
121,88,43010,1,8,2:1:0:0:
93,253,43164,1,8,2:0:0:0:
222,66,43317,1,0,2:0:0:0:
272,282,43470,6,0,P|257:334|250:375,1,90,14|0,2:0|2:0,2:0:0:0:
422,221,43776,2,0,P|407:169|400:128,1,90,8|0,2:0|2:0,2:0:0:0:
457,340,44082,2,0,P|397:321|357:312,1,90,8|8,2:1|2:1,2:0:0:0:
207,187,44388,2,0,P|251:176|294:162,1,90,8|8,2:0|2:1,2:0:0:0:
57,337,44694,5,12,2:0:0:0:
203,166,44847,1,8,2:1:0:0:
254,371,45000,1,8,2:0:0:0:
108,108,45153,1,8,2:1:0:0:
342,264,45306,5,8,2:0:0:0:
378,289,45383,1,8,2:0:0:0:
422,289,45459,1,8,2:0:0:0:
457,262,45536,1,8,2:0:0:0:
470,220,45613,1,8,2:0:0:0:
456,178,45689,1,8,2:0:0:0:
420,153,45766,2,0,L|411:212,1,45,8|8,2:0|2:0,2:0:0:0:
406,378,45919,5,14,2:0:0:0:
406,378,46531,5,8,2:0:0:0:
160,276,46684,1,8,2:0:0:0:
160,276,46990,6,0,P|176:228|188:78,1,189,12|8,2:1|2:1,2:0:0:0:
319,231,47449,2,0,P|371:248|411:254,1,94.5,8|0,2:0|2:0,2:0:0:0:
498,11,47755,1,8,2:1:0:0:
383,162,47908,1,8,2:1:0:0:
265,0,48061,2,0,P|279:63|283:99,1,94.5,8|0,2:0|2:0,2:0:0:0:
69,93,48368,6,0,P|128:81|166:75,1,94.5,8|0,2:1|2:0,2:0:0:0:
302,234,48674,2,0,P|243:246|205:252,1,94.5,8|0,2:0|2:0,2:0:0:0:
231,158,48980,1,8,2:1:0:0:
109,379,49133,1,8,2:1:0:0:
39,202,49286,1,8,2:0:0:0:
264,340,49439,6,0,B|308:320|364:346|342:356|391:383|451:363,1,189,14|8,2:0|2:1,2:0:0:0:
231,158,49898,2,0,P|292:151|331:136,1,94.5,8|0,2:0|2:0,2:0:0:0:
463,67,50204,2,0,P|448:122|440:169,1,94.5,8|8,2:1|2:1,2:0:0:0:
424,261,50510,1,8,2:0:0:0:
264,71,50664,1,0,2:0:0:0:
317,292,50817,6,0,P|328:344|335:388,1,94.5,8|0,2:1|2:0,2:0:0:0:
119,312,51123,2,0,P|130:260|137:216,1,94.5,8|0,2:0|2:0,2:0:0:0:
72,80,51429,1,8,2:1:0:0:
228,194,51582,1,8,2:1:0:0:
19,306,51735,1,8,2:0:0:0:
238,210,51888,6,0,P|302:193|424:178,1,189,12|0,2:1|2:0,2:0:0:0:
278,305,52347,1,8,2:0:0:0:
414,91,52500,2,0,P|498:121|498:223,1,189,0|8,2:1|2:1,2:0:0:0:
380,364,52959,2,0,P|388:292|392:259,1,94.5,8|0,2:0|2:0,2:0:0:0:
202,45,53266,6,0,P|168:87|162:130,1,94.5,8|0,2:1|2:0,2:0:0:0:
327,200,53572,2,0,P|380:186|422:179,1,94.5,8|0,2:0|2:0,2:0:0:0:
140,312,53878,2,0,P|87:298|45:291,1,94.5,8|8,2:1|2:1,2:0:0:0:
265,384,54184,2,0,P|261:312|257:280,1,94.5,8|0,2:0|2:0,2:0:0:0:
117,66,54490,6,0,P|69:54|21:47,1,94.5,14|0,2:0|2:0,2:0:0:0:
146,192,54796,1,8,2:0:0:0:
298,0,54949,2,0,P|277:72|258:194,1,189,0|8,2:0|2:1,2:0:0:0:
398,74,55408,1,8,2:0:0:0:
398,74,55561,1,0,2:0:0:0:
509,206,55715,6,0,P|458:192|411:185,1,94.5,8|8,2:1|2:1,2:0:0:0:
262,274,56021,1,12,2:0:0:0:
428,377,56174,1,8,2:1:0:0:
428,377,56250,1,8,2:1:0:0:
428,377,56327,5,8,2:0:0:0:
243,263,56480,1,8,2:3:0:0:
476,116,56633,1,4,2:3:0:0:
357,273,56786,6,0,P|349:214|326:79,1,189,12|8,2:1|2:1,2:0:0:0:
506,3,57245,2,0,P|488:60|480:100,1,94.5,8|0,2:0|2:0,2:0:0:0:
314,196,57551,2,0,P|263:186|205:176,1,94.5,8|8,2:1|2:1,2:0:0:0:
105,94,57857,1,8,2:0:0:0:
213,298,58010,1,0,2:0:0:0:
0,244,58164,6,0,P|51:234|109:224,1,94.5,8|0,2:1|2:0,2:0:0:0:
186,44,58470,2,0,P|145:13|89:1,1,94.5,8|0,2:0|2:0,2:0:0:0:
377,261,58776,1,8,2:1:0:0:
282,59,58929,1,8,2:1:0:0:
196,313,59082,1,8,2:0:0:0:
431,162,59235,6,0,P|476:189|476:318,1,189,14|8,2:0|2:1,2:0:0:0:
209,304,59694,2,0,P|259:288|317:281,1,94.5,8|0,2:0|2:0,2:0:0:0:
112,105,60000,1,8,2:1:0:0:
269,201,60153,1,8,2:1:0:0:
269,0,60306,2,0,P|251:57|242:96,1,94.5,8|0,2:0|2:0,2:0:0:0:
477,94,60613,6,0,P|415:74|376:68,1,94.5,8|0,2:1|2:0,2:0:0:0:
459,261,60919,1,8,2:0:0:0:
331,136,61072,1,8,2:1:0:0:
331,136,61148,1,8,2:1:0:0:
331,136,61225,5,8,2:1:0:0:
233,366,61378,1,8,2:3:0:0:
384,221,61531,1,8,2:1:0:0:
116,117,61684,6,0,P|127:187|141:311,1,189,12|8,2:1|2:1,2:0:0:0:
48,38,62143,2,0,P|111:21|151:15,1,94.5,8|0,2:0|2:0,2:0:0:0:
237,204,62449,1,8,2:1:0:0:
366,32,62602,1,8,2:1:0:0:
410,275,62755,1,8,2:0:0:0:
214,89,62908,6,0,B|152:107|152:107|114:153|114:153|41:170,1,189,14|8,2:0|2:1,2:0:0:0:
251,316,63368,2,0,P|241:253|232:214,1,94.5,8|0,2:0|2:0,2:0:0:0:
126,302,63674,1,8,2:1:0:0:
305,136,63827,1,8,2:1:0:0:
385,381,63980,1,8,2:0:0:0:
512,106,64133,6,0,B|459:156|459:156|480:275,1,189,12|8,2:1|2:1,2:0:0:0:
393,61,64592,2,0,P|346:45|296:36,1,94.5,8|0,2:0|2:0,2:0:0:0:
117,250,64898,1,8,2:1:0:0:
319,144,65051,1,8,2:1:0:0:
79,74,65204,1,8,2:0:0:0:
223,267,65357,2,0,L|210:323,1,47.25,8|8,2:1|2:1,2:0:0:0:
210,27,65510,5,8,2:0:0:0:
330,273,65664,1,8,2:1:0:0:
8,256,65817,1,12,2:0:0:0:
223,130,65970,1,8,2:1:0:0:
150,384,66123,5,8,2:0:0:0:
62,74,66276,1,8,2:0:0:0:
62,74,66582,6,0,B|121:87|121:87|159:137|159:137|226:151,1,189,12|8,2:1|2:1,2:0:0:0:
376,0,67041,2,0,P|331:5|271:39,1,94.5,8|0,2:0|2:0,2:0:0:0:
512,220,67347,1,8,2:1:0:0:
360,89,67500,1,8,2:1:0:0:
415,274,67653,2,0,P|428:336|433:373,1,94.5,8|0,2:0|2:0,2:0:0:0:
215,217,67959,6,0,P|273:199|320:190,1,94.5,8|0,2:1|2:0,2:0:0:0:
93,322,68266,2,0,P|81:268|66:215,1,94.5,8|0,2:0|2:0,2:0:0:0:
191,94,68572,1,8,2:1:0:0:
8,3,68725,1,8,2:1:0:0:
70,230,68878,1,8,2:0:0:0:
274,11,69031,6,0,B|334:11|370:49|346:65|392:95|454:100,1,189,12|8,2:0|2:1,2:0:0:0:
282,242,69490,2,0,P|276:183|260:128,1,94.5,8|0,2:0|2:0,2:0:0:0:
462,291,69796,2,0,P|451:336|447:384,1,94.5,8|8,2:1|2:1,2:0:0:0:
363,78,70102,1,8,2:0:0:0:
512,192,70255,1,0,2:0:0:0:
284,263,70408,6,0,P|331:248|392:237,1,94.5,8|0,2:1|2:0,2:0:0:0:
157,382,70715,2,0,P|110:372|65:358,1,94.5,8|0,2:0|2:0,2:0:0:0:
242,115,71021,1,8,2:1:0:0:
135,293,71174,1,8,2:1:0:0:
67,73,71327,1,8,2:0:0:0:
284,263,71480,6,0,P|357:248|477:237,1,189,14|8,2:0|2:1,2:0:0:0:
367,99,71939,1,8,2:0:0:0:
265,350,72092,2,0,P|256:283|225:162,1,189,0|8,2:0|2:1,2:0:0:0:
398,384,72551,2,0,P|407:331|418:288,1,94.5,8|0,2:0|2:0,2:0:0:0:
282,81,72857,6,0,P|226:74|184:66,1,94.5,8|0,2:1|2:0,2:0:0:0:
0,177,73164,2,0,P|56:184|98:192,1,94.5,8|0,2:0|2:0,2:0:0:0:
238,277,73470,2,0,P|228:221|218:174,1,94.5,8|8,2:1|2:1,2:0:0:0:
398,26,73776,2,0,P|388:72|380:118,1,94.5,8|0,2:0|2:0,2:0:0:0:
503,350,74082,6,0,P|461:322|386:317,1,94.5,14|0,2:0|2:0,2:0:0:0:
297,143,74388,1,8,2:0:0:0:
203,357,74541,2,0,B|255:309|323:321|323:321|335:368|372:390,1,189,0|8,2:0|2:1,2:0:0:0:
127,212,75000,1,8,2:0:0:0:
127,212,75153,1,8,2:1:0:0:
304,73,75306,5,8,2:0:0:0:
259,302,75459,1,8,2:1:0:0:
12,193,75613,2,0,P|58:198|105:208,1,94.5,12|0,2:0|2:0,2:0:0:0:
255,288,75919,1,8,2:1:0:0:
207,98,76072,5,8,2:0:0:0:
107,317,76225,1,8,2:0:0:0:
45,37,76378,1,8,2:0:0:0:
297,204,76531,6,0,P|370:182|492:168,2,189,12|8|8,2:1|2:0|2:1,2:0:0:0:
402,322,77296,1,8,2:1:0:0:
191,206,77449,1,8,2:0:0:0:
281,384,77602,1,0,2:0:0:0:
360,157,77755,6,0,P|369:112|381:63,1,94.5,8|0,2:1|2:0,2:0:0:0:
138,130,78061,2,0,P|104:177|101:219,1,94.5,8|0,2:0|2:0,2:0:0:0:
212,27,78368,1,8,2:1:0:0:
293,239,78521,1,8,2:1:0:0:
80,58,78674,1,8,2:0:0:0:
23,342,78827,6,0,P|104:323|252:308,1,189,14|8,2:0|2:1,2:0:0:0:
373,186,79286,2,0,P|339:150|289:137,1,94.5,8|0,2:0|2:0,2:0:0:0:
345,303,79592,1,8,2:1:0:0:
504,145,79745,1,8,2:1:0:0:
448,355,79898,2,0,P|454:300|463:258,1,94.5,8|0,2:0|2:0,2:0:0:0:
221,241,80204,6,0,L|92:217,1,94.5,8|8,2:1|2:1,2:0:0:0:
2,55,80510,1,8,2:0:0:0:
159,140,80664,1,8,2:1:0:0:
159,140,80740,1,8,2:1:0:0:
159,140,80817,1,8,2:3:0:0:
28,233,80970,1,4,2:3:0:0:
263,51,81123,1,4,2:3:0:0:
199,347,81276,6,0,P|192:277|162:161,1,189,12|8,2:1|2:1,2:0:0:0:
365,22,81735,2,0,P|346:81|339:123,1,94.5,8|0,2:0|2:0,2:0:0:0:
476,279,82041,1,8,2:1:0:0:
273,201,82194,1,8,2:1:0:0:
459,88,82347,1,8,2:0:0:0:
417,352,82500,6,0,B|358:338|358:338|296:360|296:360|226:343,1,189,14|8,2:0|2:1,2:0:0:0:
303,113,82959,2,0,P|362:157|369:195,1,94.5,8|0,2:0|2:0,2:0:0:0:
144,228,83266,1,8,2:1:0:0:
195,27,83419,1,8,2:1:0:0:
279,281,83572,1,8,2:0:0:0:
59,164,83725,6,0,P|-1:204|16:331,1,189,14|8,2:0|2:1,2:0:0:0:
252,160,84184,2,0,P|240:97|221:58,1,94.5,8|0,2:0|2:0,2:0:0:0:
145,288,84490,1,8,2:1:0:0:
391,188,84643,1,8,2:1:0:0:
147,124,84796,1,8,2:3:0:0:
266,384,84949,1,4,2:3:0:0:
440,65,85102,5,10,2:0:0:0:
363,356,85255,1,10,2:0:0:0:
147,124,85715,5,10,2:0:0:0:
428,277,85868,1,10,2:0:0:0:
92,369,86327,5,8,2:0:0:0:
250,252,86480,1,8,2:0:0:0:
274,263,86786,5,8,2:0:0:0:
91,187,86939,1,8,2:0:0:0:
65,178,87245,5,8,2:0:0:0:
235,73,87398,1,8,2:0:0:0:
235,73,87704,6,0,P|284:63|324:59,2,81.0000000000001,0|0|0,2:0|2:0|2:0,2:0:0:0:
429,118,88164,2,0,P|435:58|445:9,1,81.0000000000001,0|8,2:0|2:1,2:0:0:0:
500,169,88470,2,0,P|448:151|317:143,1,148.5,14|0,2:0|2:0,2:0:0:0:
317,142,88776,5,12,2:1:0:0:
97,336,89847,2,0,L|91:286,2,40.5,2|2|2,2:0|2:0|2:0,2:0:0:0:
469,217,90613,1,0,2:0:0:0:
435,351,90766,1,8,2:1:0:0:
316,266,90919,2,0,P|247:255|168:246,1,121.5,12|0,2:0|2:0,2:0:0:0:
118,239,91225,5,12,2:0:0:0:
118,239,91378,1,8,2:1:0:0:
11,377,91531,2,0,P|62:363|196:344,1,162,8|0,2:0|2:0,2:0:0:0:
24,264,91990,1,0,2:0:0:0:
134,159,92143,2,0,P|121:215|115:252,1,81.0000000000001,10|0,2:0|2:0,2:0:0:0:
325,100,92449,5,10,2:0:0:0:
325,100,92602,1,10,2:0:0:0:
350,213,92755,2,0,P|293:200|254:194,1,81.0000000000001,8|0,2:0|2:0,2:0:0:0:
511,114,93061,5,10,2:0:0:0:
511,114,93215,1,10,2:0:0:0:
446,271,93368,2,0,P|453:206|459:171,1,81.0000000000001,10|0,2:0|2:0,2:0:0:0:
331,352,93674,5,8,2:1:0:0:
331,352,93827,1,8,2:1:0:0:
205,257,93980,2,0,P|254:249|377:225,1,162,8|2,2:0|2:0,2:0:0:0:
364,227,94439,1,2,2:0:0:0:
243,83,94592,2,0,L|227:179,1,81.0000000000001,10|0,2:0|2:0,2:0:0:0:
197,384,94898,5,8,2:1:0:0:
197,384,95051,1,8,2:1:0:0:
74,267,95204,2,0,P|67:220|59:178,1,81.0000000000001,8|0,2:0|2:0,2:0:0:0:
56,154,95434,1,2,2:0:0:0:
56,154,95510,1,2,2:0:0:0:
201,204,95664,1,2,2:0:0:0:
160,36,95817,2,0,P|152:75|146:115,1,81.0000000000001,10|0,2:0|2:0,2:0:0:0:
365,98,96123,5,8,2:1:0:0:
365,98,96276,1,8,2:1:0:0:
437,206,96429,1,8,2:0:0:0:
314,241,96582,2,0,L|268:229,2,40.5,2|2|2,2:0|2:0|2:0,2:0:0:0:
478,318,96888,1,0,2:0:0:0:
441,191,97041,2,0,L|465:110,1,81.0000000000001,10|0,2:0|2:0,2:0:0:0:
375,364,97347,5,10,2:0:0:0:
375,364,97500,1,10,2:0:0:0:
229,326,97653,2,0,P|180:314|132:305,1,81.0000000000001,8|0,2:0|2:0,2:0:0:0:
184,169,97959,5,10,2:0:0:0:
184,169,98113,1,10,2:0:0:0:
314,241,98266,2,0,P|363:229|411:220,1,81.0000000000001,8|0,2:0|2:0,2:0:0:0:
141,78,98572,6,0,P|109:112|93:161,1,81.0000000000001,12|8,2:0|2:1,2:0:0:0:
205,297,98878,1,8,2:0:0:0:
0,273,99031,2,0,P|45:255|165:226,1,162,0|0,2:0|2:0,2:0:0:0:
309,213,99490,1,10,2:0:0:0:
253,104,99643,1,0,2:0:0:0:
392,243,99796,6,0,P|378:292|371:328,1,81.0000000000001,8|8,2:1|2:1,2:0:0:0:
512,180,100102,2,0,P|500:141|492:101,1,81.0000000000001,8|0,2:0|2:0,2:0:0:0:
326,27,100408,2,0,P|337:65|345:105,1,81.0000000000001,2|2,2:0|2:0,2:0:0:0:
207,259,100715,2,0,P|159:248|96:239,1,81.0000000000001,10|0,2:0|2:0,2:0:0:0:
253,156,101021,5,8,2:1:0:0:
253,156,101174,1,8,2:1:0:0:
122,47,101327,1,8,2:0:0:0:
69,158,101480,1,2,2:0:0:0:
69,158,101556,1,2,2:0:0:0:
69,158,101633,2,0,P|130:143|173:138,1,81.0000000000001,0|0,2:1|2:0,2:0:0:0:
335,227,101939,2,0,P|384:231|455:169,1,121.5,8|0,2:0|2:0,2:0:0:0:
477,123,102245,5,8,2:1:0:0:
477,123,102398,1,8,2:1:0:0:
349,68,102551,2,0,P|362:115|372:158,1,81.0000000000001,10|0,2:0|2:0,2:0:0:0:
275,353,102857,5,10,2:0:0:0:
83,139,103010,1,10,2:0:0:0:
83,139,103317,6,0,P|140:116|275:95,1,180,12|8,2:1|2:1,2:0:0:0:
82,260,103776,2,0,P|27:249|-7:232,1,90,8|0,2:0|2:0,2:0:0:0:
256,199,104082,1,8,2:1:0:0:
194,363,104235,2,0,P|185:310|175:260,1,90,8|8,2:1|2:0,2:0:0:0:
368,384,104541,6,0,P|399:336|537:354,1,180,14|8,2:0|2:1,2:0:0:0:
259,285,105000,2,0,P|212:273|148:264,1,90,8|0,2:0|2:0,2:0:0:0:
243,121,105306,1,8,2:1:0:0:
383,229,105459,2,0,P|430:217|494:208,1,90,8|8,2:1|2:0,2:0:0:0:
248,23,105766,6,0,P|269:98|291:207,1,180,14|8,2:0|2:1,2:0:0:0:
82,120,106225,2,0,P|120:90|180:87,1,90,8|0,2:0|2:0,2:0:0:0:
242,292,106531,1,8,2:1:0:0:
147,182,106684,1,8,2:1:0:0:
61,345,106837,1,8,2:0:0:0:
289,197,106990,6,0,B|334:210|369:252|369:252|412:229|468:231,1,180,12|8,2:1|2:3,2:0:0:0:
472,224,107373,1,8,2:3:0:0:
472,224,107449,1,8,2:3:0:0:
339,343,107602,1,4,2:3:0:0:
334,67,107755,5,8,2:0:0:0:
378,198,107908,1,4,2:3:0:0:
421,329,108061,1,4,2:3:0:0:
511,146,108215,1,8,2:1:0:0:
359,220,108368,6,0,P|306:202|184:188,1,162,12|0,2:1|2:0,2:0:0:0:
85,99,108827,1,8,2:1:0:0:
17,258,108980,2,0,B|67:222|117:214|117:214|141:253|179:268,1,162,8|0,2:0|2:0,2:0:0:0:
245,330,109439,1,8,2:1:0:0:
356,112,109592,6,0,P|379:86|394:159,1,148.5,12|0,2:0|2:0,2:0:0:0:
336,191,109898,2,0,P|287:176|189:159,1,148.5,8|0,2:1|2:0,2:0:0:0:
109,153,110204,1,10,2:0:0:0:
286,40,110357,1,8,2:1:0:0:
286,40,110664,6,0,P|268:110|249:207,1,162,12|8,2:1|2:1,2:0:0:0:
419,280,111123,2,0,P|381:258|342:252,1,81.0000000000001,8|0,2:1|2:0,2:0:0:0:
167,332,111429,2,0,B|263:298|263:298|294:339|347:331,1,162,8|0,2:0|2:0,2:0:0:0:
68,249,111888,1,8,2:1:0:0:
57,258,111965,1,8,2:1:0:0:
46,267,112041,6,0,P|53:308|56:348,1,81.0000000000001,8|0,2:0|2:0,2:0:0:0:
167,209,112347,2,0,P|160:168|157:128,1,81.0000000000001,8|0,2:1|2:0,2:0:0:0:
307,241,112653,2,0,P|360:278|445:268,1,121.5,8|0,2:0|2:0,2:0:0:0:
446,261,112959,1,0,2:0:0:0:
507,46,113113,6,0,B|452:42|416:76|437:87|406:124|334:127,1,162,14|8,2:0|2:0,2:0:0:0:
174,118,113572,2,0,P|135:105|88:94,1,81.0000000000001,8|0,2:1|2:0,2:0:0:0:
224,21,113878,2,0,P|271:74|259:191,1,162,8|0,2:0|2:0,2:0:0:0:
179,270,114337,1,8,2:1:0:0:
326,328,114490,6,0,P|375:316|412:311,1,81.0000000000001,8|0,2:0|2:0,2:0:0:0:
390,100,114796,1,8,2:1:0:0:
300,234,114949,1,0,2:0:0:0:
494,266,115102,2,0,P|481:221|471:179,1,81.0000000000001,8|8,2:0|2:1,2:0:0:0:
400,6,115408,1,8,2:0:0:0:
276,128,115561,6,0,P|204:109|98:91,1,162,12|8,2:1|2:0,2:0:0:0:
3,238,116021,2,0,P|50:227|92:221,1,81.0000000000001,8|0,2:1|2:0,2:0:0:0:
232,362,116327,2,0,P|215:320|196:189,1,162,12|0,2:0|2:0,2:0:0:0:
195,205,116786,1,8,2:1:0:0:
391,315,116939,5,8,2:0:0:0:
456,200,117092,1,8,2:3:0:0:
456,200,117169,1,8,2:3:0:0:
456,200,117245,1,8,2:3:0:0:
298,270,117398,1,8,2:1:0:0:
244,52,117551,5,8,2:0:0:0:
343,158,117704,1,8,2:3:0:0:
475,99,117857,1,4,2:3:0:0:
243,142,118010,6,0,B|199:137|165:116|165:116|129:152|88:176,1,162,14|8,2:0|2:1,2:0:0:0:
12,291,118470,2,0,P|59:274|106:268,1,81.0000000000001,8|0,2:1|2:0,2:0:0:0:
251,368,118776,2,0,P|330:382|391:309,1,162,12|0,2:0|2:0,2:0:0:0:
280,223,119235,1,8,2:1:0:0:
473,119,119388,6,0,P|487:86|406:92,1,148.5,12|0,2:0|2:0,2:0:0:0:
399,161,119694,2,0,P|409:211|425:333,1,148.5,8|0,2:1|2:0,2:0:0:0:
436,384,120000,1,14,2:0:0:0:
280,223,120153,1,8,2:1:0:0:
280,223,120459,6,0,B|211:201|211:201|183:210|183:210|103:187,1,162,12|8,2:1|2:1,2:0:0:0:
196,370,120919,2,0,P|205:318|215:279,1,81.0000000000001,8|0,2:1|2:0,2:0:0:0:
62,127,121225,2,0,B|36:117|17:103|17:103|45:235,1,162,8|0,2:0|2:0,2:0:0:0:
74,346,121684,1,8,2:1:0:0:
166,122,121837,5,8,2:0:0:0:
325,259,121990,2,0,P|269:213|181:225,1,162,8|8,2:1|2:1,2:0:0:0:
405,152,122449,1,8,2:0:0:0:
438,351,122602,1,8,2:0:0:0:
438,351,122679,1,8,2:0:0:0:
438,351,122755,1,8,2:0:0:0:
267,185,122908,6,0,P|256:103|234:-2,1,180,12|0,2:1|2:0,2:0:0:0:
51,164,123368,2,0,P|100:189|165:190,1,90,8|0,2:0|2:0,2:0:0:0:
223,103,123674,1,8,2:1:0:0:
87,288,123827,1,8,2:1:0:0:
239,85,123980,1,8,2:0:0:0:
294,309,124133,6,0,P|357:292|471:279,1,180,14|8,2:0|2:1,2:0:0:0:
241,133,124592,2,0,P|287:143|336:147,1,90,8|0,2:0|2:0,2:0:0:0:
470,0,124898,1,8,2:1:0:0:
413,204,125051,1,8,2:1:0:0:
310,33,125204,1,8,2:0:0:0:
200,262,125357,6,0,P|133:246|15:237,1,180,12|8,2:1|2:1,2:0:0:0:
186,367,125817,2,0,P|252:351|285:327,1,90,8|0,2:0|2:0,2:0:0:0:
162,72,126123,1,8,2:1:0:0:
279,214,126276,1,8,2:1:0:0:
55,112,126429,1,8,2:0:0:0:
250,10,126582,1,8,2:1:0:0:
132,177,126735,6,0,P|113:231|102:275,1,90,8|0,2:1|2:0,2:0:0:0:
281,108,127041,2,0,P|262:54|251:10,1,90,8|0,2:0|2:0,2:0:0:0:
337,262,127347,2,0,P|282:242|231:233,1,90,8|8,2:1|2:1,2:0:0:0:
427,131,127653,2,0,P|482:111|533:102,1,90,8|8,2:0|2:1,2:0:0:0:
461,330,127959,5,12,2:0:0:0:
296,126,128113,1,8,2:1:0:0:
260,371,128266,1,8,2:0:0:0:
451,217,128419,1,8,2:1:0:0:
151,262,128572,5,8,2:0:0:0:
129,232,128648,1,8,2:0:0:0:
131,196,128725,1,8,2:3:0:0:
157,169,128801,1,8,2:3:0:0:
193,166,128878,1,4,2:3:0:0:
223,188,128954,1,4,2:3:0:0:
231,224,129031,2,0,L|223:283,1,45,8|8,2:1|2:1,2:0:0:0:
166,369,129184,6,0,P|116:353|59:343,1,90,8|2,2:0|2:0,2:0:0:0:
56,340,129414,1,2,2:0:0:0:
33,343,129490,2,0,L|27:292,3,45,2|2|2|2,2:0|2:0|2:0|2:0,2:0:0:0:
68,137,129796,5,8,2:0:0:0:
286,334,129949,1,8,2:0:0:0:
286,334,130255,6,0,P|377:346|433:239,1,189,12|8,2:1|2:1,2:0:0:0:
312,156,130715,2,0,P|328:212|338:255,1,94.5,8|0,2:0|2:0,2:0:0:0:
426,91,131021,1,8,2:1:0:0:
289,0,131174,1,8,2:1:0:0:
407,191,131327,2,0,P|456:179|504:173,1,94.5,8|0,2:0|2:0,2:0:0:0:
231,73,131633,6,0,P|182:61|134:55,1,94.5,8|0,2:1|2:0,2:0:0:0:
266,331,131939,2,0,P|282:265|288:217,1,94.5,8|0,2:0|2:0,2:0:0:0:
10,217,132245,1,8,2:1:0:0:
100,384,132398,1,8,2:1:0:0:
169,137,132551,1,8,2:0:0:0:
320,337,132704,6,0,P|241:299|127:280,1,189,14|8,2:0|2:1,2:0:0:0:
448,381,133164,2,0,P|443:322|435:278,1,94.5,8|0,2:0|2:0,2:0:0:0:
338,155,133470,2,0,P|388:145|446:128,1,94.5,8|8,2:1|2:1,2:0:0:0:
229,79,133776,1,8,2:0:0:0:
292,282,133929,1,0,2:0:0:0:
125,173,134082,6,0,P|79:160|33:151,1,94.5,8|0,2:1|2:0,2:0:0:0:
259,0,134388,2,0,P|302:26|314:77,1,94.5,8|0,2:0|2:0,2:0:0:0:
199,270,134694,1,8,2:1:0:0:
141,62,134847,1,8,2:1:0:0:
45,300,135000,1,8,2:0:0:0:
250,188,135153,6,0,B|293:188|332:222|332:222|382:212|435:167,1,189,12|8,2:1|2:1,2:0:0:0:
355,74,135613,1,8,2:0:0:0:
444,291,135766,2,0,P|452:176|466:84,1,189,0|8,2:0|2:1,2:0:0:0:
283,13,136225,2,0,B|258:57|258:57|272:111,1,94.5,8|0,2:0|2:0,2:0:0:0:
72,300,136531,6,0,P|134:286|185:278,1,94.5,8|0,2:1|2:0,2:0:0:0:
357,208,136837,2,0,P|310:199|265:188,1,94.5,8|0,2:0|2:0,2:0:0:0:
256,384,137143,2,0,P|268:338|271:289,1,94.5,8|8,2:1|2:1,2:0:0:0:
148,82,137449,2,0,P|150:129|163:174,1,94.5,8|0,2:0|2:0,2:0:0:0:
475,359,137755,6,0,P|482:305|492:259,1,94.5,14|0,2:0|2:0,2:0:0:0:
442,112,138061,1,8,2:0:0:0:
336,256,138215,2,0,P|327:197|299:68,1,189,0|8,2:1|2:1,2:0:0:0:
185,176,138674,1,8,2:0:0:0:
185,176,138827,1,0,2:0:0:0:
305,341,138980,6,0,P|357:341|405:311,1,94.5,8|8,2:1|2:1,2:0:0:0:
139,258,139286,1,12,2:0:0:0:
300,171,139439,1,8,2:1:0:0:
295,154,139516,1,8,2:1:0:0:
290,137,139592,5,8,2:3:0:0:
181,346,139745,1,4,2:3:0:0:
22,230,139898,1,8,2:1:0:0:
204,360,140051,6,0,P|185:295|164:164,1,189,12|8,2:1|2:1,2:0:0:0:
363,39,140510,2,0,P|409:55|443:116,1,94.5,8|0,2:0|2:0,2:0:0:0:
307,256,140817,2,0,P|263:244|208:234,1,94.5,8|8,2:1|2:1,2:0:0:0:
42,131,141123,1,8,2:0:0:0:
184,10,141276,1,0,2:0:0:0:
107,226,141429,6,0,P|91:280|82:320,1,94.5,8|0,2:1|2:0,2:0:0:0:
294,112,141735,2,0,P|278:58|269:18,1,94.5,8|0,2:0|2:0,2:0:0:0:
398,327,142041,1,8,2:1:0:0:
244,182,142194,1,8,2:1:0:0:
169,384,142347,1,8,2:0:0:0:
294,112,142500,6,0,P|278:193|263:306,1,189,14|8,2:0|2:1,2:0:0:0:
76,174,142959,2,0,P|126:158|173:148,1,94.5,8|0,2:0|2:0,2:0:0:0:
396,206,143266,1,8,2:1:0:0:
285,94,143419,1,8,2:1:0:0:
351,317,143572,2,0,P|401:301|448:291,1,94.5,8|0,2:0|2:0,2:0:0:0:
435,103,143878,6,0,P|409:151|399:200,1,94.5,8|0,2:1|2:0,2:0:0:0:
374,6,144184,1,8,2:0:0:0:
510,179,144337,1,8,2:1:0:0:
510,179,144414,1,8,2:1:0:0:
510,179,144490,5,8,2:1:0:0:
323,289,144643,1,8,2:0:0:0:
226,54,144796,1,8,2:0:0:0:
305,198,144949,6,0,P|292:266|272:387,1,189,12|8,2:1|2:1,2:0:0:0:
115,213,145408,2,0,P|63:195|10:187,1,94.5,8|0,2:0|2:0,2:0:0:0:
100,316,145715,1,8,2:1:0:0:
209,166,145868,1,8,2:1:0:0:
36,32,146021,1,8,2:0:0:0:
220,177,146174,6,0,P|277:155|415:142,1,189,12|8,2:0|2:1,2:0:0:0:
460,347,146633,2,0,P|399:327|364:303,1,94.5,8|0,2:0|2:0,2:0:0:0:
305,108,146939,1,8,2:1:0:0:
225,312,147092,1,8,2:1:0:0:
150,35,147245,1,8,2:0:0:0:
376,229,147398,6,0,P|471:228|499:147,1,189,12|8,2:1|2:1,2:0:0:0:
221,191,147857,2,0,P|225:253|230:292,1,94.5,8|0,2:0|2:0,2:0:0:0:
21,167,148164,1,8,2:1:0:0:
129,342,148317,1,8,2:1:0:0:
202,84,148470,1,8,2:0:0:0:
93,243,148623,2,0,L|148:236,1,47.25,8|8,2:1|2:1,2:0:0:0:
385,83,148776,5,8,2:0:0:0:
276,281,148929,1,8,2:1:0:0:
397,61,149082,1,8,2:0:0:0:
470,317,149235,1,8,2:1:0:0:
186,211,149388,5,8,2:0:0:0:
512,128,149541,1,8,2:0:0:0:
512,128,149847,6,0,P|456:129|418:248,1,189,12|8,2:1|2:1,2:0:0:0:
240,191,150306,2,0,L|265:292,1,94.5,8|0,2:0|2:0,2:0:0:0:
287,73,150613,1,8,2:1:0:0:
145,181,150766,1,8,2:1:0:0:
344,221,150919,2,0,P|408:208|439:203,1,94.5,8|0,2:0|2:0,2:0:0:0:
210,6,151225,6,0,P|187:53|188:103,1,94.5,8|0,2:1|2:0,2:0:0:0:
332,314,151531,2,0,L|346:203,1,94.5,8|0,2:0|2:0,2:0:0:0:
126,192,151837,1,8,2:1:0:0:
222,361,151990,1,8,2:1:0:0:
285,123,152143,1,8,2:0:0:0:
89,309,152296,6,0,P|19:271|26:154,1,189,14|8,2:0|2:1,2:0:0:0:
301,253,152755,2,0,P|254:260|208:269,1,94.5,8|0,2:0|2:0,2:0:0:0:
117,97,153061,2,0,P|125:153|126:193,1,94.5,8|8,2:1|2:1,2:0:0:0:
288,17,153368,1,8,2:0:0:0:
220,167,153521,1,0,2:0:0:0:
73,13,153674,6,0,P|30:42|18:88,1,94.5,8|0,2:1|2:0,2:0:0:0:
227,186,153980,2,0,L|329:163,1,94.5,8|0,2:0|2:0,2:0:0:0:
484,56,154286,1,8,2:1:0:0:
334,283,154439,1,8,2:1:0:0:
347,91,154592,1,8,2:0:0:0:
484,354,154745,6,0,P|510:308|478:181,1,189,12|8,2:1|2:1,2:0:0:0:
396,17,155204,1,8,2:0:0:0:
275,293,155357,2,0,P|299:242|420:267,1,189,0|8,2:0|2:1,2:0:0:0:
220,65,155817,2,0,P|237:125|245:167,1,94.5,8|0,2:0|2:0,2:0:0:0:
0,294,156123,6,0,P|46:275|98:267,1,94.5,8|0,2:1|2:0,2:0:0:0:
249,384,156429,2,0,P|295:375|338:357,1,94.5,8|0,2:0|2:0,2:0:0:0:
181,189,156735,2,0,P|144:164|80:147,1,94.5,8|8,2:1|2:1,2:0:0:0:
269,289,157041,2,0,P|295:235|304:187,1,94.5,8|0,2:0|2:0,2:0:0:0:
86,54,157347,6,0,L|98:160,1,94.5,14|8,2:0|2:1,2:0:0:0:
217,72,157653,1,8,2:0:0:0:
285,321,157806,2,0,B|253:285|181:286|181:286|158:333|96:333,1,189,0|8,2:0|2:1,2:0:0:0:
20,222,158266,1,8,2:0:0:0:
20,222,158419,1,8,2:1:0:0:
203,91,158572,5,8,2:0:0:0:
105,254,158725,1,8,2:1:0:0:
329,147,158878,2,0,P|317:197|311:242,1,94.5,12|0,2:0|2:0,2:0:0:0:
417,222,159184,1,8,2:1:0:0:
295,35,159337,5,8,2:0:0:0:
222,326,159490,1,8,2:0:0:0:
45,123,159643,1,8,2:0:0:0:
311,239,159796,6,0,B|362:227|410:247|389:259|444:293|511:270,2,189,12|8|8,2:1|2:0|2:1,2:0:0:0:
458,183,160561,1,8,2:1:0:0:
338,338,160715,1,8,2:0:0:0:
269,137,160868,1,0,2:0:0:0:
137,282,161021,6,0,P|203:261|266:253,1,94.5,8|0,2:1|2:0,2:0:0:0:
377,148,161327,2,0,P|330:138|286:122,1,94.5,8|0,2:0|2:0,2:0:0:0:
441,229,161633,1,8,2:1:0:0:
361,42,161786,1,8,2:1:0:0:
239,283,161939,1,8,2:0:0:0:
112,31,162092,6,0,B|168:34|196:75|176:84|212:132|298:133,1,189,14|8,2:0|2:1,2:0:0:0:
90,227,162551,2,0,P|46:238|-5:257,1,94.5,8|0,2:0|2:0,2:0:0:0:
207,270,162857,1,8,2:1:0:0:
105,128,163010,1,8,2:1:0:0:
68,336,163164,2,0,P|112:347|163:366,1,94.5,8|0,2:0|2:0,2:0:0:0:
272,191,163470,6,0,P|305:237|311:283,1,94.5,8|0,2:1|2:0,2:0:0:0:
187,96,163776,1,8,2:0:0:0:
379,167,163929,1,8,2:1:0:0:
379,167,164005,1,8,2:1:0:0:
379,167,164082,5,8,2:0:0:0:
207,270,164235,1,8,2:3:0:0:
352,32,164388,1,8,2:1:0:0:
476,331,164541,6,0,P|432:298|279:299,1,189,12|8,2:1|2:1,2:0:0:0:
131,292,165000,2,0,P|149:342|160:393,1,94.5,8|0,2:0|2:0,2:0:0:0:
66,119,165306,1,8,2:1:0:0:
249,196,165459,1,8,2:1:0:0:
0,282,165613,1,8,2:0:0:0:
191,19,165766,6,0,P|174:85|152:209,1,189,14|8,2:0|2:1,2:0:0:0:
0,56,166225,2,0,P|39:32|100:25,1,94.5,8|0,2:0|2:0,2:0:0:0:
282,203,166531,1,8,2:1:0:0:
135,104,166684,1,8,2:1:0:0:
305,220,166837,1,8,2:0:0:0:
97,382,166990,6,0,P|108:311|157:196,1,189,14|8,2:0|2:1,2:0:0:0:
387,304,167449,1,8,2:0:0:0:
227,128,167602,1,8,2:1:0:0:
449,99,167755,5,8,2:0:0:0:
225,339,167908,1,8,2:1:0:0:
370,148,168061,1,8,2:3:0:0:
439,384,168215,1,8,2:1:0:0:
478,84,168368,5,10,2:0:0:0:
200,225,168521,1,10,2:0:0:0:
512,297,168980,5,10,2:0:0:0:
269,122,169133,1,10,2:0:0:0:
127,344,169592,5,8,2:0:0:0:
314,244,169745,1,8,2:0:0:0:
332,234,170051,5,8,2:0:0:0:
108,354,170204,1,8,2:0:0:0:
19,178,170510,5,8,2:0:0:0:
206,278,170664,1,8,2:0:0:0:
224,288,170970,5,8,2:0:0:0:
0,168,171123,1,8,2:0:0:0:
164,89,171429,6,0,L|178:46,3,45,2|2|2|2,2:0|2:0|2:0|2:0,2:0:0:0:
111,144,171735,2,0,P|98:181|168:151,1,162,4|0,2:0|2:0,2:0:0:0:
164,88,172041,5,8,2:0:0:0:
351,188,172194,1,8,2:0:0:0:
369,198,172500,5,8,2:0:0:0:
145,78,172653,1,8,2:0:0:0:
247,225,172959,5,8,2:0:0:0:
434,125,173113,1,8,2:0:0:0:
452,115,173419,5,8,2:0:0:0:
228,235,173572,1,8,2:0:0:0:
411,262,173878,5,8,2:3:0:0:
446,287,173954,5,8,2:3:0:0:
417,308,174031,5,4,2:3:0:0:
432,324,174107,5,4,2:3:0:0:
423,345,174184,6,0,B|366:327|366:327|320:353|320:353|229:328,1,162,14|0,2:0|2:0,2:0:0:0:
186,312,174490,5,8,2:0:0:0:
237,127,174643,1,8,2:0:0:0:
242,108,174949,5,8,2:0:0:0:
180,330,175102,1,8,2:0:0:0:
6,180,175408,5,8,2:0:0:0:
57,365,175561,1,8,2:0:0:0:
62,384,175868,5,8,2:0:0:0:
2,162,176021,1,8,2:0:0:0:
196,228,176327,6,0,L|239:213,3,45,2|2|2|2,2:0|2:0|2:0|2:0,2:0:0:0:
120,219,176633,2,0,P|82:231|149:268,1,162,4|0,2:0|2:0,2:0:0:0:
196,228,176939,5,8,2:0:0:0:
255,29,177092,1,8,2:0:0:0:
260,11,177398,5,8,2:0:0:0:
190,245,177551,1,8,2:0:0:0:
452,216,177857,6,0,P|384:218|330:140,1,135,10|0,2:0|2:0,2:0:0:0:
380,54,178164,6,0,L|368:116,1,45,12|0,2:0|2:0,2:0:0:0:
214,374,178776,5,8,2:0:0:0:
101,289,178929,2,0,P|177:275|273:250,1,135,8|0,2:1|2:0,2:0:0:0:
326,193,179235,6,0,B|270:195|229:156|251:147|201:108|139:108,1,180,12|8,2:1|2:1,2:0:0:0:
81,0,179694,2,0,P|64:60|59:106,1,90,8|0,2:0|2:0,2:0:0:0:
197,322,180000,1,10,2:0:0:0:
77,182,180153,1,10,2:0:0:0:
77,182,180230,1,8,2:1:0:0:
77,182,180306,1,8,2:0:0:0:
6,382,180459,6,0,P|80:358|187:345,1,180,10|8,2:0|2:1,2:0:0:0:
364,212,180919,1,10,2:0:0:0:
331,183,180995,1,0,2:0:0:0:
287,187,181072,1,0,2:0:0:0:
261,221,181148,1,0,2:0:0:0:
268,264,181225,1,10,2:0:0:0:
424,321,181378,1,10,2:0:0:0:
359,108,181531,2,0,L|349:169,1,45,8|0,2:0|2:0,2:0:0:0:
273,384,181684,6,0,P|203:364|111:351,1,135,14|0,2:0|2:0,2:0:0:0:
118,337,181990,2,0,L|186:319,1,45,8|0,2:1|2:0,2:0:0:0:
268,264,182143,1,10,2:0:0:0:
64,142,182296,1,2,2:0:0:0:
64,142,182373,1,2,2:0:0:0:
64,142,182449,1,10,2:0:0:0:
183,243,182602,1,10,2:0:0:0:
291,11,182755,6,0,P|281:48|276:79,1,45,10|0,2:0|2:0,2:0:0:0:
154,106,182908,2,0,P|164:143|169:174,1,45,8|0,2:1|2:0,2:0:0:0:
379,293,183061,5,10,2:0:0:0:
405,257,183138,1,2,2:0:0:0:
408,212,183215,1,10,2:0:0:0:
387,173,183291,1,2,2:0:0:0:
348,151,183368,1,10,2:0:0:0:
304,152,183444,1,0,2:0:0:0:
267,177,183521,2,0,L|255:234,1,45,0|0,2:0|2:0,2:0:0:0:
364,68,183674,6,0,L|354:23,1,45,10|0,2:0|2:0,2:0:0:0:
437,246,183827,2,0,L|427:290,1,45,10|0,2:0|2:0,2:0:0:0:
301,122,183980,1,10,2:0:0:0:
186,333,184133,6,0,B|55:295|55:295|74:322|89:352,1,180,12|8,2:1|2:1,2:0:0:0:
267,286,184592,2,0,P|282:346|279:388,1,90,10|0,2:0|2:0,2:0:0:0:
64,101,184898,1,10,2:0:0:0:
223,143,185051,1,10,2:0:0:0:
41,221,185204,1,8,2:0:0:0:
160,14,185357,1,0,2:0:0:0:
299,233,185510,6,0,L|225:220,1,54,10|0,2:0|2:0,2:0:0:0:
157,149,185664,2,0,L|231:136,1,54,2|0,2:0|2:0,2:0:0:0:
316,86,185817,2,0,P|308:112|302:150,1,54,8|0,2:0|2:0,2:0:0:0:
391,255,185970,2,0,P|385:228|378:202,1,54,0|0,2:0|2:0,2:0:0:0:
235,56,186123,5,10,2:0:0:0:
170,268,186276,1,10,2:0:0:0:
54,129,186429,1,8,2:0:0:0:
242,329,186582,6,0,L|407:302,1,135,14|0,2:0|2:0,2:0:0:0:
399,299,186888,2,0,L|389:248,1,45,10|0,2:0|2:0,2:0:0:0:
318,66,187041,1,10,2:0:0:0:
318,66,187118,1,0,2:0:0:0:
318,66,187194,2,0,P|352:86|373:90,1,45,0|0,2:0|2:0,2:0:0:0:
241,200,187347,6,0,P|237:168|228:134,1,45,10|0,2:0|2:0,2:0:0:0:
117,1,187500,1,10,2:0:0:0:
117,1,187577,1,0,2:0:0:0:
117,1,187653,2,0,P|121:33|130:67,1,45,8|0,2:0|2:0,2:0:0:0:
52,175,187806,2,0,P|84:171|118:162,1,45,8|8,2:1|2:1,2:0:0:0:
314,295,187959,6,0,P|282:298|248:308,1,49.5,12|0,2:1|2:0,2:0:0:0:
31,176,188113,1,10,2:0:0:0:
31,176,188189,1,0,2:0:0:0:
31,176,188266,2,0,L|44:239,1,49.5,10|0,2:0|2:0,2:0:0:0:
154,322,188419,2,0,L|141:385,1,49.5,8|8,2:1|2:1,2:0:0:0:
252,186,188572,5,8,2:1:0:0:
38,318,188725,1,8,2:3:0:0:
123,45,188878,1,4,2:3:0:0:
247,303,189031,6,0,B|292:276|351:285|331:303|388:316|447:281,1,180,12|8,2:1|2:1,2:0:0:0:
172,144,189490,2,0,P|223:166|270:167,1,90,10|0,2:0|2:0,2:0:0:0:
436,103,189796,1,10,2:0:0:0:
242,20,189949,2,0,L|252:84,1,45,10|0,2:0|2:0,2:0:0:0:
287,258,190102,1,8,2:0:0:0:
95,168,190255,1,0,2:0:0:0:
302,275,190408,6,0,L|350:262,1,45,10|0,2:0|2:0,2:0:0:0:
235,368,190561,2,0,L|191:356,1,45,2|0,2:0|2:0,2:0:0:0:
183,232,190715,1,8,2:0:0:0:
371,378,190868,1,2,2:0:0:0:
371,378,190944,1,2,2:0:0:0:
371,378,191021,5,10,2:0:0:0:
430,105,191174,1,10,2:0:0:0:
194,273,191327,1,8,2:0:0:0:
511,219,191480,6,0,P|424:205|320:176,1,180,14|2,2:0|2:0,2:0:0:0:
305,167,191863,1,2,2:0:0:0:
305,167,191939,1,10,2:0:0:0:
194,273,192092,2,0,L|267:258,1,45,8|0,2:1|2:0,2:0:0:0:
213,5,192245,1,10,2:0:0:0:
207,38,192322,1,2,2:0:0:0:
202,71,192398,1,10,2:0:0:0:
196,104,192475,1,0,2:0:0:0:
191,138,192551,6,0,L|203:190,1,45,10|0,2:0|2:0,2:0:0:0:
111,327,192704,2,0,L|99:275,1,45,0|0,2:0|2:0,2:0:0:0:
19,137,192857,6,0,P|64:111|113:108,1,90,10|0,2:0|2:0,2:0:0:0:
300,9,193164,2,0,L|283:118,1,90,8|8,2:0|2:1,2:0:0:0:
282,126,193393,1,8,2:1:0:0:
282,126,193470,1,10,2:0:0:0:
22,232,193623,1,10,2:0:0:0:
194,88,193776,1,8,2:0:0:0:
143,334,193929,2,0,L|133:278,1,45,12|0,2:1|2:0,2:0:0:0:
18,127,194082,5,2,2:0:0:0:
2,85,194158,1,0,2:0:0:0:
14,42,194235,1,8,2:1:0:0:
48,14,194311,1,0,2:0:0:0:
92,11,194388,2,0,L|150:23,1,45,10|2,2:0|2:0,2:0:0:0:
303,92,194541,5,2,2:0:0:0:
319,134,194618,1,0,2:0:0:0:
307,177,194694,1,10,2:0:0:0:
273,205,194771,1,0,2:0:0:0:
229,208,194847,2,0,L|184:198,1,45,2|2,2:0|2:0,2:0:0:0:
395,92,195000,6,0,L|415:166,1,45,10|0,2:0|2:0,2:0:0:0:
507,250,195153,2,0,L|487:324,1,45,14|0,2:0|2:0,2:0:0:0:
323,383,195306,5,0,2:0:0:0:
301,343,195383,1,0,2:0:0:0:
265,318,195459,1,8,2:1:0:0:
221,310,195536,1,0,2:0:0:0:
178,323,195613,1,10,2:0:0:0:
135,335,195689,1,0,2:0:0:0:
91,328,195766,1,0,2:0:0:0:
54,302,195842,1,0,2:0:0:0:
33,263,195919,6,0,L|47:200,1,45,10|0,2:0|2:0,2:0:0:0:
212,115,196072,2,0,L|198:52,1,45,2|2,2:0|2:0,2:0:0:0:
0,74,196225,2,0,L|60:92,1,45,10|0,2:0|2:0,2:0:0:0:
174,224,196378,5,12,2:1:0:0:
207,217,196454,1,0,2:0:0:0:
240,211,196531,1,0,2:0:0:0:
273,205,196607,1,0,2:0:0:0:
306,198,196684,2,0,L|364:185,1,45,8|0,2:1|2:0,2:0:0:0:
437,30,196837,1,10,2:0:0:0:
418,21,196914,1,0,2:0:0:0:
399,12,196990,2,0,L|387:64,1,45,8|0,2:1|2:0,2:0:0:0:
488,291,197143,5,10,2:3:0:0:
490,280,197220,1,8,2:3:0:0:
493,269,197296,1,10,2:0:0:0:
496,258,197373,1,10,2:0:0:0:
499,247,197449,1,10,2:0:0:0:
334,384,197602,1,8,2:1:0:0:
443,126,197755,5,10,2:0:0:0:
382,268,197908,2,0,L|371:212,1,45,8|8,2:1|2:1,2:0:0:0:
267,16,198061,2,0,P|258:70|236:174,1,135,14|0,2:0|2:0,2:0:0:0:
223,227,198368,5,10,2:0:0:0:
0,41,198521,1,10,2:0:0:0:
0,41,198827,6,0,B|62:54|62:54|97:104|97:104|180:117,1,198,12|8,2:1|2:1,2:0:0:0:
311,213,199286,2,0,P|257:220|201:231,1,90,8|0,2:0|2:0,2:0:0:0:
124,309,199592,1,8,2:1:0:0:
263,123,199745,1,8,2:1:0:0:
124,309,199898,1,8,2:0:0:0:
312,358,200051,6,0,P|380:335|499:324,1,180,0|8,2:0|2:1,2:0:0:0:
417,143,200510,2,0,P|397:204|401:257,1,90,8|0,2:0|2:0,2:0:0:0:
506,63,200817,1,8,2:1:0:0:
319,146,200970,2,0,P|274:127|227:114,1,90,8|8,2:1|2:0,2:0:0:0:
28,275,201276,6,0,P|96:260|219:210,1,180,14|8,2:0|2:1,2:0:0:0:
126,132,201735,1,8,2:0:0:0:
270,2,201888,2,0,P|256:54|245:107,1,90,0|8,2:0|2:1,2:0:0:0:
384,34,202194,1,8,2:1:0:0:
355,247,202347,2,0,P|345:203|333:159,1,90,8|0,2:0|2:0,2:0:0:0:
283,326,202653,6,0,P|340:302|493:275,2,180,8|8|8,2:1|2:0|2:1,2:0:0:0:
61,267,203419,1,8,2:1:0:0:
229,146,203572,1,8,2:0:0:0:
179,381,203725,6,0,P|171:310|148:187,1,180,14|8,2:0|2:1,2:0:0:0:
211,21,204184,1,8,2:0:0:0:
18,85,204337,2,0,P|72:92|116:103,1,90,0|8,2:0|2:1,2:0:0:0:
288,215,204643,1,8,2:1:0:0:
371,81,204796,1,8,2:0:0:0:
438,257,204949,1,0,2:0:0:0:
230,143,205102,6,0,P|200:183|198:235,2,90,8|0|8,2:1|2:0|2:0,2:0:0:0:
332,328,205561,2,0,L|227:297,1,90,0|8,2:0|2:1,2:0:0:0:
77,167,205868,1,8,2:1:0:0:
157,346,206021,1,8,2:0:0:0:
338,179,206174,6,0,P|318:119|293:-5,1,180,12|8,2:1|2:1,2:0:0:0:
459,160,206633,2,0,P|447:231|432:274,1,90,8|0,2:0|2:0,2:0:0:0:
220,188,206939,1,8,2:1:0:0:
400,104,207092,1,8,2:1:0:0:
269,22,207245,1,8,2:0:0:0:
354,270,207398,1,8,2:1:0:0:
118,132,207551,5,12,2:1:0:0:
0,354,207704,1,8,2:1:0:0:
203,292,207857,2,0,P|151:273|99:264,1,90,8|0,2:0|2:0,2:0:0:0:
335,381,208164,1,8,2:1:0:0:
197,167,208317,5,8,2:0:0:0:
393,257,208470,1,8,2:0:0:0:
499,52,208623,1,8,2:0:0:0:
383,278,208776,6,0,P|356:199|340:117,1,135,14|0,2:0|2:0,2:0:0:0:
348,4,209082,5,8,2:0:0:0:
391,12,209158,1,8,2:3:0:0:
418,46,209235,1,4,2:3:0:0:
416,90,209311,1,4,2:3:0:0:
386,123,209388,2,0,L|338:135,1,45,8|8,2:1|2:1,2:0:0:0:
119,80,209541,5,8,2:0:0:0:
132,123,209618,1,8,2:3:0:0:
143,166,209694,1,4,2:3:0:0:
153,210,209771,1,4,2:3:0:0:
161,254,209847,2,0,L|169:322,1,45,8|8,2:1|2:1,2:0:0:0:
271,60,210000,5,10,2:0:0:0:
446,311,210613,5,8,2:0:0:0:
256,192,210766,1,8,2:0:0:0:
256,192,211072,5,12,2:1:0:0:
198,309,220868,6,0,P|190:352|145:256,1,315,12|0,2:0|2:0,2:0:0:0:
339,123,222245,2,0,P|372:176|276:162,1,216,2|2,2:0|2:0,2:0:0:0:
210,65,223317,6,0,B|158:96|158:155|158:155|114:113|41:123,1,225,12|0,2:1|2:0,2:0:0:0:
51,122,224388,2,0,P|63:156|68:182,1,45,0|0,2:0|2:0,2:0:0:0:
105,341,224694,2,0,P|120:265|139:185,1,157.5,4|0,2:0|2:0,2:0:0:0:
159,108,225306,5,8,2:0:0:0:
229,245,225459,1,8,2:3:0:0:
43,174,225613,1,4,2:3:0:0:
268,76,225766,6,0,B|328:73|373:111|343:123|407:164|461:162,1,202.5,12|0,2:1|2:0,2:0:0:0:
478,164,226531,5,8,2:0:0:0:
290,353,226684,2,0,L|273:269,1,67.5,8|0,2:0|2:0,2:0:0:0:
277,209,226990,6,0,P|249:156|121:166,1,202.5,12|0,2:1|2:0,2:0:0:0:
101,191,227755,1,8,2:0:0:0:
34,287,227908,2,0,P|31:257|25:227,1,45,4|0,2:0|2:0,2:0:0:0:
126,288,228215,6,0,B|105:347|105:347|185:306|238:297,1,202.5,12|0,2:0|2:0,2:0:0:0:
258,295,228980,5,8,2:0:0:0:
315,191,229133,1,8,2:1:0:0:
218,120,229286,1,8,2:1:0:0:
325,205,229439,6,0,P|368:194|420:187,1,90,12|4,2:0|2:3,2:0:0:0:
437,183,229822,1,4,2:3:0:0:
437,183,229898,1,4,2:3:0:0:
366,103,230051,1,4,2:3:0:0:
258,295,230204,5,8,2:3:0:0:
165,234,230357,1,4,2:3:0:0:
209,99,230510,1,8,2:1:0:0:
385,215,230664,6,0,P|372:262|357:355,1,135,14|0,2:0|2:0,2:0:0:0:
352,376,230970,1,4,2:3:0:0:
291,213,231123,1,8,2:0:0:0:
469,292,231276,1,8,2:0:0:0:
118,198,231429,5,10,2:0:0:0:
339,34,231582,1,10,2:0:0:0:
262,351,231735,1,10,2:0:0:0:
129,108,231888,6,0,P|51:131|26:207,1,135,12|0,2:0|2:0,2:0:0:0:
22,207,232194,1,10,2:0:0:0:
257,79,232347,1,10,2:0:0:0:
156,300,232500,1,8,2:1:0:0:
134,293,232577,1,8,2:1:0:0:
112,287,232653,5,10,2:0:0:0:
424,147,232806,1,10,2:0:0:0:
424,147,233113,6,0,P|405:92|274:83,1,189,12|8,2:1|2:1,2:0:0:0:
379,362,233572,2,0,P|390:306|399:266,1,94.5,12|0,2:0|2:0,2:0:0:0:
213,133,233878,1,8,2:1:0:0:
270,330,234031,1,8,2:1:0:0:
92,229,234184,2,0,P|38:243|-26:260,1,94.5,8|0,2:0|2:0,2:0:0:0:
309,250,234490,6,0,P|363:236|427:219,1,94.5,8|0,2:1|2:0,2:0:0:0:
153,51,234796,2,0,P|123:94|119:140,1,94.5,8|0,2:0|2:0,2:0:0:0:
270,330,235102,1,8,2:1:0:0:
379,100,235255,1,8,2:1:0:0:
203,184,235408,1,8,2:0:0:0:
443,375,235561,6,0,P|488:340|485:185,1,189,14|8,2:0|2:1,2:0:0:0:
289,122,236021,2,0,P|300:178|309:232,1,94.5,8|0,2:0|2:0,2:0:0:0:
465,92,236327,2,0,P|454:36|445:-18,1,94.5,8|8,2:1|2:1,2:0:0:0:
192,110,236633,1,8,2:0:0:0:
405,186,236786,1,0,2:0:0:0:
212,327,236939,6,0,P|261:311|309:301,1,94.5,8|0,2:1|2:0,2:0:0:0:
101,195,237245,2,0,P|52:179|4:169,1,94.5,8|0,2:0|2:0,2:0:0:0:
252,127,237551,1,8,2:1:0:0:
110,308,237704,1,8,2:1:0:0:
80,30,237857,1,8,2:0:0:0:
259,241,238010,6,0,P|348:224|466:208,1,189,12|8,2:1|2:1,2:0:0:0:
365,85,238470,1,8,2:0:0:0:
475,298,238623,2,0,P|480:220|510:73,1,189,0|8,2:0|2:1,2:0:0:0:
341,354,239082,2,0,P|335:295|328:254,1,94.5,8|0,2:0|2:0,2:0:0:0:
220,138,239388,6,0,P|193:191|192:251,1,94.5,8|0,2:1|2:0,2:0:0:0:
306,76,239694,2,0,P|269:42|208:31,1,94.5,8|0,2:0|2:0,2:0:0:0:
0,186,240000,2,0,L|110:164,1,94.5,8|8,2:1|2:1,2:0:0:0:
312,309,240306,2,0,L|219:290,1,94.5,8|0,2:0|2:0,2:0:0:0:
437,65,240613,6,0,P|410:122|407:171,1,94.5,14|0,2:0|2:0,2:0:0:0:
512,267,240919,1,8,2:0:0:0:
336,383,241072,2,0,P|326:264|310:162,1,189,0|8,2:0|2:1,2:0:0:0:
208,49,241531,1,8,2:0:0:0:
208,49,241684,1,0,2:0:0:0:
112,182,241837,6,0,P|163:168|207:161,1,94.5,8|8,2:1|2:1,2:0:0:0:
374,94,242143,1,8,2:0:0:0:
308,288,242296,1,8,2:1:0:0:
308,288,242373,1,8,2:1:0:0:
308,288,242449,5,12,2:0:0:0:
208,49,242602,1,8,2:1:0:0:
101,334,242755,1,8,2:0:0:0:
337,187,242908,6,0,B|386:202|415:249|415:249|461:217|529:228,1,189,12|8,2:1|2:1,2:0:0:0:
199,359,243368,2,0,P|189:292|175:248,1,94.5,8|0,2:0|2:0,2:0:0:0:
63,58,243674,2,0,P|53:125|39:169,1,94.5,8|8,2:1|2:1,2:0:0:0:
283,259,243980,1,8,2:0:0:0:
173,83,244133,1,0,2:0:0:0:
73,265,244286,6,0,P|126:248|171:240,1,94.5,8|0,2:1|2:0,2:0:0:0:
369,106,244592,2,0,P|322:115|277:130,1,94.5,8|0,2:0|2:0,2:0:0:0:
488,182,244898,1,8,2:1:0:0:
339,0,245051,1,8,2:1:0:0:
262,270,245204,1,8,2:0:0:0:
100,71,245357,6,0,P|190:87|295:143,1,189,14|8,2:0|2:1,2:0:0:0:
416,349,245817,2,0,P|429:284|444:235,1,94.5,8|0,2:0|2:0,2:0:0:0:
281,28,246123,1,8,2:1:0:0:
339,237,246276,1,8,2:1:0:0:
497,99,246429,2,0,P|446:105|395:123,1,94.5,8|0,2:0|2:0,2:0:0:0:
270,328,246735,6,0,L|163:300,1,94.5,8|0,2:1|2:0,2:0:0:0:
0,211,247041,1,8,2:0:0:0:
165,84,247194,1,8,2:1:0:0:
165,84,247271,1,8,2:1:0:0:
165,84,247347,5,8,2:1:0:0:
80,355,247500,1,8,2:0:0:0:
284,194,247653,1,8,2:0:0:0:
381,381,247806,6,0,P|464:376|501:250,1,189,12|8,2:1|2:1,2:0:0:0:
364,70,248266,2,0,P|389:141|399:176,1,94.5,8|0,2:0|2:0,2:0:0:0:
194,217,248572,1,8,2:1:0:0:
410,295,248725,1,8,2:1:0:0:
259,85,248878,1,8,2:0:0:0:
183,353,249031,6,0,B|131:325|78:340|101:357|42:368|-6:345,1,189,14|8,2:0|2:1,2:0:0:0:
45,93,249490,2,0,P|60:158|65:219,1,94.5,8|0,2:0|2:0,2:0:0:0:
264,299,249796,1,8,2:1:0:0:
60,213,249949,1,8,2:1:0:0:
261,67,250102,1,8,2:0:0:0:
144,332,250255,6,0,P|157:230|180:103,1,189,14|8,2:0|2:1,2:0:0:0:
62,11,250715,2,0,P|21:33|5:84,1,94.5,8|0,2:0|2:0,2:0:0:0:
254,200,251021,1,8,2:1:0:0:
95,94,251174,1,8,2:1:0:0:
243,306,251327,1,8,2:0:0:0:
342,119,251480,2,0,L|356:188,1,47.25,8|8,2:1|2:1,2:0:0:0:
412,384,251633,5,14,2:0:0:0:
512,129,251786,1,8,2:1:0:0:
344,304,251939,2,0,P|401:289|496:271,1,141.75,12|0,2:1|2:0,2:0:0:0:
510,268,252245,5,8,2:0:0:0:
195,84,252398,1,8,2:0:0:0:
195,84,252704,6,0,P|265:68|325:167,1,189,12|8,2:1|2:1,2:0:0:0:
79,110,253164,2,0,P|93:59|106:1,1,94.5,8|0,2:0|2:0,2:0:0:0:
239,261,253470,1,8,2:1:0:0:
178,94,253623,1,8,2:1:0:0:
343,248,253776,2,0,P|329:299|316:357,1,94.5,8|0,2:0|2:0,2:0:0:0:
101,247,254082,6,0,L|-18:224,1,94.5,8|0,2:1|2:0,2:0:0:0:
209,374,254388,2,0,P|217:327|230:282,1,94.5,8|0,2:0|2:0,2:0:0:0:
315,177,254694,1,8,2:1:0:0:
201,37,254847,1,8,2:1:0:0:
450,204,255000,1,8,2:0:0:0:
174,174,255153,6,0,P|248:147|381:116,1,189,14|8,2:0|2:1,2:0:0:0:
465,312,255613,2,0,P|416:302|376:280,1,94.5,8|0,2:0|2:0,2:0:0:0:
444,55,255919,1,8,2:1:0:0:
342,206,256072,1,8,2:1:0:0:
282,13,256225,1,8,2:0:0:0:
446,163,256378,1,0,2:0:0:0:
235,288,256531,6,0,P|228:232|218:182,1,94.5,8|0,2:1|2:0,2:0:0:0:
409,384,256837,2,0,P|416:328|426:278,1,94.5,8|0,2:0|2:0,2:0:0:0:
270,62,257143,1,8,2:1:0:0:
345,258,257296,1,8,2:1:0:0:
133,129,257449,1,8,2:0:0:0:
67,366,257602,6,0,P|140:341|267:317,1,189,12|8,2:1|2:1,2:0:0:0:
391,177,258061,1,8,2:0:0:0:
329,373,258215,1,0,2:0:0:0:
240,203,258368,2,0,P|225:146|212:103,1,94.5,8|8,2:1|2:1,2:0:0:0:
480,237,258674,2,0,P|433:268|391:275,1,94.5,8|0,2:0|2:0,2:0:0:0:
117,162,258980,5,8,2:1:0:0:
248,298,259133,1,0,2:0:0:0:
82,384,259286,2,0,P|72:326|59:272,1,94.5,8|0,2:0|2:0,2:0:0:0:
196,47,259592,1,8,2:1:0:0:
146,256,259745,1,8,2:1:0:0:
41,57,259898,1,8,2:0:0:0:
269,165,260051,1,14,2:0:0:0:
0,219,260204,6,2,P|54:193|198:158,1,189,2|10,2:0|2:0,2:0:0:0:
392,312,260664,2,0,P|339:308|295:290,1,94.5,8|0,2:1|2:0,2:0:0:0:
188,160,260970,1,8,2:1:0:0:
369,77,261123,5,8,2:0:0:0:
301,294,261276,1,8,2:1:0:0:
237,18,261429,5,12,2:0:0:0:
400,251,261582,1,8,2:1:0:0:
147,178,261735,2,0,P|87:198|43:216,1,94.5,8|0,2:0|2:0,2:0:0:0:
301,294,262041,1,8,2:1:0:0:
320,251,262118,1,8,2:1:0:0:
315,204,262194,1,8,2:0:0:0:
288,167,262271,1,8,2:0:0:0:
245,148,262347,1,8,2:0:0:0:
470,28,262500,1,8,2:1:0:0:
411,288,262653,6,0,P|420:237|430:187,1,94.5,12|0,2:1|2:0,2:0:0:0:
224,42,262959,2,0,P|233:88|241:134,1,94.5,8|0,2:0|2:0,2:0:0:0:
168,269,263266,1,8,2:1:0:0:
351,131,263419,1,8,2:1:0:0:
309,381,263572,2,0,P|300:330|290:280,1,94.5,8|0,2:0|2:0,2:0:0:0:
57,130,263878,5,8,2:1:0:0:
241,209,264031,1,8,2:1:0:0:
0,331,264184,2,0,P|59:312|101:305,1,94.5,8|0,2:0|2:0,2:0:0:0:
341,375,264490,5,8,2:1:0:0:
438,246,264643,1,8,2:1:0:0:
301,110,264796,1,8,2:0:0:0:
183,327,264949,6,0,P|238:307|368:281,1,189,14|8,2:0|2:1,2:0:0:0:
120,159,265408,2,0,P|72:152|22:141,1,94.5,8|0,2:0|2:0,2:0:0:0:
290,25,265715,1,8,2:1:0:0:
202,229,265868,1,8,2:1:0:0:
404,155,266021,2,0,P|452:162|502:173,1,94.5,8|0,2:0|2:0,2:0:0:0:
260,328,266327,5,8,2:1:0:0:
154,141,266480,1,8,2:1:0:0:
399,275,266633,1,8,2:0:0:0:
146,350,266786,1,8,2:1:0:0:
146,350,266863,1,8,2:1:0:0:
146,350,266939,5,8,2:1:0:0:
8,109,267092,1,8,2:0:0:0:
226,243,267245,1,8,2:0:0:0:
0,384,267398,6,0,P|16:310|66:187,1,189,12|8,2:1|2:1,2:0:0:0:
273,115,267857,2,0,P|222:105|174:82,1,94.5,8|0,2:0|2:0,2:0:0:0:
263,8,268164,1,8,2:1:0:0:
135,223,268317,1,8,2:1:0:0:
375,110,268470,1,8,2:0:0:0:
274,384,268623,6,0,P|269:289|251:170,1,189,14|8,2:0|2:1,2:0:0:0:
421,35,269082,2,0,P|462:76|466:127,1,94.5,8|0,2:0|2:0,2:0:0:0:
303,258,269388,1,8,2:1:0:0:
493,197,269541,1,8,2:1:0:0:
279,22,269694,1,8,2:0:0:0:
415,295,269847,6,0,P|335:305|194:341,1,189,14|8,2:0|2:1,2:0:0:0:
28,201,270306,1,8,2:0:0:0:
139,383,270459,1,8,2:1:0:0:
186,116,270613,5,8,2:0:0:0:
186,116,270689,1,8,2:0:0:0:
186,116,270766,2,0,L|171:176,1,47.25,8|8,2:3|2:3,2:0:0:0:
360,328,270919,1,4,2:3:0:0:
378,285,270995,1,4,2:3:0:0:
369,240,271072,1,8,2:1:0:0:
334,208,271148,1,8,2:1:0:0:
288,203,271225,5,10,2:0:0:0:
23,340,271378,1,10,2:0:0:0:
75,52,271837,5,10,2:0:0:0:
215,328,271990,1,10,2:0:0:0:
215,328,272296,6,0,P|295:302|430:278,1,189,12|8,2:1|2:1,2:0:0:0:
399,91,272755,2,0,P|377:143|371:192,1,94.5,8|0,2:0|2:0,2:0:0:0:
214,13,273061,1,8,2:1:0:0:
287,212,273215,1,8,2:1:0:0:
80,162,273368,2,0,P|137:145|190:132,1,94.5,8|8,2:0|2:1,2:0:0:0:
198,127,273597,1,8,2:1:0:0:
198,127,273674,5,8,2:1:0:0:
103,344,273827,1,8,2:1:0:0:
349,284,273980,1,8,2:0:0:0:
183,216,274133,1,0,2:0:0:0:
354,372,274286,2,0,P|408:357|456:347,1,94.5,8|8,2:1|2:1,2:0:0:0:
340,95,274592,2,0,P|333:162|319:206,1,94.5,8|0,2:0|2:0,2:0:0:0:
148,384,274898,6,0,P|117:335|-9:359,2,189,14|8|8,2:0|2:0|2:1,2:0:0:0:
75,183,275664,1,8,2:1:0:0:
225,300,275817,2,0,P|235:246|247:195,1,94.5,8|8,2:0|2:1,2:0:0:0:
249,177,276046,1,8,2:1:0:0:
249,177,276123,5,8,2:1:0:0:
90,47,276276,1,8,2:1:0:0:
53,273,276429,1,8,2:0:0:0:
153,136,276582,1,0,2:0:0:0:
238,313,276735,2,0,P|284:302|336:293,1,94.5,8|8,2:1|2:1,2:0:0:0:
512,146,277041,2,0,P|465:137|419:126,1,94.5,8|0,2:0|2:0,2:0:0:0:
462,375,277347,6,0,P|471:313|484:268,1,94.5,12|0,2:1|2:0,2:0:0:0:
276,117,277653,1,8,2:0:0:0:
374,309,277806,1,8,2:1:0:0:
374,309,277883,1,8,2:1:0:0:
374,309,277959,1,8,2:1:0:0:
144,370,278113,1,8,2:1:0:0:
238,211,278266,2,0,P|250:273|256:316,1,94.5,8|0,2:0|2:0,2:0:0:0:
28,71,278572,5,8,2:1:0:0:
185,142,278725,1,8,2:1:0:0:
40,262,278878,1,8,2:0:0:0:
134,51,279031,1,8,2:1:0:0:
134,51,279107,1,8,2:1:0:0:
134,51,279184,5,8,2:1:0:0:
193,295,279337,1,8,2:1:0:0:
379,137,279490,1,8,2:0:0:0:
129,202,279643,6,0,P|153:273|178:406,1,189,12|8,2:1|2:1,2:0:0:0:
208,117,280102,2,0,P|270:100|317:90,1,94.5,8|0,2:0|2:0,2:0:0:0:
456,134,280408,1,8,2:1:0:0:
306,5,280561,1,8,2:1:0:0:
377,213,280715,2,0,P|398:283|406:328,1,94.5,8|0,2:0|2:0,2:0:0:0:
211,143,281021,5,8,2:1:0:0:
120,352,281174,1,8,2:1:0:0:
0,245,281327,2,0,P|61:234|118:223,1,94.5,8|8,2:0|2:1,2:0:0:0:
122,219,281556,1,8,2:1:0:0:
122,219,281633,5,8,2:1:0:0:
256,368,281786,1,8,2:0:0:0:
329,104,281939,1,8,2:0:0:0:
480,273,282092,6,0,P|417:249|269:225,1,189,12|8,2:1|2:1,2:0:0:0:
166,52,282551,2,0,P|180:108|188:159,1,94.5,8|0,2:0|2:0,2:0:0:0:
66,108,282857,1,8,2:1:0:0:
279,212,283010,1,8,2:1:0:0:
112,343,283164,2,0,P|120:296|132:250,1,94.5,8|0,2:0|2:1,2:0:0:0:
140,222,283393,1,8,2:1:0:0:
140,222,283470,5,8,2:1:0:0:
354,312,283623,1,8,2:1:0:0:
320,95,283776,1,8,2:0:0:0:
244,286,283929,1,0,2:0:0:0:
418,222,284082,2,0,P|471:210|529:204,1,94.5,8|8,2:1|2:1,2:0:0:0:
235,123,284388,2,0,P|182:111|124:105,1,94.5,8|0,2:0|2:0,2:0:0:0:
287,384,284694,6,0,P|295:309|320:161,2,189,14|8|8,2:0|2:0|2:1,2:0:0:0:
201,244,285459,1,8,2:1:0:0:
393,350,285613,2,0,P|444:334|487:323,1,94.5,8|8,2:0|2:1,2:0:0:0:
511,317,285842,1,8,2:1:0:0:
511,317,285919,5,8,2:1:0:0:
317,180,286072,1,8,2:1:0:0:
479,126,286225,2,0,P|457:177|444:227,1,94.5,8|0,2:0|2:0,2:0:0:0:
221,173,286531,1,8,2:1:0:0:
231,127,286607,1,8,2:1:0:0:
263,93,286684,1,8,2:0:0:0:
307,79,286760,1,8,2:0:0:0:
353,89,286837,1,8,2:0:0:0:
422,313,286990,1,8,2:0:0:0:
162,253,287143,6,0,P|92:235|58:229,1,94.5,12|0,2:1|2:0,2:0:0:0:
317,180,287449,1,8,2:0:0:0:
237,384,287602,1,8,2:1:0:0:
237,384,287679,1,8,2:1:0:0:
237,384,287755,1,8,2:1:0:0:
156,229,287908,1,8,2:1:0:0:
370,89,288061,1,8,2:0:0:0:
136,322,288215,6,0,P|128:272|94:115,1,189,14|8,2:0|2:1,2:0:0:0:
254,6,288674,2,0,P|239:66|233:103,1,94.5,8|0,2:0|2:0,2:0:0:0:
349,255,288980,2,0,P|288:240|240:229,1,94.5,8|8,2:1|2:1,2:0:0:0:
118,105,289286,1,8,2:0:0:0:
21,370,289439,6,0,B|83:347|83:347|142:363|142:363|235:335,1,189,12|8,2:1|2:1,2:0:0:0:
411,248,289898,2,0,P|361:240|326:202,1,94.5,8|0,2:0|2:0,2:0:0:0:
372,32,290204,1,8,2:1:0:0:
230,219,290357,1,8,2:1:0:0:
479,322,290510,1,8,2:0:0:0:
411,113,290664,2,0,L|394:181,1,47.25,8|8,2:1|2:1,2:0:0:0:
309,380,290817,5,14,2:0:0:0:
228,106,290970,1,8,2:1:0:0:
59,334,291123,5,14,2:0:0:0:
244,78,291276,1,8,2:1:0:0:
191,317,291429,5,10,2:0:0:0:
56,35,291582,1,10,2:0:0:0:
56,35,291888,6,0,P|104:94|224:69,1,198,12|8,2:1|2:1,2:0:0:0:
421,186,292347,2,0,P|356:168|319:163,1,99,8|0,2:0|2:0,2:0:0:0:
99,312,292653,1,8,2:1:0:0:
237,158,292806,1,8,2:1:0:0:
286,380,292959,2,0,P|276:306|267:260,1,99,8|8,2:0|2:1,2:0:0:0:
266,250,293189,1,8,2:1:0:0:
266,250,293266,5,8,2:1:0:0:
472,330,293419,1,8,2:1:0:0:
441,119,293572,1,8,2:0:0:0:
366,334,293725,1,8,2:1:0:0:
270,76,293878,1,8,2:1:0:0:
408,256,294031,1,8,2:1:0:0:
163,254,294184,2,0,P|218:238|263:228,1,99,8|0,2:0|2:0,2:0:0:0:
68,384,294490,6,0,P|58:301|26:162,2,198,14|8|8,2:0|2:0|2:1,2:0:0:0:
202,162,295255,1,8,2:1:0:0:
297,378,295408,2,0,P|247:361|198:352,1,99,8|8,2:0|2:1,2:0:0:0:
175,343,295638,1,8,2:1:0:0:
175,343,295715,5,8,2:1:0:0:
403,148,295868,1,8,2:1:0:0:
336,300,296021,1,8,2:0:0:0:
189,91,296174,1,8,2:1:0:0:
89,305,296327,1,8,2:1:0:0:
249,169,296480,1,8,2:1:0:0:
389,369,296633,1,8,2:0:0:0:
294,76,296786,1,8,2:1:0:0:
294,76,296863,1,8,2:1:0:0:
294,76,296939,6,0,P|282:140|276:184,1,99,12|0,2:1|2:0,2:0:0:0:
395,4,297245,1,8,2:0:0:0:
189,134,297398,1,8,2:1:0:0:
189,134,297475,1,8,2:1:0:0:
189,134,297551,1,8,2:1:0:0:
416,259,297704,1,8,2:1:0:0:
242,318,297857,2,0,P|189:300|130:284,1,99,8|0,2:0|2:0,2:0:0:0:
13,174,298164,5,8,2:1:0:0:
87,363,298317,1,8,2:1:0:0:
161,91,298470,1,8,2:0:0:0:
125,276,298623,1,8,2:1:0:0:
363,211,298776,5,8,2:1:0:0:
156,68,298929,1,8,2:0:0:0:
173,351,299082,1,8,2:0:0:0:
445,140,299235,6,0,B|396:108|396:108|255:152,1,198,14|8,2:0|2:1,2:0:0:0:
418,321,299694,2,0,P|480:306|519:299,1,99,8|0,2:0|2:0,2:0:0:0:
268,167,300000,1,8,2:1:0:0:
318,383,300153,1,8,2:1:0:0:
154,273,300306,2,0,P|105:282|57:294,1,99,8|0,2:0|2:0,2:0:0:0:
383,196,300613,5,8,2:1:0:0:
206,354,300766,1,8,2:1:0:0:
169,75,300919,1,12,2:0:0:0:
316,294,301072,1,8,2:1:0:0:
42,188,301225,5,8,2:1:0:0:
51,152,301301,1,8,2:1:0:0:
60,116,301378,1,8,2:0:0:0:
68,79,301454,1,8,2:0:0:0:
74,43,301531,1,8,2:0:0:0:
191,199,301684,1,8,2:0:0:0:
434,85,301837,6,0,P|404:40|292:36,1,148.5,12|0,2:1|2:0,2:0:0:0:
242,124,302143,2,0,P|316:108|354:100,1,99,8|0,2:0|2:0,2:0:0:0:
512,310,302449,1,8,2:1:0:0:
317,201,302602,1,8,2:1:0:0:
425,384,302755,2,0,P|420:320|414:279,1,99,8|8,2:0|2:1,2:0:0:0:
411,253,302985,1,8,2:1:0:0:
411,253,303061,5,8,2:1:0:0:
198,327,303215,1,8,2:1:0:0:
259,131,303368,1,8,2:0:0:0:
314,312,303521,1,8,2:1:0:0:
237,50,303674,1,8,2:1:0:0:
150,253,303827,1,8,2:1:0:0:
381,148,303980,2,0,P|440:134|492:129,1,99,8|0,2:0|2:0,2:0:0:0:
198,327,304286,6,0,P|104:335|61:238,2,198,14|8|8,2:0|2:0|2:1,2:0:0:0:
87,105,305051,1,8,2:1:0:0:
200,216,305204,2,0,P|214:139|222:100,1,99,8|8,2:0|2:1,2:0:0:0:
226,93,305434,1,8,2:1:0:0:
226,93,305510,5,8,2:1:0:0:
54,214,305664,1,8,2:1:0:0:
145,18,305817,1,8,2:0:0:0:
329,154,305970,1,8,2:1:0:0:
203,370,306123,1,8,2:1:0:0:
167,361,306199,1,8,2:1:0:0:
140,336,306276,1,8,2:0:0:0:
128,302,306352,1,8,2:0:0:0:
134,265,306429,2,0,B|185:233|185:233|303:268,1,148.5,12|0,2:0|2:0,2:0:0:0:
319,325,306735,6,0,L|428:306,1,99,12|0,2:1|2:0,2:0:0:0:
467,114,307041,1,8,2:0:0:0:
359,230,307194,1,8,2:1:0:0:
359,230,307271,1,8,2:1:0:0:
359,230,307347,1,8,2:1:0:0:
507,306,307500,1,8,2:1:0:0:
328,101,307653,1,8,2:0:0:0:
161,379,307806,6,0,B|122:329|122:329|150:198,1,198,14|8,2:0|2:1,2:0:0:0:
424,319,308266,2,0,P|377:335|324:341,1,99,8|0,2:0|2:0,2:0:0:0:
297,108,308572,1,8,2:1:0:0:
213,308,308725,1,8,2:1:0:0:
137,35,308878,1,8,2:0:0:0:
318,226,309031,6,0,P|382:208|523:185,1,198,12|8,2:1|2:1,2:0:0:0:
338,6,309490,1,8,2:0:0:0:
216,176,309643,1,8,2:0:0:0:
221,200,309720,1,8,2:0:0:0:
226,224,309796,5,8,2:3:0:0:
68,125,309949,1,4,2:3:0:0:
8,371,310102,1,4,2:3:0:0:
124,216,310255,1,8,2:1:0:0:
292,377,310408,5,10,2:0:0:0:
179,76,310561,1,10,2:0:0:0:
98,349,311021,5,10,2:0:0:0:
419,192,311174,1,10,2:0:0:0:
259,271,311480,5,12,2:1:0:0:
256,192,311556,12,0,318750,2:0:0:0:
256,192,318827,12,0,320740,2:0:0:0:
