osu file format v14

[General]
AudioFilename: audio.mp3
AudioLeadIn: 0
PreviewTime: 129796
Countdown: 0
SampleSet: Soft
StackLeniency: 0.7
Mode: 2
LetterboxInBreaks: 0
WidescreenStoryboard: 0

[Editor]
Bookmarks: 20051,39643,61684,81276,102857,122908,144949,164541,178164,194082,211072,225306,239694,252704,272296,291888,311480
DistanceSpacing: 1
BeatDivisor: 4
GridSize: 32
TimelineZoom: 2.3

[Metadata]
Title:7 Senses
TitleUnicode:7 Senses
Artist:Wake Up, Girls!
ArtistUnicode:Wake Up, Girls!
Creator:Aryssiel
Version:Wake Up, Go!
Source:Wake Up, Girls! 新章
Tags:anime op opening full size wug! shin shou japanese pop jpop j-pop Tanaka Hidekazu 田中秀和 Tadano Natsumi 只野菜摘 高木美佑 たかぎ みゆ Miyu Takagi 山下七海 やました ななみ Nanami Yamashita 田中 美海 たなか みなみ Minami Tanaka 吉岡茉祐 よしおか まゆ mayu yoshioka 永野愛理 えいの あいり airi eino 奥野 香耶 おくの かや kaya okuno 青山吉能 あおやま よしの Yoshino Aoyama -vale seija bastian jorkseljund otudou
BeatmapID:4076711
BeatmapSetID:1965977

[Difficulty]
HPDrainRate:5
CircleSize:4
OverallDifficulty:9.4
ApproachRate:9.4
SliderMultiplier:2
SliderTickRate:2

[Events]
//Background and Video events
0,0,"bg.jpg",0,0
//Break Periods
2,212143,218950
//Storyboard Layer 0 (Background)
//Storyboard Layer 1 (Fail)
//Storyboard Layer 2 (Pass)
//Storyboard Layer 3 (Foreground)
//Storyboard Layer 4 (Overlay)
//Storyboard Sound Samples

[TimingPoints]
613,306.122448979592,4,2,1,60,1,0
2602,-100,4,2,2,60,0,0
2607,-100,4,2,1,60,0,0
2755,-100,4,2,22,60,0,0
3061,-100,4,2,1,60,0,0
9184,-100,4,2,2,60,0,0
9490,-100,4,2,1,60,0,0
9796,-100,4,2,2,60,0,0
10102,-100,4,2,1,60,0,0
14082,-100,4,2,2,60,0,0
14388,-100,4,2,1,60,0,0
14694,-100,4,2,2,60,0,0
15000,-100,4,2,1,60,0,0
15306,-100,4,2,2,60,0,0
15459,-100,4,2,1,60,0,0
17755,-100,4,2,2,60,0,0
18061,-100,4,2,1,60,0,0
21276,-100,4,2,2,60,0,0
21582,-100,4,2,1,60,0,0
23725,-100,4,2,2,60,0,0
24031,-100,4,2,1,60,0,0
25102,-100,4,2,2,60,0,0
25561,-100,4,2,1,60,0,0
29847,-100,4,2,2,60,0,0
30153,-100,4,2,1,60,0,0
34745,-100,4,2,2,60,0,0
35051,-100,4,2,1,60,0,0
40868,-100,4,2,2,60,0,0
41174,-100,4,2,1,60,0,0
43470,-100,4,2,2,60,0,0
43776,-100,4,2,1,60,0,0
45919,-100,4,2,2,60,0,0
46531,-100,4,2,1,60,0,0
46990,-100,4,2,1,60,0,1
49439,-100,4,2,2,60,0,1
49745,-100,4,2,1,60,0,1
54490,-100,4,2,2,60,0,1
54796,-100,4,2,1,60,0,1
59235,-100,4,2,2,60,0,1
59541,-100,4,2,1,60,0,1
62755,-100,4,2,3,60,0,1
62760,-100,4,2,1,60,0,1
62908,-100,4,2,2,60,0,1
63214,-100,4,2,1,60,0,1
68878,-100,4,2,3,60,0,1
68883,-100,4,2,1,60,0,1
69031,-100,4,2,2,60,0,1
69337,-100,4,2,1,60,0,1
71480,-100,4,2,2,60,0,1
71786,-100,4,2,1,60,0,1
74082,-100,4,2,2,60,0,1
74388,-100,4,2,1,60,0,1
78827,-100,4,2,2,60,0,1
79133,-100,4,2,1,60,0,1
80357,-100,4,2,1,60,0,1
80362,-100,4,2,1,60,0,1
82500,-100,4,2,2,60,0,1
82806,-100,4,2,1,60,0,1
83725,-100,4,2,2,60,0,1
84031,-100,4,2,1,60,0,1
86327,-100,4,2,1,60,0,0
91225,-100,4,2,2,60,0,0
91378,-100,4,2,1,60,0,0
92449,-100,4,2,2,60,0,0
92755,-100,4,2,1,60,0,0
93061,-100,4,2,2,60,0,0
93368,-100,4,2,1,60,0,0
97347,-100,4,2,2,60,0,0
97653,-100,4,2,1,60,0,0
97959,-100,4,2,2,60,0,0
98266,-100,4,2,1,60,0,0
98572,-100,4,2,2,60,0,0
98725,-100,4,2,1,60,0,0
104541,-100,4,2,2,60,0,0
104847,-100,4,2,1,60,0,0
105766,-100,4,2,2,60,0,0
106072,-100,4,2,1,60,0,0
113113,-100,4,2,2,60,0,0
113419,-100,4,2,1,60,0,0
118010,-100,4,2,2,60,0,0
118316,-100,4,2,1,60,0,0
118776,-100,4,2,2,60,0,0
119235,-100,4,2,1,60,0,0
123980,-100,4,2,3,60,0,0
123985,-100,4,2,1,60,0,0
124133,-100,4,2,2,60,0,0
124439,-100,4,2,1,60,0,0
127500,-100,4,2,4,60,0,0
127505,-100,4,2,1,60,0,0
129337,-100,4,2,2,60,0,0
129342,-100,4,2,1,60,0,0
130255,-100,4,2,1,60,0,1
132704,-100,4,2,2,60,0,1
133010,-100,4,2,1,60,0,1
137755,-100,4,2,2,60,0,1
138061,-100,4,2,1,60,0,1
142500,-100,4,2,2,60,0,1
142806,-100,4,2,1,60,0,1
146174,-100,4,2,2,60,0,1
146480,-100,4,2,1,60,0,1
152296,-100,4,2,2,60,0,1
152602,-100,4,2,1,60,0,1
157347,-100,4,2,2,60,0,1
157653,-100,4,2,1,60,0,1
162092,-100,4,2,2,60,0,1
162398,-100,4,2,1,60,0,1
165766,-100,4,2,2,60,0,1
166072,-100,4,2,1,60,0,1
166990,-100,4,2,2,60,0,1
167296,-100,4,2,1,60,0,1
169592,-100,4,2,1,60,0,0
171735,-100,4,2,22,60,0,0
172041,-100,4,2,1,60,0,0
176633,-100,4,2,22,60,0,0
176939,-100,4,2,1,60,0,0
180000,-100,4,2,2,60,0,0
180306,-100,4,2,1,60,0,0
180459,-100,4,2,2,60,0,0
180766,-100,4,2,4,60,0,0
180771,-100,4,2,1,60,0,0
180919,-100,4,2,1,60,0,0
181225,-100,4,2,2,60,0,0
181531,-100,4,2,1,60,0,0
181684,-100,4,2,2,60,0,0
181990,-100,4,2,1,60,0,0
182449,-100,4,2,2,60,0,0
182755,-100,4,2,1,60,0,0
183061,-100,4,2,2,60,0,0
183368,-100,4,2,1,60,0,0
183674,-100,4,2,2,60,0,0
183980,-100,4,2,1,60,0,0
184898,-100,4,2,2,60,0,0
185204,-100,4,2,1,60,0,0
185510,-100,4,2,2,60,0,0
185817,-100,4,2,1,60,0,0
186123,-100,4,2,2,60,0,0
186429,-100,4,2,1,60,0,0
186582,-100,4,2,2,60,0,0
187041,-100,4,2,1,60,0,0
187347,-100,4,2,2,60,0,0
187653,-100,4,2,1,60,0,0
187959,-100,4,2,2,60,0,0
188266,-100,4,2,1,60,0,0
189796,-100,4,2,2,60,0,0
190102,-100,4,2,1,60,0,0
190408,-100,4,2,2,60,0,0
190715,-100,4,2,1,60,0,0
191021,-100,4,2,2,60,0,0
191327,-100,4,2,1,60,0,0
191480,-100,4,2,2,60,0,0
191939,-100,4,2,1,60,0,0
192245,-100,4,2,2,60,0,0
192551,-100,4,2,1,60,0,0
192857,-100,4,2,2,60,0,0
193164,-100,4,2,1,60,0,0
193470,-100,4,2,2,60,0,0
193776,-100,4,2,1,60,0,0
194694,-100,4,2,2,60,0,0
195459,-100,4,2,1,60,0,0
195919,-100,4,2,2,60,0,0
196225,-100,4,2,1,60,0,0
198519,-66.6666666666667,4,2,1,60,0,0
199131,-100,4,2,1,60,0,0
201123,-100,4,2,3,60,0,0
201128,-100,4,2,1,60,0,0
201276,-100,4,2,2,60,0,0
201582,-100,4,2,1,60,0,0
203725,-100,4,2,2,60,0,0
204031,-100,4,2,1,60,0,0
207551,-100,4,2,2,60,0,0
207704,-100,4,2,1,60,0,0
208776,-100,4,2,2,60,0,0
209082,-100,4,2,1,60,0,0
211070,-111.111111111111,4,2,1,60,0,0
220868,-111.111111111111,4,2,2,60,0,0
223317,-111.111111111111,4,2,1,60,0,0
228215,-111.111111111111,4,2,2,60,0,0
228980,-111.111111111111,4,2,1,60,0,0
229439,-111.111111111111,4,2,2,60,0,0
230204,-111.111111111111,4,2,1,60,0,0
230664,-111.111111111111,4,2,2,60,0,0
231123,-111.111111111111,4,2,1,60,0,0
231888,-47.6190476190476,4,2,1,60,0,0
232194,-111.111111111111,4,2,1,60,0,0
233113,-90.9090909090909,4,2,1,60,0,1
235561,-90.9090909090909,4,2,2,60,0,1
235867,-90.9090909090909,4,2,1,60,0,1
240613,-90.9090909090909,4,2,2,60,0,1
240766,-90.9090909090909,4,2,1,60,0,1
240919,-90.9090909090909,4,2,1,60,0,1
244439,-90.9090909090909,4,2,4,60,0,1
244444,-90.9090909090909,4,2,1,60,0,1
245357,-90.9090909090909,4,2,2,60,0,1
245663,-90.9090909090909,4,2,1,60,0,1
249031,-90.9090909090909,4,2,2,60,0,1
249337,-90.9090909090909,4,2,1,60,0,1
250255,-90.9090909090909,4,2,2,60,0,1
250561,-90.9090909090909,4,2,1,60,0,1
251939,-90.9090909090909,4,2,2,60,0,1
252245,-90.9090909090909,4,2,1,60,0,1
255153,-90.9090909090909,4,2,2,60,0,1
255459,-90.9090909090909,4,2,1,60,0,1
260051,-90.9090909090909,4,2,2,60,0,1
260510,-90.9090909090909,4,2,1,60,0,1
264031,-90.9090909090909,4,2,4,60,0,1
264036,-90.9090909090909,4,2,1,60,0,1
264949,-90.9090909090909,4,2,2,60,0,1
265255,-90.9090909090909,4,2,1,60,0,1
268623,-90.9090909090909,4,2,2,60,0,1
268929,-90.9090909090909,4,2,1,60,0,1
269847,-90.9090909090909,4,2,2,60,0,1
270153,-90.9090909090909,4,2,1,60,0,1
271225,-90.9090909090909,4,2,1,60,0,0
272296,-100,4,2,1,60,0,1
274898,-100,4,2,2,60,0,1
275204,-100,4,2,1,60,0,1
284694,-100,4,2,2,60,0,1
285000,-100,4,2,1,60,0,1
288215,-100,4,2,2,60,0,1
288521,-100,4,2,1,60,0,1
291888,-90.9090909090909,4,2,1,60,0,1
293419,-90.9090909090909,4,2,4,60,0,1
293424,-90.9090909090909,4,2,1,60,0,1
294490,-90.9090909090909,4,2,2,60,0,1
294796,-90.9090909090909,4,2,1,60,0,1
299235,-90.9090909090909,4,2,2,60,0,1
299541,-90.9090909090909,4,2,1,60,0,1
304286,-90.9090909090909,4,2,2,60,0,1
304592,-90.9090909090909,4,2,1,60,0,1
307347,-90.9090909090909,4,2,4,60,0,1
307352,-90.9090909090909,4,2,1,60,0,1
307806,-90.9090909090909,4,2,2,60,0,1
308113,-90.9090909090909,4,2,1,60,0,1
311480,-100,4,2,1,60,0,0

[Colours]
Combo1 : 191,135,201
Combo2 : 118,122,205
Combo3 : 235,187,97
Combo4 : 165,210,119

[HitObjects]
83,320,613,5,8,2:0:0:0:
362,320,766,1,8,2:0:0:0:
362,191,1072,1,8,2:0:0:0:
82,191,1225,1,8,2:0:0:0:
362,191,1531,1,8,2:0:0:0:
82,191,1684,1,8,2:0:0:0:
83,320,1990,1,8,2:0:0:0:
362,320,2143,1,8,2:0:0:0:
92,321,2449,2,0,P|27:241|72:126,1,200,2|4,2:0|2:0,0:0:0:0:
429,320,3061,5,8,2:0:0:0:
150,320,3215,1,8,2:0:0:0:
150,191,3521,1,8,2:0:0:0:
430,191,3674,1,8,2:0:0:0:
150,191,3980,1,8,2:0:0:0:
430,191,4133,1,8,2:0:0:0:
59,338,4439,6,0,L|48:215,1,100,2|2,2:0|2:0,0:0:0:0:
150,238,4745,1,2,2:0:0:0:
389,238,4898,2,0,L|448:238,1,50,2|0,2:0|0:0,2:0:0:0:
220,238,5051,2,0,L|157:238,1,50,8|0,2:1|0:0,0:0:0:0:
389,238,5204,2,0,L|495:238,1,100,14|0,2:0|0:0,2:0:0:0:
96,330,5510,6,0,L|86:222,1,100,8|8,2:1|2:1,0:0:0:0:
237,229,5817,1,8,2:0:0:0:
87,230,5970,1,0,2:0:0:0:
326,230,6123,2,0,L|346:123,1,100,2|2,2:0|2:0,0:0:0:0:
244,131,6429,1,8,2:0:0:0:
393,131,6582,1,0,2:0:0:0:
133,131,6735,6,0,L|115:246,1,100,8|8,2:1|2:1,2:0:0:0:
267,229,7041,2,0,L|287:330,1,100,8|0,2:0|2:0,2:0:0:0:
136,327,7347,2,0,L|18:327,1,100,2|2,2:0|2:0,2:0:0:0:
275,327,7653,2,0,L|414:327,1,100,8|0,2:0|2:0,2:0:0:0:
115,327,7959,6,0,L|2:327,2,100,8|0|8,2:1|0:0|2:0,2:0:0:0:
265,327,8419,2,0,P|263:247|158:200,1,200,0|0,2:0|2:0,2:0:0:0:
14,198,8878,1,8,2:0:0:0:
164,198,9031,1,0,2:0:0:0:
403,198,9184,6,0,L|295:198,1,100,10|10,2:0|2:0,0:0:0:0:
452,198,9490,2,0,L|461:64,1,100,8|0,2:0|2:0,2:0:0:0:
218,98,9796,1,10,2:0:0:0:
367,98,9949,1,10,2:0:0:0:
107,98,10102,2,0,L|-14:98,1,100,8|0,2:0|2:0,2:0:0:0:
286,98,10408,6,0,L|296:214,1,100,8|8,2:1|2:1,0:0:0:0:
143,197,10715,1,8,2:0:0:0:
294,197,10868,1,0,2:0:0:0:
62,197,11021,2,0,L|43:86,1,100,2|2,2:0|2:0,0:0:0:0:
285,98,11327,1,8,2:0:0:0:
135,98,11480,1,0,2:0:0:0:
364,98,11633,6,0,L|384:208,1,100,8|8,2:1|2:1,2:0:0:0:
231,196,11939,2,0,L|93:196,1,100,8|0,2:0|2:0,2:0:0:0:
281,196,12245,2,0,L|421:196,1,100,2|2,2:0|2:0,2:0:0:0:
141,196,12551,2,0,L|21:196,1,100,8|0,2:0|2:0,2:0:0:0:
300,196,12857,6,0,L|425:196,2,100,8|0|8,2:1|0:0|2:0,2:0:0:0:
149,196,13317,2,0,L|362:196,1,200,0|0,2:0|2:0,2:0:0:0:
199,195,13776,2,0,L|184:94,1,100,8|0,2:0|2:0,2:0:0:0:
444,96,14082,6,0,L|472:215,1,100,10|10,2:0|2:0,0:0:0:0:
316,193,14388,1,8,2:0:0:0:
465,193,14541,1,0,2:0:0:0:
225,193,14694,2,0,L|355:193,1,100,10|10,2:0|2:0,0:0:0:0:
85,193,15000,2,0,L|58:304,1,100,8|0,2:0|2:0,2:0:0:0:
341,290,15306,5,8,2:0:0:0:
191,290,15459,1,8,2:1:0:0:
341,290,15613,1,8,2:0:0:0:
101,290,15766,2,0,P|99:226|217:162,1,200,0|0,2:0|2:0,2:0:0:0:
353,159,16225,1,8,2:0:0:0:
203,159,16378,1,0,2:0:0:0:
482,159,16531,6,0,L|486:43,1,100,8|8,2:1|2:1,2:0:0:0:
335,59,16837,1,8,2:0:0:0:
484,59,16990,1,0,2:0:0:0:
334,59,17143,2,0,L|194:59,1,100,2|2,2:0|2:0,2:0:0:0:
473,59,17449,2,0,L|485:177,1,100,8|0,2:0|2:0,2:0:0:0:
163,158,17755,5,10,2:0:0:0:
312,158,17908,1,10,2:0:0:0:
162,158,18061,2,0,L|53:158,1,100,8|0,2:0|0:0,0:0:0:0:
349,158,18368,2,0,L|453:158,1,100,2|2,2:0|2:0,2:0:0:0:
299,158,18674,2,0,L|188:158,1,100,8|0,2:0|0:0,0:0:0:0:
458,157,18980,5,8,2:1:0:0:
308,157,19133,1,8,2:1:0:0:
457,157,19286,2,0,L|474:276,1,100,10|0,2:0|0:0,2:0:0:0:
170,253,19592,1,10,2:0:0:0:
431,253,19745,1,10,2:0:0:0:
30,255,20051,6,0,L|266:255,1,200,12|8,2:1|2:1,2:0:0:0:
480,214,20510,2,0,P|395:205|247:226,1,200,8|8,2:0|2:1,2:0:0:0:
402,143,20970,1,8,2:1:0:0:
245,109,21123,1,8,2:0:0:0:
495,66,21276,6,0,P|421:71|283:98,1,200,14|8,2:0|2:1,2:0:0:0:
140,126,21735,2,0,L|118:237,1,100,8|0,2:0|2:0,2:0:0:0:
246,238,22041,1,8,2:1:0:0:
91,303,22194,2,0,L|208:303,1,100,8|8,2:1|2:0,2:0:0:0:
442,282,22500,6,0,P|504:264|433:201,1,200,12|8,2:1|2:1,2:0:0:0:
186,189,22959,2,0,P|118:137|197:96,1,200,8|8,2:0|2:1,2:0:0:0:
326,97,23419,1,8,2:1:0:0:
173,144,23572,1,8,2:0:0:0:
424,216,23725,6,0,L|190:214,1,200,14|8,2:0|2:1,2:0:0:0:
364,147,24184,1,8,2:0:0:0:
114,55,24337,1,8,2:1:0:0:
265,108,24490,1,10,2:0:0:0:
273,249,24643,1,8,2:3:0:0:
114,295,24796,1,4,2:3:0:0:
278,307,24949,5,8,2:1:0:0:
24,317,25102,2,0,L|246:319,1,200,14|0,2:0|2:0,2:0:0:0:
106,239,25561,1,8,2:1:0:0:
357,194,25715,1,8,2:0:0:0:
130,212,26021,2,0,L|42:270,1,100,0|8,2:1|2:1,0:0:0:0:
298,267,26327,6,0,P|352:267|487:187,1,200,8|8,2:0|2:1,2:0:0:0:
357,156,26786,1,0,0:0:0:0:
511,131,26939,1,8,2:0:0:0:
259,123,27092,1,8,2:1:0:0:
490,96,27398,6,0,P|460:188|379:236,1,150,12|0,2:1|0:0,2:0:0:0:
357,229,27704,1,8,2:1:0:0:
475,186,27857,1,8,2:1:0:0:
308,133,28010,1,0,2:0:0:0:
308,133,28164,1,8,2:0:0:0:
454,82,28317,1,0,0:0:0:0:
307,59,28470,1,0,2:0:0:0:
160,40,28623,1,8,2:1:0:0:
411,136,28776,6,0,P|485:175|405:229,1,200,8|8,2:0|2:1,2:0:0:0:
296,242,29235,1,0,2:0:0:0:
456,279,29388,1,8,2:0:0:0:
195,306,29541,1,8,2:1:0:0:
431,203,29847,6,0,L|434:96,1,100,14|0,2:0|0:0,2:0:0:0:
183,81,30153,1,8,2:0:0:0:
322,93,30306,2,0,L|346:238,1,100,8|0,2:1|2:0,2:0:0:0:
85,239,30613,2,0,L|298:234,1,200,14|0,2:0|2:0,2:0:0:0:
137,157,31072,5,8,2:1:0:0:
388,130,31225,2,0,P|435:162|385:226,1,150,8|0,2:0|0:0,2:0:0:0:
182,235,31531,2,0,L|173:125,1,100,8|0,2:1|2:0,2:0:0:0:
425,104,31837,1,8,2:0:0:0:
275,101,31990,2,0,L|254:226,1,100,8|0,2:1|0:0,2:0:0:0:
508,233,32296,6,0,L|287:234,1,200,12|8,2:1|2:0,2:0:0:0:
421,182,32755,1,8,2:1:0:0:
169,162,32908,1,0,2:0:0:0:
423,101,33061,2,0,L|276:105,1,100,14|0,2:0|0:0,2:0:0:0:
172,106,33368,2,0,L|100:106,1,50,0|0,2:0|0:0,0:0:0:0:
322,124,33521,5,8,2:1:0:0:
467,196,33674,1,8,2:0:0:0:
469,329,33827,1,8,2:1:0:0:
326,356,33980,1,8,2:3:0:0:
473,292,34133,1,8,2:1:0:0:
223,258,34286,1,8,2:3:0:0:
343,231,34439,1,4,2:3:0:0:
390,183,34516,1,0,0:0:0:0:
387,126,34592,1,8,2:1:0:0:
329,93,34669,1,0,2:0:0:0:
133,88,34745,6,0,P|69:130|149:198,1,200,14|8,2:0|2:1,2:0:0:0:
271,209,35204,1,8,2:1:0:0:
112,271,35357,1,0,2:0:0:0:
362,291,35510,1,8,2:0:0:0:
136,184,35817,6,0,P|78:159|128:78,1,150,0|0,2:0|2:0,2:0:0:0:
166,65,36123,2,0,L|326:64,1,150,8|0,2:0|2:0,2:0:0:0:
152,128,36429,2,0,L|148:249,1,100,8|0,2:1|0:0,2:0:0:0:
401,296,36735,1,10,2:0:0:0:
267,300,36888,2,0,L|232:179,1,100,8|0,2:1|0:0,0:0:0:0:
490,168,37194,6,0,L|276:166,1,200,12|8,2:1|2:1,2:0:0:0:
347,137,37577,1,0,0:0:0:0:
405,131,37653,1,8,2:1:0:0:
252,144,37806,1,0,2:0:0:0:
502,250,37959,1,8,2:0:0:0:
240,276,38266,1,0,2:0:0:0:
388,226,38419,6,0,L|387:170,1,50,8|8,2:1|2:1,0:0:0:0:
172,143,38572,2,0,L|52:143,1,100,8|8,2:0|2:1,0:0:0:0:
312,67,38878,2,0,L|198:66,1,100,8|8,2:0|2:1,0:0:0:0:
457,328,39184,1,8,2:0:0:0:
207,216,39337,1,8,2:0:0:0:
343,195,39490,1,4,2:3:0:0:
95,120,39643,6,0,L|304:120,1,200,12|8,2:1|2:1,2:0:0:0:
145,120,40102,2,0,L|127:21,1,100,8|0,2:0|2:0,2:0:0:0:
277,21,40408,1,8,2:1:0:0:
127,21,40561,2,0,L|19:21,1,100,8|8,2:1|2:0,0:0:0:0:
278,21,40868,6,0,P|373:21|415:112,1,200,14|8,2:0|2:1,2:0:0:0:
265,105,41327,1,8,2:0:0:0:
414,105,41480,1,0,2:0:0:0:
264,105,41633,2,0,L|245:220,1,100,8|8,2:1|2:1,0:0:0:0:
397,203,41939,1,8,2:0:0:0:
106,202,42092,6,0,L|314:202,1,200,12|8,2:1|2:1,2:0:0:0:
156,202,42551,2,0,L|54:202,2,100,8|0|8,2:0|2:0|2:1,2:0:0:0:
405,202,43010,1,8,2:1:0:0:
254,202,43164,1,8,2:0:0:0:
104,202,43317,1,0,2:0:0:0:
353,202,43470,6,0,L|227:202,1,100,14|0,2:0|2:0,2:0:0:0:
402,202,43776,2,0,L|421:318,1,100,8|0,2:0|2:0,2:0:0:0:
168,285,44082,2,0,L|54:285,1,100,8|8,2:1|2:1,2:0:0:0:
317,285,44388,2,0,L|430:285,1,100,8|8,2:0|2:1,2:0:0:0:
101,284,44694,5,12,2:0:0:0:
240,284,44847,1,8,2:1:0:0:
22,284,45000,1,8,2:0:0:0:
161,284,45153,1,8,2:1:0:0:
438,223,45306,6,0,L|370:223,1,50,8|8,2:0|2:0,0:0:0:0:
133,221,45459,2,0,L|196:221,1,50,8|8,2:0|2:0,0:0:0:0:
349,223,45613,2,0,L|427:223,1,50,8|8,2:0|2:0,0:0:0:0:
177,223,45766,2,0,L|115:223,1,50,8|8,2:0|2:0,2:0:0:0:
438,223,45919,5,14,2:0:0:0:
143,333,46531,1,8,2:0:0:0:
451,333,46684,1,8,2:0:0:0:
82,333,46990,6,0,L|297:333,1,200,12|8,2:1|2:1,2:0:0:0:
132,333,47449,2,0,L|110:215,1,100,8|0,2:0|2:0,2:0:0:0:
353,234,47755,1,8,2:1:0:0:
203,234,47908,1,8,2:1:0:0:
352,234,48061,2,0,L|363:117,1,100,8|0,2:0|2:0,2:0:0:0:
109,134,48368,6,0,L|219:134,1,100,8|0,2:1|2:0,2:0:0:0:
358,134,48674,2,0,L|246:134,1,100,8|0,2:0|2:0,2:0:0:0:
401,131,48980,1,8,2:1:0:0:
180,131,49133,1,8,2:1:0:0:
401,131,49286,1,8,2:0:0:0:
79,131,49439,6,0,L|290:131,1,200,14|8,2:0|2:1,2:0:0:0:
129,131,49898,1,8,2:0:0:0:
278,131,50051,1,0,2:0:0:0:
37,134,50204,2,0,L|26:248,1,100,8|8,2:1|2:1,2:0:0:0:
277,233,50510,1,8,2:0:0:0:
126,233,50664,1,0,2:0:0:0:
411,234,50817,6,0,L|429:337,1,100,8|0,2:1|2:0,2:0:0:0:
194,336,51123,2,0,L|306:336,1,100,8|0,2:0|2:0,2:0:0:0:
66,335,51429,1,8,2:1:0:0:
205,335,51582,1,8,2:1:0:0:
344,335,51735,1,8,2:0:0:0:
54,337,51888,6,0,P|53:250|160:200,1,200,12|0,2:1|2:0,2:0:0:0:
401,196,52347,1,8,2:0:0:0:
251,190,52500,2,0,L|241:85,1,100,0|0,2:1|0:0,2:0:0:0:
391,90,52806,1,8,2:1:0:0:
141,90,52959,2,0,L|26:90,1,100,8|0,2:0|2:0,2:0:0:0:
345,90,53266,6,0,L|361:192,1,100,8|0,2:1|2:0,2:0:0:0:
53,327,53572,2,0,L|34:214,1,100,8|0,2:0|2:0,2:0:0:0:
275,225,53878,1,8,2:1:0:0:
135,225,54031,1,8,2:1:0:0:
353,226,54184,1,8,2:0:0:0:
78,225,54337,1,0,2:0:0:0:
408,225,54490,6,0,L|192:225,1,200,14|8,2:0|2:0,2:0:0:0:
458,226,54949,2,0,L|461:11,1,200,0|8,2:0|2:1,2:0:0:0:
187,27,55408,1,8,2:0:0:0:
336,27,55561,1,0,2:0:0:0:
114,32,55715,6,0,L|99:145,1,100,8|8,2:1|2:1,2:0:0:0:
323,140,56021,2,0,L|438:140,1,100,12|8,2:0|2:1,0:0:0:0:
120,306,56327,2,0,L|104:225,1,50,8|8,2:0|2:0,0:0:0:0:
320,251,56480,2,0,L|385:251,1,50,8|8,2:3|2:3,0:0:0:0:
101,243,56633,2,0,L|40:243,1,50,4|6,2:3|2:3,0:0:0:0:
370,251,56786,6,0,P|429:189|326:124,1,200,12|8,2:1|2:1,2:0:0:0:
216,114,57245,1,8,2:0:0:0:
365,114,57398,1,0,2:0:0:0:
122,114,57551,2,0,L|101:13,1,100,8|8,2:1|2:1,2:0:0:0:
316,11,57857,1,8,2:0:0:0:
176,12,58010,1,0,2:0:0:0:
436,18,58164,6,0,L|450:119,1,100,8|0,2:1|2:0,2:0:0:0:
224,118,58470,2,0,L|123:118,1,100,8|0,2:0|2:0,2:0:0:0:
375,115,58776,1,8,2:1:0:0:
235,115,58929,1,8,2:1:0:0:
482,115,59082,1,8,2:0:0:0:
148,112,59235,6,0,L|355:112,1,200,14|8,2:0|2:1,2:0:0:0:
198,112,59694,2,0,L|85:112,1,100,8|0,2:0|2:0,2:0:0:0:
313,113,60000,2,0,L|421:113,1,100,8|8,2:1|2:1,0:0:0:0:
146,124,60306,2,0,L|135:231,1,100,8|0,2:0|2:0,2:0:0:0:
456,323,60613,6,0,L|342:323,1,100,8|0,2:1|2:0,2:0:0:0:
118,323,60919,2,0,L|97:200,1,100,8|8,2:0|2:1,0:0:0:0:
353,220,61225,1,8,2:1:0:0:
92,217,61378,2,0,L|208:217,1,100,8|8,2:3|2:1,0:0:0:0:
467,311,61684,6,0,P|462:275|300:206,1,200,12|8,2:1|2:1,2:0:0:0:
174,189,62143,1,8,2:0:0:0:
330,144,62296,1,0,2:0:0:0:
85,102,62449,1,8,2:1:0:0:
226,101,62602,2,0,P|278:144|230:204,1,150,8|0,2:1|0:0,0:0:0:0:
25,225,62908,6,0,L|240:222,1,200,14|8,2:0|2:1,2:0:0:0:
86,152,63368,2,0,L|73:282,1,100,8|0,2:0|2:0,2:0:0:0:
221,262,63674,1,8,2:1:0:0:
76,263,63827,2,0,L|70:141,1,100,8|8,2:1|2:0,0:0:0:0:
304,149,64133,6,0,P|382:147|456:37,1,200,12|8,2:1|2:1,2:0:0:0:
304,52,64592,2,0,L|413:53,1,100,8|0,2:0|2:0,2:0:0:0:
254,189,64898,2,0,L|134:190,1,100,8|8,2:1|2:1,0:0:0:0:
374,283,65204,2,0,L|492:287,1,100,8|8,2:0|2:1,0:0:0:0:
419,278,65434,1,8,2:1:0:0:
138,261,65510,6,0,L|22:261,1,100,8|8,2:0|2:1,0:0:0:0:
207,330,65817,2,0,L|72:332,1,100,12|8,2:0|2:1,0:0:0:0:
367,273,66123,1,8,2:0:0:0:
141,259,66276,2,0,L|125:80,1,150,8|0,2:0|0:0,0:0:0:0:
357,142,66582,6,0,P|406:142|502:37,1,200,12|8,2:1|2:1,2:0:0:0:
333,36,67041,2,0,L|332:159,1,100,8|0,2:0|2:0,2:0:0:0:
472,154,67347,1,8,2:1:0:0:
335,153,67500,1,8,2:1:0:0:
185,149,67653,2,0,L|166:279,1,100,8|0,2:0|2:0,2:0:0:0:
422,296,67959,6,0,L|246:294,1,150,8|0,2:1|0:0,2:0:0:0:
461,298,68266,2,0,L|475:183,1,100,8|0,2:0|2:0,2:0:0:0:
313,158,68572,1,8,2:1:0:0:
448,153,68725,2,0,P|494:113|441:56,1,150,8|0,2:1|0:0,0:0:0:0:
182,44,69031,6,0,P|141:45|192:136,1,200,12|8,2:0|2:1,2:0:0:0:
338,142,69490,2,0,L|480:143,1,100,8|0,2:0|2:0,2:0:0:0:
269,223,69796,1,8,2:1:0:0:
404,225,69949,1,8,2:1:0:0:
258,337,70102,2,0,L|140:334,1,100,8|0,2:0|2:0,0:0:0:0:
408,342,70408,6,0,L|414:165,1,150,8|0,2:1|0:0,2:0:0:0:
232,169,70715,2,0,P|202:166|131:121,1,100,8|0,2:0|2:0,2:0:0:0:
313,100,71021,1,8,2:1:0:0:
180,45,71174,2,0,L|53:44,1,100,8|8,2:1|2:0,0:0:0:0:
351,285,71480,6,0,P|382:282|336:172,1,200,14|8,2:0|2:1,2:0:0:0:
208,175,71939,1,8,2:0:0:0:
368,125,72092,1,0,2:0:0:0:
228,125,72245,1,0,0:0:0:0:
88,116,72398,1,8,2:1:0:0:
230,116,72551,1,8,2:0:0:0:
88,116,72704,1,0,2:0:0:0:
306,322,72857,6,0,L|320:212,1,100,8|0,2:1|2:0,2:0:0:0:
148,170,73164,2,0,L|260:165,1,100,8|0,2:0|2:0,2:0:0:0:
484,172,73470,2,0,L|496:66,1,100,8|8,2:1|2:1,2:0:0:0:
358,51,73776,2,0,L|234:50,1,100,8|0,2:0|2:0,2:0:0:0:
488,318,74082,6,0,P|457:207|347:189,1,200,14|8,2:0|2:0,2:0:0:0:
125,117,74541,1,0,2:0:0:0:
273,153,74694,1,8,2:1:0:0:
402,126,74847,1,8,2:1:0:0:
152,236,75000,1,8,2:0:0:0:
385,235,75153,1,8,2:1:0:0:
106,351,75306,6,0,L|-9:345,1,100,8|8,2:0|2:1,0:0:0:0:
274,291,75613,2,0,L|379:293,1,100,12|0,2:0|2:0,2:0:0:0:
126,180,75919,1,8,2:1:0:0:
416,100,76072,1,8,2:0:0:0:
255,99,76225,1,8,2:0:0:0:
416,100,76378,1,8,2:0:0:0:
66,287,76531,6,0,L|67:118,1,150,12|0,2:1|0:0,2:0:0:0:
262,158,76837,2,0,P|288:149|253:42,1,150,8|0,2:0|0:0,0:0:0:0:
61,40,77143,1,8,2:1:0:0:
61,40,77296,1,8,2:1:0:0:
291,138,77449,1,8,2:0:0:0:
153,136,77602,1,0,2:0:0:0:
486,146,77755,6,0,L|368:146,1,100,8|0,2:1|2:0,2:0:0:0:
221,153,78061,2,0,L|202:48,1,100,8|0,2:0|2:0,2:0:0:0:
345,49,78368,1,8,2:1:0:0:
122,157,78521,2,0,L|104:54,1,100,8|8,2:1|2:0,0:0:0:0:
423,55,78827,6,0,P|400:115|265:150,1,200,14|8,2:0|2:1,2:0:0:0:
437,200,79286,2,0,L|443:324,1,100,8|0,2:0|2:0,2:0:0:0:
280,306,79592,1,8,2:1:0:0:
441,297,79745,1,8,2:1:0:0:
116,333,79898,2,0,L|108:221,1,100,8|0,2:0|2:0,2:0:0:0:
324,171,80204,6,0,L|188:169,1,100,8|8,2:1|2:1,2:0:0:0:
439,263,80510,2,0,L|454:145,1,100,8|8,2:0|2:1,0:0:0:0:
240,131,80817,1,8,2:3:0:0:
185,133,80868,1,8,2:3:0:0:
240,131,80919,1,4,2:3:0:0:
297,130,80970,1,4,2:3:0:0:
433,133,81123,1,4,2:3:0:0:
142,292,81276,6,0,P|80:292|41:170,1,200,12|8,2:1|2:1,2:0:0:0:
314,178,81735,2,0,L|331:74,1,100,8|0,2:0|2:0,2:0:0:0:
112,80,82041,1,8,2:1:0:0:
251,80,82194,1,8,2:1:0:0:
35,80,82347,1,8,2:0:0:0:
384,77,82500,6,0,L|171:76,1,200,14|8,2:0|2:1,2:0:0:0:
443,74,82959,2,0,L|460:178,1,100,8|0,2:0|2:0,2:0:0:0:
138,168,83266,1,8,2:1:0:0:
277,168,83419,1,8,2:1:0:0:
416,168,83572,1,8,2:0:0:0:
110,169,83725,6,0,P|45:233|146:279,1,200,14|8,2:0|2:1,2:0:0:0:
372,299,84184,2,0,L|485:299,1,100,8|0,2:0|2:0,2:0:0:0:
193,298,84490,1,8,2:1:0:0:
411,296,84643,1,8,2:1:0:0:
142,297,84796,2,0,L|124:189,1,100,8|4,2:3|2:3,0:0:0:0:
395,193,85102,5,10,2:0:0:0:
90,198,85255,1,10,2:0:0:0:
90,198,85715,1,10,2:0:0:0:
395,193,85868,1,10,2:0:0:0:
83,320,86327,5,8,2:0:0:0:
362,320,86480,1,8,2:0:0:0:
362,191,86786,1,8,2:0:0:0:
82,191,86939,1,8,2:0:0:0:
362,191,87245,1,8,2:0:0:0:
82,191,87398,1,8,2:0:0:0:
474,341,87704,6,0,L|482:238,1,100,0|0,2:0|2:0,2:0:0:0:
381,241,88010,1,0,2:0:0:0:
87,342,88164,2,0,L|61:240,1,100,0|8,2:0|2:1,2:0:0:0:
299,239,88470,2,0,L|193:239,1,100,14|0,2:0|0:0,2:0:0:0:
422,243,88776,5,12,2:1:0:0:
86,333,90000,1,2,2:0:0:0:
363,325,90613,1,0,2:0:0:0:
223,325,90766,1,8,2:1:0:0:
490,330,90919,1,12,2:0:0:0:
118,327,91225,6,0,L|5:327,2,100,12|8|8,2:0|2:1|2:0,0:0:0:0:
268,327,91684,2,0,P|266:247|161:200,1,200,0|0,0:0|2:0,0:0:0:0:
17,198,92143,1,10,2:0:0:0:
167,198,92296,1,0,2:0:0:0:
406,198,92449,6,0,L|298:198,1,100,10|10,2:0|2:0,0:0:0:0:
455,198,92755,2,0,L|464:64,1,100,8|0,2:0|2:0,2:0:0:0:
221,98,93061,1,10,2:0:0:0:
370,98,93215,1,10,2:0:0:0:
110,98,93368,2,0,L|-11:98,1,100,10|0,2:0|2:0,2:0:0:0:
289,98,93674,6,0,L|299:214,1,100,8|8,2:1|2:1,0:0:0:0:
146,197,93980,1,8,2:0:0:0:
297,197,94133,1,0,0:0:0:0:
65,197,94286,2,0,L|46:86,1,100,2|2,2:0|2:0,0:0:0:0:
288,98,94592,1,10,2:0:0:0:
138,98,94745,1,0,2:0:0:0:
367,98,94898,6,0,L|387:208,1,100,8|8,2:1|2:1,0:0:0:0:
234,196,95204,2,0,L|96:196,1,100,8|0,2:0|2:0,2:0:0:0:
284,196,95510,2,0,L|424:196,1,100,2|2,2:0|2:0,0:0:0:0:
144,196,95817,2,0,L|24:196,1,100,10|0,2:0|2:0,2:0:0:0:
303,196,96123,6,0,L|428:196,2,100,8|8|8,2:1|2:1|2:0,0:0:0:0:
152,196,96582,2,0,L|42:196,2,100,2|2|0,2:0|2:0|2:0,2:0:0:0:
291,196,97041,1,10,2:0:0:0:
162,192,97194,1,0,2:0:0:0:
447,96,97347,6,0,L|475:215,1,100,10|10,2:0|2:0,0:0:0:0:
319,193,97653,1,8,2:0:0:0:
468,193,97806,1,0,2:0:0:0:
228,193,97959,2,0,L|358:193,1,100,10|10,2:0|2:0,0:0:0:0:
88,193,98266,2,0,L|61:304,1,100,8|0,2:0|2:0,2:0:0:0:
344,290,98572,5,12,2:0:0:0:
194,290,98725,1,8,2:1:0:0:
344,290,98878,1,8,2:0:0:0:
104,290,99031,2,0,P|102:226|220:162,1,200,0|0,2:0|2:0,2:0:0:0:
356,159,99490,1,10,2:0:0:0:
206,159,99643,1,0,2:0:0:0:
485,159,99796,6,0,L|489:43,1,100,8|8,2:1|2:1,2:0:0:0:
338,59,100102,1,8,2:0:0:0:
487,59,100255,1,0,2:0:0:0:
337,59,100408,2,0,L|197:59,1,100,2|2,2:0|2:0,2:0:0:0:
476,59,100715,2,0,L|488:177,1,100,10|0,2:0|2:0,2:0:0:0:
166,158,101021,5,8,2:1:0:0:
315,158,101174,1,8,2:1:0:0:
165,158,101327,2,0,L|56:158,1,100,8|2,2:0|2:0,0:0:0:0:
352,158,101633,2,0,L|456:158,1,100,0|0,2:1|2:0,2:0:0:0:
302,158,101939,2,0,L|191:158,1,100,8|0,2:0|0:0,2:0:0:0:
461,157,102245,5,8,2:1:0:0:
311,157,102398,1,8,2:1:0:0:
460,157,102552,2,0,L|477:276,1,100,10|8,2:0|2:1,2:0:0:0:
138,242,102857,1,10,2:0:0:0:
474,255,103010,1,10,2:0:0:0:
52,172,103317,6,0,L|272:160,1,200,12|8,2:1|2:1,2:0:0:0:
387,148,103776,2,0,L|167:136,1,200,8|8,2:0|2:1,2:0:0:0:
287,130,104235,1,8,2:1:0:0:
152,122,104388,1,8,2:0:0:0:
422,164,104541,6,0,L|202:152,1,200,14|8,2:0|2:1,2:0:0:0:
87,140,105000,2,0,L|307:128,1,200,8|8,2:0|2:1,2:0:0:0:
152,123,105459,1,8,2:1:0:0:
52,120,105613,1,8,2:0:0:0:
302,137,105766,6,0,P|365:173|295:259,1,200,14|8,2:0|2:1,2:0:0:0:
90,264,106225,2,0,P|25:202|96:130,1,200,8|8,2:0|2:1,2:0:0:0:
218,139,106684,1,8,2:1:0:0:
318,139,106837,1,8,2:0:0:0:
103,144,106990,6,0,P|33:200|103:257,1,200,12|8,2:1|2:3,2:0:0:0:
148,257,107373,1,8,2:3:0:0:
371,248,107449,1,8,2:3:0:0:
272,240,107602,1,4,2:3:0:0:
112,207,107755,1,8,2:0:0:0:
212,197,107908,1,4,2:3:0:0:
112,207,108061,2,0,L|97:328,1,100,4|8,2:3|2:1,0:0:0:0:
376,252,108368,6,0,L|151:252,1,200,12|0,2:1|2:0,2:0:0:0:
77,249,108827,1,8,2:1:0:0:
352,224,108980,2,0,P|418:165|352:101,1,200,8|8,2:0|2:1,2:0:0:0:
219,95,109439,1,8,2:1:0:0:
440,100,109592,6,0,L|463:219,1,100,12|0,2:0|0:0,2:0:0:0:
309,212,109898,2,0,L|207:212,1,100,8|0,2:1|0:0,2:0:0:0:
343,250,110204,1,10,2:0:0:0:
123,275,110357,1,8,2:1:0:0:
123,275,110510,1,0,0:0:0:0:
343,245,110664,6,0,L|132:229,1,200,12|8,2:1|2:1,2:0:0:0:
279,199,111123,1,8,2:1:0:0:
179,188,111276,1,0,2:0:0:0:
389,149,111429,2,0,P|461:206|388:279,1,200,8|0,2:0|2:0,2:0:0:0:
309,292,111888,1,8,2:1:0:0:
258,287,111965,1,8,2:1:0:0:
209,281,112041,6,0,L|188:165,1,100,8|0,2:0|2:0,2:0:0:0:
403,140,112347,1,8,2:1:0:0:
191,142,112500,1,0,2:0:0:0:
291,143,112653,2,0,L|311:39,1,100,8|0,2:0|0:0,2:0:0:0:
98,43,112959,1,0,2:0:0:0:
406,99,113113,6,0,P|474:166|400:211,1,200,14|8,2:0|2:0,2:0:0:0:
275,189,113572,1,8,2:1:0:0:
375,203,113725,1,0,2:0:0:0:
155,263,113878,2,0,P|88:205|172:161,1,200,8|0,2:0|2:0,2:0:0:0:
292,258,114337,1,8,2:1:0:0:
72,224,114490,6,0,L|58:334,1,100,8|0,2:0|2:0,2:0:0:0:
209,319,114796,2,0,L|321:307,1,100,8|0,2:1|2:0,0:0:0:0:
173,251,115102,1,8,2:0:0:0:
173,251,115255,1,8,2:1:0:0:
393,225,115408,1,8,2:0:0:0:
49,136,115561,6,0,L|264:130,1,200,12|8,2:1|2:0,2:0:0:0:
113,121,116021,1,8,2:1:0:0:
212,112,116174,1,0,2:0:0:0:
429,117,116327,2,0,P|491:186|431:256,1,200,12|0,2:0|2:0,2:0:0:0:
328,118,116786,1,8,2:1:0:0:
108,114,116939,6,0,L|97:218,1,100,8|8,2:0|2:3,0:0:0:0:
146,226,117169,1,8,2:3:0:0:
320,252,117245,2,0,L|331:356,1,100,8|8,2:3|2:1,0:0:0:0:
119,279,117551,1,8,2:0:0:0:
254,237,117704,1,8,2:3:0:0:
103,204,117857,1,4,2:3:0:0:
338,139,118010,6,0,L|119:131,1,200,14|8,2:0|2:1,2:0:0:0:
274,140,118470,2,0,L|286:249,1,100,8|0,2:1|2:0,2:0:0:0:
65,247,118776,2,0,P|9:202|98:126,1,200,12|0,2:0|2:0,2:0:0:0:
210,101,119235,1,8,2:1:0:0:
430,111,119388,6,0,L|435:306,1,150,12|0,2:0|2:0,2:0:0:0:
296,257,119694,2,0,L|291:62,1,150,8|0,2:1|2:0,2:0:0:0:
430,111,120000,1,14,2:0:0:0:
292,107,120153,1,8,2:1:0:0:
430,111,120306,1,0,0:0:0:0:
156,87,120459,6,0,L|368:75,1,200,12|8,2:1|2:1,2:0:0:0:
221,92,120919,1,8,2:1:0:0:
320,95,121072,1,0,2:0:0:0:
100,172,121225,2,0,P|40:189|118:259,1,200,8|0,2:0|2:0,2:0:0:0:
197,268,121684,1,8,2:1:0:0:
436,174,121837,2,0,L|441:281,1,100,8|8,2:0|2:1,0:0:0:0:
226,190,122143,2,0,L|119:189,1,100,0|8,0:0|2:1,0:0:0:0:
226,190,122449,1,8,2:0:0:0:
326,177,122602,2,0,L|379:177,1,50,8|8,2:0|2:0,0:0:0:0:
223,143,122755,2,0,L|171:144,1,50,8|0,2:0|0:0,0:0:0:0:
387,133,122908,6,0,P|439:182|365:275,1,200,12|8,2:1|2:1,2:0:0:0:
243,278,123368,1,8,2:0:0:0:
108,277,123521,1,0,2:0:0:0:
263,209,123674,1,8,2:1:0:0:
15,210,123827,2,0,P|8:156|83:105,1,150,8|0,2:1|0:0,0:0:0:0:
279,104,124133,6,0,L|46:104,1,200,14|8,2:0|2:1,2:0:0:0:
214,158,124592,2,0,L|227:266,1,100,8|0,2:0|2:0,2:0:0:0:
81,271,124898,1,8,2:1:0:0:
228,275,125051,2,0,L|339:274,1,100,8|8,2:1|2:0,0:0:0:0:
78,176,125357,6,0,P|45:119|164:66,1,200,12|8,2:1|2:1,2:0:0:0:
282,53,125817,2,0,L|415:55,1,100,8|0,2:0|2:0,2:0:0:0:
265,139,126123,1,8,2:1:0:0:
416,170,126276,2,0,L|283:173,1,100,8|8,2:1|2:0,0:0:0:0:
165,180,126582,1,8,2:1:0:0:
415,242,126735,6,0,P|459:214|395:146,1,150,8|0,2:1|0:0,2:0:0:0:
237,106,127041,2,0,L|357:105,1,100,8|0,2:0|2:0,2:0:0:0:
189,158,127347,2,0,P|138:185|201:245,1,150,8|0,2:1|0:0,0:0:0:0:
367,290,127653,2,0,L|240:290,1,100,8|8,2:0|2:1,2:0:0:0:
43,300,127959,6,0,L|36:182,1,100,12|8,2:0|2:1,0:0:0:0:
289,121,128266,2,0,L|426:121,1,100,8|8,2:0|2:1,0:0:0:0:
133,59,128572,1,8,2:0:0:0:
282,66,128725,2,0,L|310:132,1,50,8|8,2:3|2:3,0:0:0:0:
227,132,128878,2,0,L|181:214,1,50,4|4,2:3|2:3,0:0:0:0:
370,215,129031,2,0,L|450:254,1,50,8|8,2:1|2:1,2:0:0:0:
150,249,129184,6,0,P|92:157|166:131,1,200,8|2,2:0|2:0,0:0:0:0:
391,84,129796,1,8,2:0:0:0:
143,85,129949,2,0,P|95:110|150:202,1,150,8|0,2:0|0:0,0:0:0:0:
366,237,130255,6,0,L|129:242,1,200,12|8,2:1|2:1,2:0:0:0:
292,206,130715,2,0,L|301:78,1,100,8|0,2:0|2:0,2:0:0:0:
150,78,131021,1,8,2:1:0:0:
295,62,131174,1,8,2:1:0:0:
45,62,131327,2,0,L|33:207,1,100,8|0,2:0|2:0,2:0:0:0:
287,212,131633,6,0,P|348:189|259:123,1,200,8|8,2:1|2:0,2:0:0:0:
154,108,132092,1,0,2:0:0:0:
400,173,132245,1,8,2:1:0:0:
252,182,132398,2,0,L|239:307,1,100,8|8,2:1|2:0,0:0:0:0:
491,306,132704,6,0,L|275:305,1,200,14|8,2:0|2:1,2:0:0:0:
140,290,133164,2,0,L|268:288,1,100,8|0,2:0|2:0,2:0:0:0:
101,197,133470,1,8,2:1:0:0:
251,171,133623,1,8,2:1:0:0:
5,138,133776,2,0,L|133:136,1,100,8|0,2:0|2:0,0:0:0:0:
353,116,134082,6,0,L|143:116,1,200,8|8,2:1|2:0,2:0:0:0:
14,105,134541,1,0,2:0:0:0:
261,165,134694,1,8,2:1:0:0:
119,180,134847,2,0,L|102:316,1,100,8|8,2:1|2:0,0:0:0:0:
353,289,135153,6,0,P|409:274|337:197,1,200,12|8,2:1|2:1,2:0:0:0:
216,183,135613,1,8,2:0:0:0:
368,182,135766,2,0,L|384:70,1,100,0|0,2:0|0:0,2:0:0:0:
250,74,136072,1,8,2:1:0:0:
117,66,136225,1,8,2:0:0:0:
266,155,136378,1,0,2:0:0:0:
18,185,136531,6,0,L|9:303,1,100,8|0,2:1|2:0,2:0:0:0:
258,285,136837,2,0,L|270:159,1,100,8|0,2:0|2:0,2:0:0:0:
20,87,137143,2,0,L|143:88,1,100,8|8,2:1|2:1,2:0:0:0:
363,93,137449,2,0,L|371:236,1,100,8|0,2:0|2:0,2:0:0:0:
119,207,137755,6,0,P|67:179|144:92,1,200,14|8,2:0|2:0,2:0:0:0:
378,71,138215,1,0,2:1:0:0:
120,152,138368,2,0,L|106:290,1,100,8|8,2:1|2:1,0:0:0:0:
257,257,138674,1,8,2:0:0:0:
11,324,138827,1,0,2:0:0:0:
270,333,138980,6,0,L|396:329,1,100,8|8,2:1|2:1,2:0:0:0:
121,209,139286,1,12,2:0:0:0:
267,198,139439,2,2,L|287:133,1,50,10|10,2:1|2:1,0:0:0:0:
211,138,139592,2,0,L|190:80,1,50,8|4,2:3|2:3,0:0:0:0:
390,80,139745,1,4,2:3:0:0:
438,146,139822,1,4,2:3:0:0:
260,156,139898,1,8,2:1:0:0:
189,156,139975,1,8,2:1:0:0:
377,198,140051,6,0,P|450:178|396:81,1,200,12|8,2:1|2:1,2:0:0:0:
288,43,140510,2,0,L|401:44,1,100,8|0,2:0|2:0,2:0:0:0:
246,108,140817,1,8,2:1:0:0:
392,120,140970,1,8,2:1:0:0:
140,176,141123,1,8,2:0:0:0:
291,179,141276,6,0,L|299:298,1,100,0|8,2:0|2:1,0:0:0:0:
145,304,141582,1,0,2:0:0:0:
400,322,141735,2,0,L|411:180,1,100,8|0,2:0|2:0,2:0:0:0:
158,143,142041,1,8,2:1:0:0:
413,118,142194,2,0,L|289:120,1,100,8|8,2:1|2:0,0:0:0:0:
64,53,142500,6,0,P|19:106|110:171,1,200,14|8,2:0|2:1,2:0:0:0:
248,190,142959,1,8,2:0:0:0:
94,249,143113,2,0,L|201:250,1,100,0|8,2:0|2:1,0:0:0:0:
343,249,143419,1,8,2:1:0:0:
93,185,143572,2,0,L|5:122,1,100,8|0,2:0|2:0,2:0:0:0:
260,88,143878,6,0,L|396:86,1,100,8|0,2:1|2:0,2:0:0:0:
211,96,144184,2,0,L|169:203,1,100,8|0,2:0|2:1,0:0:0:0:
424,249,144490,1,8,2:1:0:0:
174,273,144643,1,8,2:0:0:0:
424,249,144796,1,8,2:0:0:0:
119,251,144949,6,0,L|335:248,1,200,12|8,2:1|2:1,2:0:0:0:
103,252,145408,2,0,L|92:134,1,100,8|0,2:0|2:0,2:0:0:0:
358,151,145715,1,8,2:1:0:0:
219,151,145868,1,8,2:1:0:0:
461,151,146021,1,8,2:0:0:0:
111,159,146174,6,0,P|112:96|238:32,1,200,12|8,2:0|2:1,2:0:0:0:
443,33,146633,2,0,L|458:148,1,100,8|0,2:0|2:0,2:0:0:0:
167,137,146939,1,8,2:1:0:0:
307,137,147092,1,8,2:1:0:0:
447,137,147245,1,8,2:0:0:0:
110,136,147398,6,0,P|45:203|130:255,1,200,12|8,2:1|2:1,2:0:0:0:
381,260,147857,2,0,L|394:365,1,100,8|0,2:0|2:0,2:0:0:0:
128,362,148164,1,8,2:1:0:0:
418,365,148317,1,8,2:1:0:0:
60,358,148470,2,0,L|42:241,1,100,8|8,2:0|2:1,0:0:0:0:
132,259,148699,1,8,2:1:0:0:
370,256,148776,5,8,2:0:0:0:
151,257,148929,1,8,2:1:0:0:
444,256,149082,2,0,L|460:142,1,100,8|8,2:0|2:1,0:0:0:0:
165,161,149388,1,8,2:0:0:0:
466,158,149541,1,8,2:0:0:0:
47,162,149847,6,0,L|290:162,1,200,12|8,2:1|2:1,2:0:0:0:
33,160,150306,2,0,L|25:43,1,100,8|0,2:0|2:0,2:0:0:0:
178,60,150613,1,8,2:1:0:0:
29,60,150766,1,8,2:1:0:0:
328,63,150919,2,0,L|437:63,1,100,8|0,2:0|2:0,2:0:0:0:
218,60,151225,6,0,L|195:169,1,100,8|0,2:1|2:0,2:0:0:0:
466,199,151531,2,0,L|477:302,1,100,8|0,2:0|2:0,2:0:0:0:
154,306,151837,1,8,2:1:0:0:
294,306,151990,1,8,2:1:0:0:
155,306,152143,1,8,2:0:0:0:
433,306,152296,6,0,L|192:306,1,200,14|8,2:0|2:1,2:0:0:0:
457,306,152755,2,0,L|472:187,1,100,8|0,2:0|2:0,2:0:0:0:
238,205,153061,2,0,L|348:205,1,100,8|8,2:1|2:1,2:0:0:0:
118,205,153368,2,0,L|9:205,1,100,8|0,2:0|2:0,0:0:0:0:
348,207,153674,6,0,L|364:93,1,100,8|0,2:1|2:0,2:0:0:0:
74,112,153980,2,0,L|59:9,1,100,8|0,2:0|2:0,2:0:0:0:
358,17,154286,1,8,2:1:0:0:
219,17,154439,1,8,2:1:0:0:
80,17,154592,1,8,2:0:0:0:
400,21,154745,6,0,P|413:84|291:144,1,200,12|8,2:1|2:1,2:0:0:0:
73,154,155204,1,8,2:0:0:0:
348,154,155357,2,0,L|363:262,1,100,0|8,2:0|2:1,2:0:0:0:
221,253,155664,1,8,2:1:0:0:
452,256,155817,2,0,L|474:365,1,100,8|0,2:0|2:0,2:0:0:0:
205,354,156123,6,0,L|91:354,1,100,8|0,2:1|2:0,2:0:0:0:
347,352,156429,2,0,L|448:352,1,100,8|0,2:0|2:0,2:0:0:0:
233,352,156735,1,8,2:1:0:0:
373,352,156888,1,8,2:1:0:0:
150,349,157041,1,8,2:0:0:0:
290,349,157194,1,0,2:0:0:0:
38,351,157347,6,0,P|40:254|127:215,1,200,14|8,2:0|2:0,0:0:0:0:
445,214,157806,2,0,L|319:214,1,100,0|0,2:0|0:0,2:0:0:0:
110,212,158113,1,8,2:1:0:0:
250,212,158266,1,8,2:0:0:0:
35,211,158419,1,8,2:1:0:0:
349,216,158572,5,8,2:0:0:0:
118,217,158725,1,8,2:1:0:0:
393,219,158878,2,0,L|407:120,1,100,12|0,2:0|2:0,2:0:0:0:
146,115,159184,1,8,2:1:0:0:
361,115,159337,1,8,2:0:0:0:
118,115,159490,1,8,2:0:0:0:
427,116,159643,1,8,2:0:0:0:
86,116,159796,6,0,L|61:327,1,200,12|8,2:1|2:0,2:0:0:0:
304,316,160255,2,0,L|406:316,2,100,0|8|8,0:0|2:1|2:1,0:0:0:0:
63,317,160715,2,0,L|45:211,1,100,8|0,2:0|2:0,0:0:0:0:
304,210,161021,6,0,L|178:210,1,100,8|0,2:1|2:0,2:0:0:0:
417,214,161327,2,0,L|431:112,1,100,8|0,2:0|2:0,2:0:0:0:
215,113,161633,1,8,2:1:0:0:
355,113,161786,1,8,2:1:0:0:
110,116,161939,1,8,2:0:0:0:
421,116,162092,6,0,P|416:194|306:228,1,200,14|8,2:0|2:1,2:0:0:0:
77,229,162551,1,8,2:0:0:0:
217,229,162704,1,0,2:0:0:0:
78,229,162857,2,0,L|57:344,1,100,8|8,2:1|2:1,0:0:0:0:
350,338,163164,2,0,L|461:338,1,100,8|0,2:0|2:0,2:0:0:0:
195,338,163470,6,0,L|94:338,1,100,8|0,2:1|2:0,2:0:0:0:
426,341,163776,2,0,L|443:221,1,100,8|8,2:0|2:1,0:0:0:0:
174,235,164082,1,8,2:0:0:0:
314,235,164235,1,8,2:3:0:0:
454,235,164388,1,8,2:1:0:0:
57,169,164541,6,0,L|302:159,1,200,12|8,2:1|2:1,2:0:0:0:
46,240,165000,2,0,P|67:122|152:117,1,200,8|8,2:0|2:1,2:0:0:0:
250,101,165459,1,8,2:1:0:0:
114,98,165613,1,8,2:0:0:0:
326,182,165766,6,0,L|81:172,1,200,14|8,2:0|2:1,2:0:0:0:
338,239,166225,2,0,P|317:121|232:116,1,200,8|8,2:0|2:1,2:0:0:0:
42,119,166684,1,8,2:1:0:0:
178,116,166838,1,8,2:0:0:0:
390,184,166990,6,0,L|163:187,1,200,14|8,2:0|2:1,2:0:0:0:
402,260,167449,2,0,L|503:259,1,100,8|8,2:0|2:1,0:0:0:0:
252,208,167755,2,0,L|151:207,1,100,8|8,2:0|2:1,0:0:0:0:
312,174,168061,2,0,L|413:173,1,100,8|8,2:3|2:1,0:0:0:0:
112,125,168368,5,10,2:0:0:0:
413,127,168521,1,10,2:0:0:0:
413,127,168980,1,10,2:0:0:0:
112,125,169133,1,10,2:0:0:0:
423,161,169592,5,8,2:0:0:0:
323,161,169745,1,8,2:0:0:0:
89,161,170051,1,8,2:0:0:0:
323,161,170204,1,8,2:0:0:0:
89,161,170510,5,8,2:0:0:0:
189,161,170663,1,8,2:0:0:0:
323,161,170970,1,8,2:0:0:0:
89,159,171123,1,8,2:0:0:0:
228,160,171429,1,2,2:0:0:0:
277,164,171505,1,2,2:0:0:0:
320,188,171582,1,2,2:0:0:0:
349,229,171658,1,2,2:0:0:0:
182,203,171735,1,4,2:0:0:0:
82,202,172041,5,8,2:0:0:0:
182,203,172194,1,8,2:0:0:0:
430,202,172500,1,8,2:0:0:0:
182,203,172653,1,8,2:0:0:0:
430,202,172960,5,8,2:0:0:0:
330,203,173113,1,8,2:0:0:0:
82,202,173419,1,8,2:0:0:0:
330,203,173572,1,8,2:0:0:0:
123,251,173878,1,8,2:3:0:0:
83,224,173954,1,8,2:3:0:0:
124,188,174031,1,4,2:3:0:0:
84,161,174107,1,4,2:3:0:0:
285,149,174184,1,14,2:0:0:0:
57,143,174490,5,8,2:0:0:0:
320,153,174643,1,8,2:0:0:0:
455,143,174949,1,8,2:0:0:0:
192,153,175102,1,8,2:0:0:0:
455,143,175408,6,0,L|466:246,1,100,8|8,2:0|2:0,0:0:0:0:
192,153,175868,2,0,L|181:256,1,100,8|8,2:0|2:0,0:0:0:0:
41,324,176327,1,2,2:0:0:0:
214,239,176403,1,2,2:0:0:0:
260,261,176480,1,2,2:0:0:0:
212,271,176556,1,2,2:0:0:0:
41,270,176633,1,4,2:0:0:0:
197,188,176939,6,0,L|85:188,1,100,8|8,2:0|2:0,0:0:0:0:
366,144,177398,2,0,L|469:147,1,100,8|8,2:0|2:0,0:0:0:0:
466,146,177857,1,10,2:0:0:0:
101,162,178164,5,12,2:0:0:0:
317,184,178776,1,8,2:0:0:0:
181,176,178929,2,0,L|177:301,1,100,8|0,2:1|0:0,2:0:0:0:
410,292,179235,6,0,P|354:270|201:263,1,200,12|8,2:1|2:1,2:0:0:0:
470,135,179694,1,8,2:0:0:0:
470,135,179847,1,0,2:0:0:0:
310,85,180000,1,10,2:0:0:0:
431,81,180153,1,10,2:0:0:0:
261,157,180306,2,0,L|226:273,1,100,8|10,2:0|2:0,0:0:0:0:
445,269,180613,6,0,P|512:309|435:366,1,200,8|10,2:0|2:0,0:0:0:0:
355,367,180995,1,0,2:0:0:0:
152,361,181072,1,0,2:0:0:0:
276,359,181225,2,0,L|285:252,1,100,10|10,2:0|2:0,0:0:0:0:
134,245,181531,1,8,2:0:0:0:
394,200,181684,6,0,L|171:194,1,200,14|8,2:0|2:1,2:0:0:0:
274,192,182067,1,0,2:0:0:0:
431,119,182143,1,10,2:0:0:0:
281,108,182296,1,2,2:0:0:0:
131,101,182449,1,10,2:0:0:0:
281,179,182602,1,10,2:0:0:0:
131,101,182755,1,10,2:0:0:0:
391,113,182908,1,8,2:1:0:0:
93,306,183061,5,10,2:0:0:0:
183,210,183215,1,10,2:0:0:0:
310,196,183368,1,10,2:0:0:0:
144,129,183521,1,0,2:0:0:0:
447,164,183674,1,10,2:0:0:0:
283,228,183827,1,10,2:0:0:0:
447,164,183980,1,10,2:0:0:0:
144,323,184133,6,0,P|138:323|177:210,1,200,12|8,2:1|2:1,2:0:0:0:
291,204,184592,2,0,L|304:65,1,100,10|0,2:0|2:0,2:0:0:0:
132,42,184898,2,0,L|254:43,1,100,10|10,2:0|2:0,0:0:0:0:
62,141,185204,1,8,2:0:0:0:
62,141,185357,1,0,2:0:0:0:
339,220,185510,6,0,L|357:102,1,100,10|2,2:0|2:0,2:0:0:0:
214,58,185817,2,0,L|109:49,1,100,8|0,2:0|2:0,2:0:0:0:
348,172,186123,1,10,2:0:0:0:
213,167,186276,2,0,L|196:287,1,100,10|8,2:0|2:0,0:0:0:0:
429,320,186582,6,0,L|445:138,1,150,14|0,2:0|2:0,2:0:0:0:
208,141,186888,1,10,2:0:0:0:
320,118,187041,1,10,2:0:0:0:
426,94,187194,1,0,2:0:0:0:
76,253,187347,1,10,2:0:0:0:
191,240,187500,1,10,2:0:0:0:
306,230,187653,1,8,2:0:0:0:
151,170,187806,2,0,L|155:110,1,50,8|8,2:1|2:1,2:0:0:0:
320,142,187959,5,12,2:1:0:0:
190,113,188113,1,10,2:0:0:0:
447,88,188266,2,0,L|449:215,1,100,10|8,2:0|2:1,2:0:0:0:
140,250,188572,1,8,2:1:0:0:
306,215,188725,1,8,2:3:0:0:
140,250,188878,1,4,2:3:0:0:
406,354,189031,6,0,P|406:300|261:240,1,200,12|8,2:1|2:1,2:0:0:0:
115,253,189490,2,0,L|100:113,1,100,10|0,2:0|2:0,2:0:0:0:
242,142,189796,1,10,2:0:0:0:
118,96,189949,1,10,2:0:0:0:
362,77,190102,1,8,2:0:0:0:
362,77,190255,1,0,2:0:0:0:
210,80,190408,5,10,2:0:0:0:
247,119,190485,1,0,2:0:0:0:
301,133,190561,1,2,2:0:0:0:
361,134,190638,1,0,2:0:0:0:
114,146,190715,2,0,L|91:263,1,100,8|2,2:0|2:0,0:0:0:0:
318,268,191021,1,10,2:0:0:0:
197,312,191174,1,10,2:0:0:0:
467,337,191327,1,8,2:0:0:0:
158,343,191480,6,0,P|98:341|45:199,1,200,14|2,2:0|2:0,2:0:0:0:
241,224,191863,1,2,2:0:0:0:
160,219,191939,2,0,L|150:345,1,100,10|8,2:0|2:1,0:0:0:0:
366,328,192245,2,0,L|371:222,1,100,10|10,2:0|2:0,0:0:0:0:
296,218,192475,1,0,2:0:0:0:
230,210,192551,1,10,2:0:0:0:
395,155,192704,1,0,2:0:0:0:
66,302,192857,6,0,L|62:178,1,100,10|0,2:0|2:0,2:0:0:0:
231,129,193164,2,0,L|107:125,1,100,8|8,2:0|2:1,2:0:0:0:
202,125,193393,1,8,2:1:0:0:
267,129,193470,2,0,L|381:130,1,100,10|10,2:0|2:0,0:0:0:0:
176,60,193776,1,8,2:0:0:0:
388,48,193929,2,0,L|314:47,1,50,12|0,2:1|2:0,2:0:0:0:
129,163,194082,6,0,L|99:221,1,50,2|0,2:0|2:0,0:0:0:0:
200,237,194235,2,0,L|169:299,1,50,8|0,2:1|2:0,0:0:0:0:
85,279,194388,2,0,L|23:280,1,50,10|2,2:0|2:0,2:0:0:0:
185,346,194541,1,2,2:0:0:0:
249,333,194618,1,0,2:0:0:0:
242,276,194694,1,10,2:0:0:0:
175,271,194771,1,0,2:0:0:0:
27,182,194847,6,0,L|89:183,1,50,2|2,2:0|2:0,2:0:0:0:
298,183,195000,1,10,2:0:0:0:
252,146,195077,1,0,2:0:0:0:
190,139,195153,1,14,2:0:0:0:
133,144,195230,1,0,2:0:0:0:
299,79,195306,5,0,2:0:0:0:
361,80,195383,1,0,2:0:0:0:
412,109,195459,1,8,2:1:0:0:
437,162,195536,1,0,2:0:0:0:
253,79,195613,1,10,2:0:0:0:
191,79,195689,1,0,2:0:0:0:
140,109,195766,1,0,2:0:0:0:
115,162,195842,1,0,2:0:0:0:
334,189,195919,2,0,L|350:257,1,50,10|0,2:0|2:0,2:0:0:0:
257,249,196072,2,0,L|243:313,1,50,2|2,2:0|2:0,2:0:0:0:
345,307,196225,1,10,2:0:0:0:
130,347,196378,6,0,L|54:347,1,50,12|0,2:1|2:0,2:1:0:0:
252,277,196531,2,0,L|389:272,1,100,0|8,2:0|2:1,2:1:0:0:
129,218,196837,2,0,L|129:283,2,50,10|0|8,2:0|2:0|2:1,0:0:0:0:
289,113,197143,2,0,L|314:187,1,50,10|8,2:3|2:3,0:0:0:0:
144,192,197296,2,0,L|121:251,1,50,10|10,2:0|2:0,0:0:0:0:
297,265,197449,2,0,L|357:267,1,50,10|0,2:0|0:0,0:0:0:0:
138,305,197602,1,8,2:1:0:0:
276,344,197755,6,0,L|163:346,1,100,10|8,2:0|2:1,0:0:0:0:
105,301,197985,1,8,2:1:0:0:
404,280,198061,2,0,P|465:280|495:242,1,100,14|0,2:0|0:0,2:0:0:0:
192,199,198368,1,10,2:0:0:0:
342,197,198521,2,0,L|145:358,1,225.000008583069,10|0,2:0|0:0,0:0:0:0:
381,332,198827,6,0,P|479:283|375:177,1,300.000011444092,12|8,2:1|2:1,2:0:0:0:
203,173,199286,2,0,L|80:168,1,100,8|0,2:0|2:0,2:0:0:0:
336,164,199592,2,0,L|347:300,1,100,8|8,2:1|2:1,0:0:0:0:
184,298,199898,1,8,2:0:0:0:
451,238,200051,1,0,2:0:0:0:
221,239,200204,5,8,2:1:0:0:
81,243,200357,1,8,2:1:0:0:
221,239,200510,1,8,2:0:0:0:
81,243,200664,1,0,2:0:0:0:
311,189,200817,1,8,2:1:0:0:
60,345,200970,2,0,L|47:158,1,150,8|0,2:1|0:0,0:0:0:0:
276,244,201276,6,0,P|336:219|251:145,1,200,14|8,2:0|2:1,2:0:0:0:
134,95,201735,1,8,2:0:0:0:
279,52,201888,1,0,2:0:0:0:
46,38,202041,1,8,2:1:0:0:
173,88,202194,1,8,2:1:0:0:
311,45,202347,1,8,2:0:0:0:
17,139,202500,5,0,2:0:0:0:
167,141,202653,2,0,L|192:256,1,100,8|0,2:1|0:0,2:0:0:0:
41,331,202959,2,0,L|160:330,1,100,8|0,2:0|0:0,0:0:0:0:
397,321,203266,1,8,2:1:0:0:
257,313,203419,2,0,L|242:200,1,100,8|8,2:1|2:0,0:0:0:0:
456,173,203725,6,0,L|267:167,1,150,14|0,2:0|0:0,2:0:0:0:
383,168,204031,1,8,2:1:0:0:
242,83,204184,1,8,2:0:0:0:
373,35,204337,2,0,L|500:36,1,100,0|8,2:0|2:1,2:0:0:0:
148,170,204643,1,8,2:1:0:0:
148,170,204796,1,8,2:0:0:0:
397,165,204949,5,0,2:0:0:0:
261,165,205102,2,0,P|230:160|271:80,1,150,8|0,2:1|0:0,2:0:0:0:
424,41,205408,2,0,L|296:41,1,100,8|0,2:0|2:0,0:0:0:0:
490,123,205715,1,8,2:1:0:0:
184,231,205868,1,8,2:1:0:0:
308,195,206021,1,8,2:0:0:0:
61,326,206174,6,0,L|45:168,1,150,12|0,2:1|0:0,2:0:0:0:
271,157,206480,1,8,2:1:0:0:
123,104,206633,1,8,2:0:0:0:
276,94,206786,1,0,2:0:0:0:
420,72,206939,1,8,2:1:0:0:
69,203,207092,1,8,2:1:0:0:
202,202,207245,1,8,2:0:0:0:
455,195,207398,5,8,2:1:0:0:
320,193,207551,2,0,L|304:301,1,100,12|8,2:1|2:1,0:0:0:0:
450,313,207857,1,8,2:0:0:0:
181,343,208010,1,0,2:0:0:0:
310,309,208164,1,8,2:1:0:0:
83,238,208317,1,8,2:0:0:0:
396,242,208470,1,8,2:0:0:0:
83,238,208623,1,8,2:0:0:0:
296,250,208776,6,0,P|364:215|292:135,1,200,14|8,2:0|2:0,2:0:0:0:
250,129,209133,1,4,2:3:0:0:
191,127,209184,1,4,2:3:0:0:
133,128,209235,2,0,L|111:26,1,100,4|8,2:3|2:1,0:0:0:0:
325,47,209541,2,0,L|455:48,1,100,8|0,2:0|2:3,0:0:0:0:
376,46,209745,1,4,2:3:0:0:
315,44,209796,1,4,2:3:0:0:
255,42,209847,1,8,2:1:0:0:
493,186,210000,5,10,2:0:0:0:
151,298,210613,1,8,2:0:0:0:
305,306,210766,2,0,L|321:131,1,150,8|0,2:0|0:0,0:0:0:0:
84,144,211072,5,12,2:1:0:0:
381,214,219490,6,0,L|418:119,1,89.9999972534181
286,101,219796,2,0,L|228:221,1,89.9999972534181,2|0,2:0|0:0,0:0:0:0:
381,214,220102,2,0,L|403:334,1,89.9999972534181
259,315,220408,1,0,0:0:0:0:
403,296,220561,2,0,L|419:173,1,89.9999972534181,0|2,0:0|2:0,0:0:0:0:
182,70,220868,6,0,P|47:130|229:239,1,449.99998626709,12|0,2:0|0:0,2:0:0:0:
80,203,221939,2,0,L|63:102,1,89.9999972534181,0|0,2:0|0:0,0:0:0:0:
187,106,222245,2,0,L|212:7,1,89.9999972534181,2|0,2:0|0:0,2:0:0:0:
80,20,222551,2,0,L|48:124,1,89.9999972534181
183,158,222857,1,0,0:0:0:0:
47,205,223010,2,0,L|172:206,1,89.9999972534181,0|2,0:0|2:0,0:0:0:0:
363,213,223317,6,0,P|504:120|315:81,1,449.99998626709,12|0,2:1|2:0,2:0:0:0:
153,86,224388,2,0,L|104:198,1,89.9999972534181,0|0,2:0|2:0,2:0:0:0:
170,180,224618,1,0,0:0:0:0:
222,187,224694,2,0,P|320:188|386:40,1,269.999991760254,4|0,2:0|0:0,2:0:0:0:
140,164,225306,2,0,L|35:164,1,89.9999972534181,8|8,2:0|2:3,0:0:0:0:
159,164,225613,1,4,2:3:0:0:
370,259,225766,6,0,P|470:221|370:166,1,269.999991760254,12|0,2:1|0:0,2:0:0:0:
161,164,226531,2,0,L|61:164,1,89.9999972534181,8|8,2:0|2:0,0:0:0:0:
434,255,226990,2,0,L|153:255,1,269.999991760254,12|0,2:1|0:0,2:0:0:0:
380,245,227755,1,8,2:0:0:0:
164,255,227908,2,0,L|164:371,1,89.9999972534181,4|0,2:0|2:0,2:0:0:0:
434,345,228215,6,0,L|164:345,1,269.999991760254,12|0,2:0|0:0,2:0:0:0:
394,344,228980,1,8,2:0:0:0:
273,345,229133,1,8,2:1:0:0:
394,344,229286,1,8,2:1:0:0:
116,173,229439,6,0,P|82:241|170:287,1,179.999994506836,12|4,2:0|2:3,2:0:0:0:
201,294,229822,1,4,2:3:0:0:
342,272,229898,1,4,2:3:0:0:
198,274,230051,1,4,2:3:0:0:
342,272,230204,2,0,L|446:271,2,89.9999972534181,8|4|8,2:3|2:3|2:1,0:0:0:0:
116,203,230664,6,0,L|301:209,1,179.999994506836,14|4,2:0|2:3,2:0:0:0:
205,209,231123,1,8,2:0:0:0:
327,287,231276,1,8,2:0:0:0:
116,282,231429,1,10,2:0:0:0:
255,276,231582,1,10,2:0:0:0:
395,273,231735,1,10,2:0:0:0:
45,241,231888,6,0,L|465:242,1,419.999987182618,12|10,2:0|2:0,2:0:0:0:
185,62,232347,2,0,L|171:167,1,89.9999972534181,10|8,2:0|2:1,0:0:0:0:
448,230,232653,1,10,2:0:0:0:
64,230,232806,1,10,2:0:0:0:
428,291,233113,6,0,P|446:210|333:162,1,220.000006713867,12|8,2:1|2:1,2:0:0:0:
15,83,233572,2,0,L|235:85,1,220.000006713867,12|8,2:0|2:1,2:0:0:0:
125,85,234031,1,8,2:1:0:0:
356,172,234184,2,0,L|362:285,1,110.000003356934,8|0,2:0|2:0,2:0:0:0:
151,314,234490,6,0,P|63:313|63:244,1,165.000005035401,8|0,2:1|2:0,2:0:0:0:
252,301,234796,2,0,L|368:301,1,110.000003356934,8|0,2:0|2:0,2:0:0:0:
150,159,235102,1,8,2:1:0:0:
282,157,235255,1,8,2:1:0:0:
150,159,235408,1,8,2:0:0:0:
370,150,235561,6,0,L|119:161,1,220.000006713867,14|8,2:0|2:1,2:0:0:0:
363,215,236021,2,0,L|378:324,1,110.000003356934,8|0,2:0|2:0,2:0:0:0:
167,317,236327,2,0,L|289:311,1,110.000003356934,8|8,2:1|2:1,2:0:0:0:
128,284,236633,1,8,2:0:0:0:
339,237,236786,1,0,2:0:0:0:
81,222,236939,6,0,P|45:166|77:74,1,165.000005035401,8|0,2:1|2:0,2:0:0:0:
322,47,237245,2,0,L|444:41,1,110.000003356934,8|0,2:0|2:0,2:0:0:0:
217,90,237551,1,8,2:1:0:0:
349,97,237704,1,8,2:1:0:0:
217,90,237857,1,8,2:0:0:0:
428,79,238010,6,0,P|475:142|380:227,1,220.000006713867,12|8,2:1|2:1,2:0:0:0:
179,311,238470,2,0,L|24:300,1,110.000003356934,8|0,2:0|2:0,0:0:0:0:
234,269,238776,2,0,L|242:152,1,110.000003356934,0|8,0:0|2:1,0:0:0:0:
453,131,239082,2,0,L|346:152,1,110.000003356934,8|0,2:0|2:0,2:0:0:0:
134,221,239388,6,0,L|146:85,1,110.000003356934,8|0,2:1|2:0,2:0:0:0:
292,123,239694,2,0,L|303:246,1,110.000003356934,8|0,2:0|2:0,2:0:0:0:
91,245,240000,2,0,L|80:122,1,110.000003356934,8|8,2:1|2:1,2:0:0:0:
340,127,240306,2,0,L|354:245,1,110.000003356934,8|0,2:0|2:0,2:0:0:0:
91,166,240613,6,0,L|224:172,2,110.000003356934,14|8|8,2:0|2:1|2:0,2:0:0:0:
302,198,241072,2,0,L|436:204,1,110.000003356934,0|8,2:0|2:1,2:0:0:0:
302,197,241378,1,8,2:1:0:0:
67,201,241531,2,0,L|61:312,1,110.000003356934,8|0,2:0|2:0,0:0:0:0:
272,316,241837,6,0,L|398:316,1,110.000003356934,8|8,2:1|2:1,2:0:0:0:
171,270,242143,2,0,L|50:268,1,110.000003356934,8|8,2:0|2:1,0:0:0:0:
127,260,242373,1,8,2:1:0:0:
291,226,242449,2,0,L|311:348,1,110.000003356934,12|8,2:0|2:1,0:0:0:0:
160,186,242755,1,8,2:0:0:0:
393,92,242908,6,0,P|457:170|395:251,1,220.000006713867,12|8,2:1|2:1,2:0:0:0:
150,193,243368,2,0,L|372:178,1,220.000006713867,8|8,2:0|2:1,2:0:0:0:
239,156,243827,1,8,2:1:0:0:
450,114,243980,2,0,L|456:233,1,110.000003356934,8|0,2:0|2:0,0:0:0:0:
244,269,244286,6,0,P|160:271|167:187,1,165.000005035401,8|0,2:1|2:1,0:0:0:0:
345,201,244592,2,0,L|462:195,1,110.000003356934,8|0,2:0|2:0,2:0:0:0:
226,168,244898,1,8,2:1:0:0:
437,132,245051,1,8,2:1:0:0:
437,132,245204,1,8,2:0:0:0:
226,81,245357,6,0,P|158:127|229:217,1,220.000006713867,14|8,2:0|2:1,2:0:0:0:
437,293,245817,2,0,L|199:308,1,220.000006713867,8|8,2:0|2:1,2:0:0:0:
107,302,246276,1,8,2:1:0:0:
367,293,246429,2,0,L|377:176,1,110.000003356934,8|0,2:0|2:0,2:0:0:0:
165,155,246735,6,0,L|38:160,1,110.000003356934,8|8,2:1|2:1,2:0:0:0:
266,218,247041,2,0,L|276:337,1,110.000003356934,8|8,2:0|2:1,0:0:0:0:
64,263,247347,1,8,2:1:0:0:
212,248,247500,1,8,2:0:0:0:
64,228,247653,1,8,2:0:0:0:
376,216,247806,6,0,L|124:199,1,220.000006713867,12|8,2:1|2:1,2:0:0:0:
369,166,248266,2,0,P|440:242|366:324,1,220.000006713867,8|8,2:0|2:1,2:0:0:0:
233,141,248725,1,8,2:1:0:0:
381,125,248878,1,8,2:0:0:0:
151,234,249031,6,0,L|378:221,1,220.000006713867,14|8,2:0|2:1,2:0:0:0:
153,138,249490,2,0,P|73:187|154:234,1,220.000006713867,8|8,2:0|2:1,2:0:0:0:
386,272,249949,1,8,2:1:0:0:
386,272,250102,1,8,2:0:0:0:
45,193,250255,6,0,L|279:192,1,220.000006713867,14|8,2:0|2:1,2:0:0:0:
427,113,250715,2,0,L|313:161,1,110.000003356934,8|0,2:0|2:0,2:0:0:0:
115,196,251021,2,0,L|229:244,1,110.000003356934,8|8,2:1|2:1,0:0:0:0:
428,293,251327,1,8,2:0:0:0:
217,263,251480,1,8,2:1:0:0:
265,245,251556,1,8,2:1:0:0:
469,206,251633,6,0,L|357:198,1,110.000003356934,14|8,2:0|2:1,0:0:0:0:
67,133,251939,2,0,L|179:125,1,110.000003356934,12|0,2:1|0:0,2:0:0:0:
388,129,252245,1,8,2:0:0:0:
67,133,252398,1,8,2:0:0:0:
467,91,252704,6,0,L|258:160,1,220.000006713867,12|8,2:1|2:1,2:0:0:0:
46,152,253164,2,0,L|255:221,1,220.000006713867,8|8,2:0|2:1,2:0:0:0:
107,247,253623,1,8,2:1:0:0:
349,250,253776,2,0,L|465:252,1,110.000003356934,8|0,2:0|2:0,2:0:0:0:
184,171,254082,6,0,L|63:175,1,110.000003356934,8|0,2:1|2:0,2:0:0:0:
404,182,254388,2,0,L|415:312,1,110.000003356934,8|0,2:0|2:0,2:0:0:0:
202,264,254694,1,8,2:1:0:0:
333,251,254847,1,8,2:1:0:0:
202,264,255000,1,8,2:0:0:0:
444,158,255153,6,0,L|246:268,1,220.000006713867,14|8,2:0|2:1,2:0:0:0:
39,153,255613,2,0,L|259:128,1,220.000006713867,8|8,2:0|2:1,2:0:0:0:
406,168,256072,1,8,2:1:0:0:
258,212,256225,2,0,L|374:230,1,110.000003356934,8|0,2:0|2:0,0:0:0:0:
156,282,256531,6,0,P|95:278|106:191,1,165.000005035401,8|0,2:1|2:0,2:0:0:0:
351,252,256837,2,0,L|361:140,1,110.000003356934,8|0,2:0|2:0,2:0:0:0:
86,105,257143,1,8,2:1:0:0:
216,122,257296,1,8,2:1:0:0:
86,105,257449,1,8,2:0:0:0:
388,117,257602,6,0,L|166:134,1,220.000006713867,12|8,2:1|2:1,2:0:0:0:
379,179,258061,1,8,2:0:0:0:
379,179,258214,1,0,2:0:0:0:
323,179,258291,1,0,0:0:0:0:
171,182,258368,2,0,L|166:292,1,110.000003356934,8|8,2:1|2:1,2:0:0:0:
408,305,258674,2,0,L|299:300,1,110.000003356934,8|0,2:0|2:0,2:0:0:0:
80,310,258980,6,0,L|74:201,1,110.000003356934,8|8,2:1|2:1,0:0:0:0:
222,231,259286,2,0,L|337:231,1,110.000003356934,8|0,2:0|2:0,2:0:0:0:
68,79,259592,2,0,L|191:88,2,110.000003356934,8|8|8,2:1|2:1|2:0,0:0:0:0:
358,147,260051,6,0,P|429:215|358:283,1,220.000006713867,14|0,2:0|0:0,0:0:0:0:
249,262,260510,1,10,2:0:0:0:
398,218,260663,1,8,2:1:0:0:
343,218,260740,1,0,0:0:0:0:
202,330,260817,2,0,L|178:222,1,110.000003356934,0|8,2:0|2:1,0:0:0:0:
327,204,261123,1,8,2:0:0:0:
116,193,261276,1,8,2:1:0:0:
358,147,261429,6,0,L|479:148,1,110.000003356934,12|8,2:0|2:1,0:0:0:0:
193,157,261735,2,0,L|68:157,1,110.000003356934,8|0,2:0|2:0,2:0:0:0:
325,179,262041,1,8,2:1:0:0:
367,225,262118,1,8,2:1:0:0:
190,252,262194,1,8,2:0:0:0:
149,297,262271,1,8,2:0:0:0:
325,301,262347,2,0,L|332:183,1,110.000003356934,8|8,2:0|2:1,0:0:0:0:
84,231,262653,6,0,L|229:224,1,110.000003356934,12|8,2:1|2:1,2:0:0:0:
405,161,262959,2,0,L|185:152,1,220.000006713867,8|8,2:0|2:1,2:0:0:0:
335,133,263419,1,8,2:1:0:0:
124,181,263572,2,0,L|117:61,1,110.000003356934,8|0,2:0|2:0,2:0:0:0:
329,48,263878,6,0,P|383:27|418:109,1,165.000005035401,8|0,2:1|2:1,0:0:0:0:
197,106,264184,2,0,L|189:230,1,110.000003356934,8|0,2:0|2:0,2:0:0:0:
401,211,264490,1,8,2:1:0:0:
253,186,264643,1,8,2:1:0:0:
105,161,264796,1,8,2:0:0:0:
364,156,264949,6,0,L|142:156,1,220.000006713867,14|8,2:0|2:1,2:0:0:0:
355,93,265408,2,0,L|464:105,1,110.000003356934,8|0,2:0|2:0,2:0:0:0:
252,152,265715,2,0,L|244:270,1,110.000003356934,8|8,2:1|2:1,0:0:0:0:
456,301,266021,2,0,L|339:301,1,110.000003356934,8|0,2:0|2:0,2:0:0:0:
135,297,266327,6,0,L|17:297,1,110.000003356934,8|8,2:1|2:1,0:0:0:0:
348,229,266633,2,0,L|359:117,1,110.000003356934,8|8,2:0|2:1,0:0:0:0:
101,73,266939,1,8,2:1:0:0:
249,68,267092,1,8,2:0:0:0:
397,70,267245,1,8,2:0:0:0:
84,73,267398,6,0,P|10:133|85:197,1,220.000006713867,12|8,2:1|2:1,2:0:0:0:
414,174,267857,2,0,L|163:175,1,220.000006713867,8|8,2:0|2:1,2:0:0:0:
343,169,268317,1,8,2:1:0:0:
132,167,268470,1,8,2:0:0:0:
462,91,268623,6,0,L|229:88,1,220.000006713867,14|8,2:0|2:1,2:0:0:0:
31,158,269082,2,0,L|264:155,1,220.000006713867,8|8,2:0|2:1,2:0:0:0:
103,208,269541,1,8,2:1:0:0:
314,211,269694,1,8,2:0:0:0:
103,273,269847,6,0,P|27:218|117:166,1,220.000006713867,14|8,2:0|2:1,2:0:0:0:
345,114,270306,2,0,L|355:247,1,110.000003356934,8|8,2:0|2:1,0:0:0:0:
141,262,270613,2,0,L|76:262,1,55.0000016784668,8|8,2:0|2:0,0:0:0:0:
225,219,270766,2,0,L|293:219,1,55.0000016784668,8|8,2:3|2:3,2:0:0:0:
73,201,270919,2,0,L|16:200,1,55.0000016784668,4|4,2:3|2:3,0:0:0:0:
212,182,271072,2,0,L|269:182,1,55.0000016784668,8|8,2:1|2:1,0:0:0:0:
468,170,271225,6,0,L|350:170,2,110.000003356934,10|10|0,2:0|2:0|0:0,0:0:0:0:
257,128,271684,2,0,L|312:128,1,55.0000016784668
468,170,271837,1,10,2:0:0:0:
320,162,271990,1,10,2:0:0:0:
172,162,272143,1,0,0:0:0:0:
386,299,272296,6,0,P|427:283|369:174,1,200,12|8,2:1|2:1,2:0:0:0:
223,170,272755,2,0,L|105:171,1,100,8|0,2:0|2:0,2:0:0:0:
459,327,273061,2,0,L|459:214,1,100,8|8,2:1|2:1,0:0:0:0:
299,204,273368,1,8,2:0:0:0:
143,291,273521,1,8,2:1:0:0:
402,332,273674,6,0,L|407:212,1,100,8|8,2:1|2:1,0:0:0:0:
255,178,273980,1,8,2:0:0:0:
392,154,274133,1,0,2:0:0:0:
326,152,274209,1,0,0:0:0:0:
90,323,274286,2,0,L|81:216,1,100,8|8,2:1|2:1,2:0:0:0:
215,203,274592,1,8,2:0:0:0:
342,200,274745,1,0,2:0:0:0:
43,125,274898,6,0,L|164:111,1,100,14|0,2:0|0:0,2:0:0:0:
285,56,275204,1,8,2:0:0:0:
157,38,275357,1,0,0:0:0:0:
226,38,275434,1,0,0:0:0:0:
427,50,275510,2,0,L|451:170,1,100,8|8,2:1|2:1,0:0:0:0:
274,182,275817,1,8,2:0:0:0:
431,182,275970,1,8,2:1:0:0:
162,309,276123,6,0,L|42:313,1,100,8|8,2:1|2:1,0:0:0:0:
218,245,276429,1,8,2:0:0:0:
71,161,276582,1,0,2:0:0:0:
135,163,276658,1,0,0:0:0:0:
205,163,276735,2,0,L|215:59,1,100,8|8,2:1|2:1,2:0:0:0:
78,49,277041,1,8,2:0:0:0:
66,24,277194,1,0,2:0:0:0:
332,131,277347,5,12,2:1:0:0:
188,130,277500,1,0,2:0:0:0:
332,131,277653,1,8,2:0:0:0:
67,129,277806,1,8,2:1:0:0:
213,130,277959,2,0,L|226:259,1,100,8|8,2:1|2:1,0:0:0:0:
65,238,278266,1,8,2:0:0:0:
184,240,278419,1,0,2:0:0:0:
395,249,278572,6,0,L|412:130,1,100,8|8,2:1|2:1,0:0:0:0:
253,132,278878,2,0,L|235:24,1,100,8|8,2:0|2:1,0:0:0:0:
386,30,279184,2,0,L|503:29,1,100,8|8,2:1|2:1,0:0:0:0:
213,123,279490,1,8,2:0:0:0:
445,112,279643,6,0,L|478:340,1,200,12|8,2:1|2:1,2:0:0:0:
261,312,280102,2,0,L|137:334,1,100,8|0,2:0|2:0,2:0:0:0:
375,362,280408,1,8,2:1:0:0:
250,324,280561,1,8,2:1:0:0:
132,289,280715,1,8,2:0:0:0:
357,271,280868,1,0,2:0:0:0:
30,313,281021,5,8,2:1:0:0:
163,305,281174,1,8,2:1:0:0:
288,295,281327,1,8,2:0:0:0:
410,277,281480,1,8,2:1:0:0:
199,209,281633,1,8,2:1:0:0:
410,277,281786,1,8,2:0:0:0:
199,209,281939,1,8,2:0:0:0:
490,329,282092,6,0,L|481:120,1,200,12|8,2:1|2:1,2:0:0:0:
338,122,282551,1,8,2:0:0:0:
475,92,282704,1,0,2:0:0:0:
189,272,282857,2,0,L|177:147,1,100,8|8,2:1|2:1,0:0:0:0:
330,148,283164,1,8,2:0:0:0:
467,143,283317,1,0,2:1:0:0:
399,142,283393,1,8,2:1:0:0:
179,317,283470,6,0,L|42:325,1,100,8|8,2:1|2:1,0:0:0:0:
239,221,283776,1,8,2:0:0:0:
269,133,283929,1,0,2:0:0:0:
23,97,284082,2,0,L|169:95,1,100,8|8,2:1|2:1,2:0:0:0:
286,62,284388,1,8,2:0:0:0:
162,32,284541,1,0,2:0:0:0:
96,30,284618,1,0,0:0:0:0:
354,47,284694,6,0,L|381:159,1,100,14|0,2:0|0:0,2:0:0:0:
233,180,285000,1,8,2:0:0:0:
96,185,285153,1,0,0:0:0:0:
372,297,285306,2,0,L|487:293,1,100,8|8,2:1|2:1,0:0:0:0:
311,205,285613,1,8,2:0:0:0:
441,182,285766,1,8,2:1:0:0:
372,183,285842,1,8,2:1:0:0:
149,244,285919,6,0,L|130:100,1,100,8|8,2:1|2:1,0:0:0:0:
297,96,286225,2,0,L|164:86,1,100,8|0,2:0|2:0,2:0:0:0:
432,45,286531,2,0,L|510:45,1,50,8|8,2:1|2:1,0:0:0:0:
268,196,286684,2,0,L|201:196,1,50,8|8,2:0|2:0,0:0:0:0:
391,226,286837,2,0,L|420:336,1,100,8|8,2:0|2:0,0:0:0:0:
327,333,287067,1,0,0:0:0:0:
138,339,287143,6,0,L|-9:347,1,100,12|0,2:1|2:0,2:0:0:0:
268,261,287449,1,8,2:0:0:0:
129,241,287602,1,8,2:1:0:0:
293,229,287755,2,0,L|300:110,1,100,8|8,2:1|2:1,0:0:0:0:
141,120,288061,1,8,2:0:0:0:
387,88,288215,6,0,P|438:89|378:171,1,200,14|8,2:0|2:1,2:0:0:0:
154,186,288674,2,0,P|104:195|167:286,1,200,8|8,2:0|2:1,2:0:0:0:
227,297,289056,1,0,0:0:0:0:
308,296,289133,1,8,2:1:0:0:
123,352,289286,1,8,2:0:0:0:
429,346,289439,6,0,P|478:352|414:297,1,200,12|8,2:1|2:1,2:0:0:0:
276,275,289898,2,0,L|135:279,1,100,8|0,2:0|2:0,2:0:0:0:
441,355,290204,2,0,L|463:223,1,100,8|8,2:1|2:1,0:0:0:0:
376,242,290434,1,0,0:0:0:0:
292,239,290510,1,8,2:0:0:0:
453,190,290664,2,0,L|503:189,2,33.3333333333333,8|8|8,2:1|2:1|2:1,2:0:0:0:
185,188,290817,6,0,L|73:188,1,100,14|8,2:0|2:1,0:0:0:0:
376,322,291123,2,0,L|483:318,1,100,14|8,2:0|2:1,0:0:0:0:
133,231,291429,1,10,2:0:0:0:
296,238,291582,2,0,L|317:90,1,150,10|0,2:0|0:0,0:0:0:0:
60,105,291888,6,0,L|307:105,1,220.000006713867,12|8,2:1|2:1,2:0:0:0:
150,159,292347,2,0,L|94:276,1,110.000003356934,8|0,2:0|2:0,2:0:0:0:
372,284,292653,1,8,2:1:0:0:
227,290,292806,1,8,2:1:0:0:
494,188,292959,1,8,2:0:0:0:
361,141,293113,2,0,L|279:142,1,55.0000016784668,8|8,2:1|2:1,0:0:0:0:
498,64,293266,6,0,L|263:65,1,220.000006713867,8|8,2:1|2:0,0:0:0:0:
401,128,293725,1,8,2:1:0:0:
132,193,293878,2,0,P|80:162|107:129,1,110.000003356934,8|8,2:1|2:1,0:0:0:0:
235,115,294184,1,8,2:0:0:0:
369,117,294337,2,0,L|386:200,1,55.0000016784668,0|0,2:0|0:0,0:0:0:0:
153,205,294490,6,0,P|73:160|167:118,1,220.000006713867,14|8,2:0|2:0,2:0:0:0:
292,100,294949,1,0,0:0:0:0:
35,141,295102,1,8,2:1:0:0:
183,189,295255,1,8,2:1:0:0:
183,189,295332,1,0,0:0:0:0:
183,189,295408,1,8,2:0:0:0:
31,101,295561,2,0,L|89:99,1,55.0000016784668,8|8,2:1|2:1,0:0:0:0:
289,67,295715,6,0,L|406:69,1,110.000003356934,8|8,2:1|2:1,0:0:0:0:
125,120,296021,2,0,L|120:254,1,110.000003356934,8|8,2:0|2:1,0:0:0:0:
265,242,296327,1,8,2:1:0:0:
14,290,296480,1,8,2:1:0:0:
304,318,296633,2,0,L|320:166,1,110.000003356934,8|8,2:0|2:1,0:0:0:0:
43,154,296939,5,12,2:1:0:0:
312,136,297092,1,0,2:0:0:0:
180,136,297245,1,8,2:0:0:0:
413,178,297398,2,0,L|432:303,1,110.000003356934,8|8,2:1|2:1,0:0:0:0:
285,310,297704,2,0,L|411:307,1,110.000003356934,8|8,2:1|2:0,0:0:0:0:
251,234,298010,1,0,2:0:0:0:
475,130,298164,6,0,L|361:129,1,110.000003356934,8|8,2:1|2:1,0:0:0:0:
133,141,298470,2,0,L|119:276,1,110.000003356934,8|8,2:0|2:1,0:0:0:0:
365,265,298776,1,8,2:1:0:0:
133,239,298929,2,0,L|58:237,1,55.0000016784668,8|8,2:0|2:0,0:0:0:0:
289,150,299082,2,0,L|373:151,1,55.0000016784668,8|8,2:0|2:0,0:0:0:0:
105,152,299235,6,0,P|25:108|115:58,1,220.000006713867,14|8,2:0|2:1,2:0:0:0:
320,45,299694,2,0,L|198:47,1,110.000003356934,8|0,2:0|2:0,2:0:0:0:
437,134,300000,1,8,2:1:0:0:
303,137,300153,2,0,L|226:137,1,55.0000016784668,8|0,2:1|0:0,0:0:0:0:
445,223,300306,2,0,P|495:190|441:143,1,110.000003356934,8|0,2:0|2:0,2:0:0:0:
248,100,300613,5,8,2:1:0:0:
391,67,300766,2,0,L|455:67,1,55.0000016784668,8|0,2:1|0:0,0:0:0:0:
248,31,300919,2,0,P|214:70|258:101,1,110.000003356934,12|8,2:0|2:1,0:0:0:0:
404,140,301225,1,12,2:1:0:0:
464,169,301301,1,8,2:1:0:0:
481,230,301378,1,8,2:0:0:0:
443,284,301454,1,8,2:0:0:0:
383,289,301531,1,8,2:0:0:0:
129,259,301684,1,8,2:0:0:0:
356,268,301837,6,0,L|372:396,1,110.000003356934,12|0,2:1|0:0,2:0:0:0:
231,361,302143,2,0,L|383:365,1,110.000003356934,8|0,2:0|2:0,2:0:0:0:
83,265,302449,2,0,L|67:148,1,110.000003356934,8|8,2:1|2:1,0:0:0:0:
211,132,302755,1,8,2:0:0:0:
83,84,302908,2,0,L|153:83,1,55.0000016784668,8|8,2:1|2:1,0:0:0:0:
330,98,303061,6,0,P|368:121|335:171,1,110.000003356934,8|8,2:1|2:1,0:0:0:0:
199,194,303368,1,8,2:0:0:0:
330,226,303521,2,0,L|398:226,1,55.0000016784668,8|0,2:1|0:0,0:0:0:0:
168,237,303674,2,0,L|144:129,1,110.000003356934,8|8,2:1|2:1,0:0:0:0:
284,108,303980,1,8,2:0:0:0:
424,76,304133,2,0,L|363:72,1,55.0000016784668,0|0,2:0|0:0,0:0:0:0:
162,60,304286,6,0,P|128:102|181:131,1,110.000003356934,14|0,2:0|0:0,2:0:0:0:
296,148,304592,1,8,2:0:0:0:
430,154,304745,2,0,L|363:154,1,55.0000016784668
183,157,304898,1,8,2:1:0:0:
329,92,305051,1,8,2:1:0:0:
329,92,305128,1,0,0:0:0:0:
329,92,305204,1,8,2:0:0:0:
196,44,305357,2,0,L|129:42,1,55.0000016784668,8|8,2:1|2:1,0:0:0:0:
350,171,305510,6,0,L|377:279,1,110.000003356934,8|8,2:1|2:1,0:0:0:0:
232,299,305817,1,8,2:0:0:0:
457,315,305970,1,8,2:1:0:0:
197,268,306123,1,8,2:1:0:0:
131,263,306199,1,8,2:1:0:0:
67,252,306276,1,8,2:0:0:0:
130,203,306352,1,8,2:0:0:0:
330,162,306429,2,0,P|394:128|381:82,1,110.000003356934,12|0,2:0|0:0,2:0:0:0:
127,73,306735,6,0,L|102:197,1,110.000003356934,12|0,2:1|2:0,2:0:0:0:
333,212,307041,1,8,2:0:0:0:
84,244,307194,2,0,P|27:212|108:108,1,220.000006713867,8|8,2:1|2:1,0:0:0:0:
318,103,307653,1,8,2:0:0:0:
93,43,307806,5,14,2:0:0:0:
141,40,307883,1,0,0:0:0:0:
190,38,307959,1,0,0:0:0:0:
341,36,308113,1,8,2:1:0:0:
97,119,308266,2,0,P|58:161|55:215,1,110.000003356934,8|0,2:0|2:0,2:0:0:0:
109,210,308495,1,0,0:0:0:0:
165,210,308572,1,8,2:1:0:0:
307,203,308725,1,8,2:1:0:0:
73,125,308878,1,8,2:0:0:0:
333,106,309031,6,0,P|372:70|305:48,1,110.000003356934,12|0,2:1|0:0,2:0:0:0:
194,27,309337,1,8,2:1:0:0:
421,119,309490,1,8,2:0:0:0:
276,130,309643,2,0,L|245:185,1,55.0000016784668,8|8,2:0|2:0,0:0:0:0:
421,202,309796,1,8,2:3:0:0:
280,214,309949,1,4,2:3:0:0:
497,131,310102,1,4,2:3:0:0:
497,131,310255,1,8,2:1:0:0:
241,81,310408,5,10,2:0:0:0:
462,65,310561,1,10,2:0:0:0:
115,59,311021,1,10,2:0:0:0:
358,52,311174,1,10,2:0:0:0:
118,114,311480,5,12,2:1:0:0:
256,192,311633,12,0,318444,0:0:0:0:
146,356,318750,6,0,P|452:157|65:303,1,1300,4|0,2:0|2:0,0:0:0:0:
