osu file format v14

[General]
AudioFilename: audio.mp3
AudioLeadIn: 0
PreviewTime: 48957
Countdown: 0
SampleSet: Soft
StackLeniency: 0.7
Mode: 0
LetterboxInBreaks: 0
WidescreenStoryboard: 0

[Editor]
Bookmarks: 500,4674,14065,22413,30761,39108,43282,47456,49543,57891,66239,74587,79804,88152,89195
DistanceSpacing: 0.9
BeatDivisor: 4
GridSize: 4
TimelineZoom: 1.7

[Metadata]
Title:Yummy Yappy Recipe
TitleUnicode:Yummy Yappy Recipe
Artist:Wakasa Yuuri(CV.M.A.O)&Takeya Yuki(CV.Minase Inori)
ArtistUnicode:若狭悠里(CV.M・A・O)&丈槍由紀(CV.水瀬いのり)
Creator:vekt0r
Version:Recipe
Source:がっこうぐらし!
Tags:gakkou gurashi
BeatmapID:1451781
BeatmapSetID:685863

[Difficulty]
HPDrainRate:5.8
CircleSize:4
OverallDifficulty:9
ApproachRate:9.3
SliderMultiplier:2.4
SliderTickRate:2

[Events]
//Background and Video events
0,0,"yummy yappy recipe.jpg",0,0
//Break Periods
//Storyboard Layer 0 (Background)
//Storyboard Layer 1 (Fail)
//Storyboard Layer 2 (Pass)
//Storyboard Layer 3 (Foreground)
//Storyboard Sound Samples

[TimingPoints]
500.254015467832,260.869565217391,4,2,0,20,1,0
4674,-125,4,2,0,20,0,0
4935,-83.3333333333333,4,2,0,20,0,0
5195,-125,4,2,0,20,0,0
6239,-83.3333333333333,4,2,0,20,0,0
6500,-125,4,2,0,20,0,0
8587,-62.5,4,2,0,20,0,0
8848,-125,4,2,0,20,0,0
9108,-83.3333333333333,4,2,0,20,0,0
9369,-125,4,2,0,20,0,0
10413,-83.3333333333333,4,2,0,20,0,0
10674,-125,4,2,0,20,0,0
12761,-62.5,4,2,0,20,0,0
13021,-125,4,2,0,20,0,0
14065,-166.666666666667,4,2,0,20,0,0
38065,-125,4,2,0,20,0,0
42630,-111.111111111111,4,2,0,20,0,0
42891,-83.3333333333333,4,2,0,20,0,0
44195,-125,4,2,0,20,0,0
49282,-62.5,4,2,0,20,0,0
49543,-83.3333333333333,4,2,0,20,0,1
53717,-100,4,2,0,20,0,1
55804,-83.3333333333333,4,2,0,20,0,1
57108,-62.5,4,2,0,20,0,1
57826,-62.5,4,2,0,20,0,0
57891,-83.3333333333333,4,2,0,20,0,1
63630,-100,4,2,0,20,0,1
66239,-250.000000000001,4,2,0,20,0,0
74587,-83.3333333333333,4,2,0,20,0,1
76674,-62.5,4,2,0,20,0,1
79804,-125,4,2,0,20,0,0
80065,-83.3333333333333,4,2,0,20,0,0
80326,-125,4,2,0,20,0,0
81369,-83.3333333333333,4,2,0,20,0,0
81630,-125,4,2,0,20,0,0
83717,-62.5,4,2,0,20,0,0
83978,-125,4,2,0,20,0,0
84239,-83.3333333333333,4,2,0,20,0,0
84500,-125,4,2,0,20,0,0
85543,-83.3333333333333,4,2,0,20,0,0
85804,-125,4,2,0,20,0,0
87891,-62.5,4,2,0,20,0,0
88152,-291.666666666667,4,2,0,20,0,0

[HitObjects]
193,98,4413,5,0,0:0:0:0:
193,98,4674,6,0,L|90:116,1,95.9999970703126
334,151,4935,2,0,B|286:159|286:159|242:179|242:179|194:188,1,143.999995605469
317,56,5195,2,0,B|369:65|369:65|414:89,2,95.9999970703126,0|0|0,2:0|0:0|0:0,0:0:0:0:
331,242,5587,6,0,L|378:234,1,47.9999985351563
353,249,5848,2,0,L|400:241,1,47.9999985351563
375,256,6108,2,0,L|422:248,1,47.9999985351563
148,301,6239,2,0,P|90:251|115:188,1,143.999995605469
243,298,6500,2,0,B|192:307|192:307|141:301,1,95.9999970703126,0|0,2:0|0:0,0:0:0:0:
336,165,6761,5,0,0:0:0:0:
265,312,6891,2,0,L|162:330,1,95.9999970703126
360,161,7152,5,0,0:0:0:0:
243,326,7282,2,0,L|140:344,1,95.9999970703126
384,157,7543,5,0,0:0:0:0:
221,340,7674,2,0,L|118:358,1,95.9999970703126
408,153,7935,5,0,0:0:0:0:
89,178,8065,1,0,0:0:0:0:
241,74,8195,1,0,0:0:0:0:
103,362,8326,1,0,0:0:0:0:
408,153,8587,6,0,P|484:184|365:220,1,288
329,116,8848,6,0,L|311:13,1,95.9999970703126
276,257,9109,2,0,B|268:209|268:209|248:165|248:165|239:117,1,143.999995605469
371,241,9369,2,0,B|362:293|362:293|338:338,2,95.9999970703126,0|0|0,2:0|0:0|0:0,0:0:0:0:
239,118,9761,6,0,L|191:125,1,47.9999985351563
261,125,10021,2,0,L|213:132,1,47.9999985351563
283,132,10282,2,0,L|235:139,1,47.9999985351563
57,155,10413,2,0,P|21:221|64:271,1,143.999995605469
148,127,10674,2,0,B|96:135|96:135|51:159,1,95.9999970703126,0|0,2:0|0:0,0:0:0:0:
247,270,10935,5,0,0:0:0:0:
171,110,11065,2,0,L|265:93,1,95.9999970703126
271,274,11326,5,0,0:0:0:0:
145,104,11456,2,0,L|239:87,1,95.9999970703126
295,278,11717,5,0,0:0:0:0:
120,98,11848,2,0,L|214:81,1,95.9999970703126
483,286,12108,5,0,0:0:0:0:
238,78,12239,1,0,0:0:0:0:
419,111,12369,1,0,0:0:0:0:
118,217,12500,1,0,0:0:0:0:
483,286,12761,6,0,P|559:254|440:218,1,288
362,341,13021,6,0,P|247:336|325:252,1,288
336,256,13478,1,0,0:0:0:0:
346,262,13543,1,0,0:0:0:0:
345,262,14065,6,0,P|277:245|237:188,2,143.999995605469
445,242,14717,1,0,0:0:0:0:
445,242,14848,2,0,L|430:324,1,71.9999978027344
334,164,15108,6,0,P|340:120|357:95,1,71.9999978027344
428,27,15369,2,0,L|345:12,1,71.9999978027344
256,3,15630,1,0,0:0:0:0:
256,3,15761,1,0,0:0:0:0:
245,102,15891,2,0,P|211:147|153:166,1,107.999996704102
128,163,16152,6,0,L|210:177,1,71.9999978027344
298,191,16413,1,0,0:0:0:0:
232,267,16543,1,0,0:0:0:0:
365,270,16674,2,0,L|435:257,1,71.9999978027344
475,164,16935,2,0,L|404:176,1,71.9999978027344
354,291,17195,6,0,L|424:278,1,71.9999978027344
464,185,17456,2,0,L|393:197,1,71.9999978027344
343,312,17717,1,0,0:0:0:0:
343,312,17848,1,0,0:0:0:0:
453,206,17978,2,0,L|382:218,1,71.9999978027344
181,253,18239,6,0,P|258:209|275:148,2,143.999995605469
79,251,18891,1,0,0:0:0:0:
79,251,19022,2,0,L|93:168,1,71.9999978027344
194,51,19282,6,0,P|237:57|262:74,1,71.9999978027344
294,167,19543,2,0,L|376:181,1,71.9999978027344
463,201,19804,1,0,0:0:0:0:
463,201,19935,1,0,0:0:0:0:
395,275,20065,1,0,0:0:0:0:
364,179,20195,1,0,0:0:0:0:
325,352,20326,5,0,0:0:0:0:
232,335,20587,2,0,B|256:339|256:339|278:349|278:349|302:353,1,71.9999978027344
139,318,20848,2,0,B|163:322|163:322|185:332|185:332|209:336,1,71.9999978027344
46,301,21108,1,0,0:0:0:0:
173,227,21239,1,0,0:0:0:0:
0,215,21369,5,0,0:0:0:0:
148,105,21630,5,0,0:0:0:0:
25,200,21761,1,0,0:0:0:0:
78,59,21891,5,0,0:0:0:0:
95,245,22022,1,0,0:0:0:0:
0,77,22152,5,0,0:0:0:0:
173,227,22282,1,0,0:0:0:0:
173,227,22348,1,0,0:0:0:0:
173,227,22413,6,0,P|261:236|310:195,2,143.999995605469
151,128,23065,1,0,0:0:0:0:
151,128,23196,2,0,L|234:142,1,71.9999978027344
75,224,23456,6,0,P|58:265|60:295,1,71.9999978027344
117,374,23717,2,0,L|200:360,1,71.9999978027344
287,341,23978,1,0,0:0:0:0:
287,341,24109,1,0,0:0:0:0:
301,241,24239,2,0,P|335:196|393:177,1,107.999996704102
418,180,24500,6,0,L|336:166,1,71.9999978027344
247,147,24761,1,0,0:0:0:0:
214,52,24891,1,0,0:0:0:0:
152,196,25022,2,0,L|139:126,1,71.9999978027344
46,86,25283,2,0,L|58:157,1,71.9999978027344
173,207,25543,6,0,L|160:137,1,71.9999978027344
67,97,25804,2,0,L|79:168,1,71.9999978027344
194,218,26065,1,0,0:0:0:0:
194,218,26196,1,0,0:0:0:0:
88,108,26326,2,0,L|100:179,1,71.9999978027344
150,329,26587,6,0,L|172:200,1,107.999996704102
180,188,26848,2,0,P|214:233|272:252,1,107.999996704102
295,241,27108,2,0,P|292:184|324:132,1,107.999996704102
343,116,27369,2,0,L|214:93,1,107.999996704102
201,90,27630,6,0,P|114:111|82:166,1,143.999995605469
103,253,28021,1,0,0:0:0:0:
180,188,28152,1,0,0:0:0:0:
180,188,28282,1,0,0:0:0:0:
200,287,28413,2,0,P|216:340|264:378,1,107.999996704102
289,384,28674,6,0,L|207:369,1,71.9999978027344
119,346,28935,1,0,0:0:0:0:
200,287,29065,1,0,0:0:0:0:
103,253,29195,2,0,P|50:181|61:118,1,143.999995605469
160,60,29587,6,0,B|136:56|136:56|114:46|114:46|90:42,1,71.9999978027344
253,77,29848,2,0,B|229:73|229:73|207:63|207:63|183:59,1,71.9999978027344
345,94,30108,1,0,0:0:0:0:
280,171,30239,1,0,0:0:0:0:
337,254,30369,1,0,0:0:0:0:
271,331,30500,2,0,B|247:335|247:335|225:345|225:345|201:349,1,71.9999978027344
57,309,30761,6,0,P|-1:241|4:178,1,143.999995605469
45,99,31152,1,0,0:0:0:0:
108,177,31282,2,0,P|149:193|179:191,1,71.9999978027344
277,47,31543,6,0,B|273:71|273:71|263:93|263:93|259:117,1,71.9999978027344
262,263,31804,6,0,P|338:308|399:292,1,143.999995605469
471,237,32195,1,0,0:0:0:0:
385,116,32326,1,0,0:0:0:0:
347,209,32456,1,0,0:0:0:0:
257,28,32587,6,0,B|253:52|253:52|243:74|243:74|239:98,1,71.9999978027344
157,321,32848,6,0,P|68:314|27:265,1,143.999995605469
0,180,33239,1,0,0:0:0:0:
99,191,33369,2,0,P|139:173|159:150,1,71.9999978027344
237,9,33630,6,0,B|233:33|233:33|223:55|223:55|219:79,1,71.9999978027344
225,265,33891,6,0,B|229:241|229:241|239:219|239:219|243:195,1,71.9999978027344
285,102,34152,1,0,0:0:0:0:
349,179,34282,1,0,0:0:0:0:
384,84,34413,1,0,0:0:0:0:
319,7,34543,1,0,0:0:0:0:
207,9,34674,1,0,0:0:0:0:
142,127,34804,1,0,0:0:0:0:
225,265,34935,6,0,L|306:279,1,71.9999978027344
394,296,35195,1,0,0:0:0:0:
315,360,35326,1,0,0:0:0:0:
292,180,35456,2,0,P|388:166|359:216,1,215.999993408203
225,265,35978,5,0,0:0:0:0:
315,360,36108,1,0,0:0:0:0:
193,279,36239,2,0,P|164:245|155:216,1,71.9999978027344
192,314,36500,2,0,P|140:264|123:195,1,143.999995605469
146,97,36891,1,0,0:0:0:0:
16,214,37021,6,0,L|137:193,1,107.999996704102
158,189,37282,1,0,0:0:0:0:
127,285,37413,1,0,0:0:0:0:
225,265,37543,1,0,0:0:0:0:
73,130,37674,2,0,P|56:76|75:18,1,107.999996704102
94,0,37935,1,0,0:0:0:0:
170,193,38065,6,0,L|177:241,1,47.9999985351563
180,122,38325,2,0,L|173:170,1,47.9999985351563
170,51,38587,2,0,L|177:99,1,47.9999985351563
255,188,38717,1,0,0:0:0:0:
359,138,38848,1,0,0:0:0:0:
264,73,38978,1,0,0:0:0:0:
351,254,39108,6,0,P|440:259|384:203,1,192
255,188,39500,1,0,0:0:0:0:
246,303,39630,1,0,0:0:0:0:
246,303,39761,1,0,0:0:0:0:
359,138,39891,1,0,0:0:0:0:
149,137,40152,6,0,P|100:62|176:82,1,192
255,188,40544,1,0,0:0:0:0:
159,253,40674,1,0,0:0:0:0:
159,253,40805,1,0,0:0:0:0:
246,72,40935,1,0,0:0:0:0:
367,348,41195,6,0,L|349:245,1,95.9999970703126
455,90,41456,2,0,L|437:193,1,95.9999970703126
254,287,41717,1,0,0:0:0:0:
254,287,41848,1,0,0:0:0:0:
351,163,41978,2,0,P|336:75|284:38,1,143.999995605469
154,68,42239,6,0,L|308:41,1,144
391,24,42500,1,0,0:0:0:0:
229,164,42630,6,0,P|263:231|281:166,1,161.999995056153
210,140,42891,2,0,P|199:236|295:248,1,215.999993408203
190,117,43152,2,0,P|167:246|293:285,1,287.999991210938
383,123,43543,1,0,0:0:0:0:
383,123,43804,5,0,0:0:0:0:
482,261,43935,1,0,0:0:0:0:
463,153,44065,1,0,0:0:0:0:
417,317,44195,2,0,B|353:328|353:328|288:323|288:323|224:334,1,192
136,364,44587,2,0,B|188:354|188:354|233:331,1,95.9999970703126,0|0,2:0|0:0,0:0:0:0:
383,123,44848,5,0,0:0:0:0:
218,76,44979,1,0,0:0:0:0:
326,57,45109,1,0,0:0:0:0:
188,157,45239,2,0,B|124:168|124:168|59:163|59:163|-4:174,1,192
83,265,45630,2,0,P|132:271|179:256,1,96
383,123,45891,5,0,0:0:0:0:
482,261,46022,1,0,0:0:0:0:
463,153,46152,1,0,0:0:0:0:
417,317,46282,2,0,B|369:325|369:325|320:322|320:322|272:330,1,143.999995605469
226,334,46543,1,0,0:0:0:0:
364,237,46674,1,0,0:0:0:0:
206,239,46804,1,0,0:0:0:0:
383,123,46935,6,0,L|437:113,1,48
269,142,47064,1,0,0:0:0:0:
206,239,47195,1,0,0:0:0:0:
92,258,47326,1,0,0:0:0:0:
382,322,47456,6,0,L|436:331,1,48
382,322,49021,6,0,L|436:331,1,48
512,343,49152,1,0,0:0:0:0:
330,133,49282,2,0,P|248:122|333:213,1,288
395,60,49543,6,0,B|329:29|329:29|258:16,1,143.999995605469
22,64,49804,2,0,B|87:94|87:94|158:107,1,143.999995605469
330,133,50065,1,0,0:0:0:0:
163,130,50195,1,0,0:0:0:0:
321,233,50326,2,0,P|405:202|432:145,1,143.999995605469
250,44,50587,5,0,0:0:0:0:
217,221,50717,2,0,P|247:305|304:332,1,143.999995605469
189,203,50978,2,0,P|234:329|320:370,1,215.999993408203
420,283,51239,1,0,0:0:0:0:
284,94,51369,2,0,B|292:142|292:142|312:186|312:186|321:234,1,143.999995605469
337,0,51630,6,0,B|264:3|195:25,1,143.999995605469
52,167,51891,2,0,B|123:162|192:141,1,143.999995605469
374,85,52152,1,0,0:0:0:0:
196,117,52282,1,0,0:0:0:0:
361,216,52413,2,0,P|445:185|472:128,1,143.999995605469
269,27,52674,5,0,0:0:0:0:
217,229,52804,2,0,P|130:252|75:221,1,143.999995605469
247,240,53065,2,0,P|117:275|34:228,1,215.999993408203
3,112,53326,1,0,0:0:0:0:
251,137,53456,2,0,B|320:149|320:149|386:180,1,143.999995605469
460,307,53717,6,0,B|399:303|342:285,1,120
259,249,53913,1,0,0:0:0:0:
247,240,53978,1,0,0:0:0:0:
386,180,54108,1,0,0:0:0:0:
249,334,54239,2,0,B|190:351|130:354,1,120
146,158,54500,1,0,0:0:0:0:
28,240,54630,1,0,0:0:0:0:
247,240,54761,6,0,P|334:184|343:97,1,180
312,19,55021,1,0,0:0:0:0:
401,261,55152,1,0,0:0:0:0:
418,0,55282,5,0,0:0:0:0:
181,121,55413,1,0,0:0:0:0:
181,121,55478,1,0,0:0:0:0:
181,121,55543,2,0,L|245:132,1,60
452,196,55674,2,0,L|387:207,1,60
63,217,55804,6,0,B|168:234|168:234|277:224,1,215.999993408203
370,212,56065,1,0,0:0:0:0:
49,193,56195,2,0,B|154:210|154:210|263:200,1,215.999993408203
395,128,56456,2,0,B|289:110|289:110|180:120,1,215.999993408203
49,193,56717,2,0,L|125:206,1,71.9999978027344
367,255,56848,6,0,L|290:241,1,71.9999978027344
367,255,57109,6,0,P|443:223|324:187,1,288
246,310,57369,5,0,0:0:0:0:
221,335,57434,1,0,0:0:0:0:
187,344,57499,1,0,0:0:0:0:
153,333,57564,1,0,0:0:0:0:
131,305,57629,1,0,0:0:0:0:
127,270,57695,1,0,0:0:0:0:
143,238,57760,1,0,0:0:0:0:
173,220,57825,1,0,0:0:0:0:
209,221,57891,6,0,B|278:208|278:208|344:177,1,143.999995605469
463,20,58152,2,0,B|393:32|393:32|327:63,1,143.999995605469
384,246,58413,1,0,0:0:0:0:
334,86,58543,1,0,0:0:0:0:
478,211,58674,2,0,P|469:300|421:340,1,143.999995605469
186,270,58935,5,0,0:0:0:0:
334,86,59065,2,0,L|480:60,1,143.999995605469
326,114,59326,2,0,P|459:124|521:197,1,215.999993408203
491,334,59587,1,0,0:0:0:0:
186,270,59717,2,0,B|138:262|138:262|94:242|94:242|46:233,1,143.999995605469
326,114,59978,6,0,L|469:139,1,143.999995605469
186,270,60239,2,0,L|43:245,1,143.999995605469
350,104,60500,2,0,L|493:78,1,143.999995605469
162,280,60761,2,0,L|19:306,1,143.999995605469
397,215,61021,5,0,0:0:0:0:
115,169,61152,2,0,B|0:148|0:148|45:131,1,143.999995605469
256,192,61413,2,0,B|256:210|256:210|250:227|250:227|250:243|250:243|246:259|246:259|246:273|246:273|250:317|285:356|356:358,1,215.999993408203
460,320,61674,1,0,0:0:0:0:
350,104,61804,2,0,B|281:78|281:78|210:73,1,143.999995605469
67,356,62065,6,0,B|87:302|61:251|31:203|55:144,1,215.999993408203
132,46,62326,2,0,P|137:117|156:187,1,143.999995605469
311,338,62587,1,0,0:0:0:0:
182,305,62717,1,0,0:0:0:0:
398,101,62848,2,0,P|403:172|422:242,1,143.999995605469
447,384,63108,6,0,P|441:311|422:241,1,143.999995605469
331,221,63369,1,0,0:0:0:0:
512,260,63500,1,0,0:0:0:0:
397,100,63630,2,0,L|279:122,1,120
198,49,63891,2,0,L|55:75,1,120
0,143,64152,5,0,0:0:0:0:
17,241,64282,1,0,0:0:0:0:
81,317,64413,1,0,2:0:0:0:
174,351,64543,1,0,0:0:0:0:
191,348,64608,1,0,0:0:0:0:
208,345,64674,5,0,0:0:0:0:
306,328,64804,1,0,0:0:0:0:
272,235,64935,1,0,0:0:0:0:
370,252,65064,1,0,0:0:0:0:
387,255,65129,1,0,0:0:0:0:
404,258,65195,5,0,0:0:0:0:
387,160,65325,1,0,0:0:0:0:
323,84,65456,1,0,2:0:0:0:
230,50,65586,1,0,0:0:0:0:
132,67,65717,1,0,0:0:0:0:
115,70,65782,1,0,0:0:0:0:
98,73,65848,1,0,0:0:0:0:
81,76,65913,1,0,0:0:0:0:
64,79,65979,5,0,0:0:0:0:
0,143,66239,6,0,P|46:165|78:202,1,96
118,305,66761,2,0,L|127:250,1,48
143,143,67152,2,0,L|253:123,1,96
261,123,67543,1,0,0:0:0:0:
120,148,67804,1,0,0:0:0:0:
120,148,68326,6,0,P|162:176|210:186,1,96
308,131,68848,2,0,L|253:121,1,48
188,33,69239,2,0,L|298:13,1,96
306,14,69630,1,0,0:0:0:0:
165,38,69891,1,0,0:0:0:0:
24,62,70152,1,0,0:0:0:0:
308,131,70413,6,0,P|346:164|368:208,1,96
377,318,70935,2,0,L|322:308,1,48
216,286,71326,2,0,L|196:175,1,96
196,168,71717,1,0,0:0:0:0:
221,309,71978,1,0,0:0:0:0:
221,309,72500,6,0,P|230:258|257:218,1,96
365,189,73021,1,0,0:0:0:0:
365,189,73152,1,0,0:0:0:0:
313,294,73413,2,0,P|274:260|252:216,1,96
251,197,73804,1,0,0:0:0:0:
284,10,74065,5,0,0:0:0:0:
267,103,74195,1,0,0:0:0:0:
251,197,74326,1,0,0:0:0:0:
84,25,74587,6,0,B|57:131|57:131|57:237,1,215.999993408203
171,355,74848,2,0,B|144:248|144:248|144:142,1,215.999993408203
184,25,75108,5,0,0:0:0:0:
271,355,75239,1,0,0:0:0:0:
284,25,75369,5,0,0:0:0:0:
371,355,75500,1,0,0:0:0:0:
458,25,75630,6,0,B|484:131|484:131|484:237,1,215.999993408203
371,355,75891,2,0,B|397:248|397:248|397:142,1,215.999993408203
358,25,76151,5,0,0:0:0:0:
271,355,76282,1,0,0:0:0:0:
258,25,76412,5,0,0:0:0:0:
171,355,76543,1,0,0:0:0:0:
84,25,76674,6,0,P|7:-6|66:103,1,288
175,92,76935,5,0,0:0:0:0:
208,95,77000,1,0,0:0:0:0:
240,105,77065,1,0,0:0:0:0:
270,120,77130,1,0,0:0:0:0:
296,141,77195,5,0,0:0:0:0:
404,300,77326,1,0,0:0:0:0:
192,222,77456,1,0,0:0:0:0:
436,158,77587,1,0,0:0:0:0:
160,364,77717,5,0,0:0:0:0:
295,73,78891,5,0,0:0:0:0:
276,187,79020,1,0,0:0:0:0:
179,250,79151,1,0,0:0:0:0:
160,364,79282,1,0,0:0:0:0:
295,73,79543,6,0,P|333:0|358:121,1,288
254,159,79804,6,0,L|151:177,1,95.9999970703126
395,212,80065,2,0,B|347:220|347:220|303:240|303:240|255:249,1,143.999995605469
378,117,80326,2,0,B|430:126|430:126|475:150,2,95.9999970703126,0|0|0,2:0|0:0|0:0,0:0:0:0:
168,149,80717,6,0,L|176:102,1,47.9999985351563
182,130,80978,2,0,L|190:83,1,47.9999985351563
196,112,81239,2,0,L|203:64,1,47.9999985351563
164,326,81369,2,0,P|114:384|51:359,1,143.999995605469
161,231,81630,2,0,B|170:282|170:282|164:333,1,95.9999970703126,0|0,2:0|0:0,0:0:0:0:
89,178,81891,5,0,0:0:0:0:
183,338,82021,2,0,L|286:356,1,95.9999970703126
65,174,82282,5,0,0:0:0:0:
205,352,82412,2,0,L|308:370,1,95.9999970703126
41,170,82673,5,0,0:0:0:0:
227,366,82804,2,0,L|330:384,1,95.9999970703126
17,166,83065,5,0,0:0:0:0:
310,292,83195,1,0,0:0:0:0:
384,124,83325,1,0,0:0:0:0:
128,313,83456,1,0,0:0:0:0:
384,124,83717,6,0,P|462:149|347:195,1,288
312,90,83978,6,0,L|294:-13,1,95.9999970703126
259,231,84239,2,0,B|251:183|251:183|231:139|231:139|222:91,1,143.999995605469
354,214,84500,2,0,B|345:266|345:266|321:311,2,95.9999970703126,0|0|0,2:0|0:0|0:0,0:0:0:0:
171,277,84891,6,0,L|164:229,1,47.9999985351563
164,299,85151,2,0,L|157:251,1,47.9999985351563
157,321,85412,2,0,L|150:273,1,47.9999985351563
129,85,85543,2,0,P|79:27|16:52,1,143.999995605469
126,180,85804,2,0,B|135:129|135:129|129:78,1,95.9999970703126,0|0,2:0|0:0,0:0:0:0:
48,265,86065,5,0,0:0:0:0:
126,59,86195,2,0,L|109:153,1,95.9999970703126
24,269,86456,5,0,0:0:0:0:
120,33,86586,2,0,L|103:127,1,95.9999970703126
0,273,86847,5,0,0:0:0:0:
114,8,86978,2,0,L|97:102,1,95.9999970703126
49,369,87238,5,0,0:0:0:0:
294,161,87369,1,0,0:0:0:0:
414,300,87499,1,0,0:0:0:0:
113,194,87630,1,0,0:0:0:0:
414,300,87891,6,0,P|490:268|371:232,1,288
293,355,88152,6,0,P|178:350|256:266,1,288
267,270,89130,1,0,0:0:0:0:
277,276,89195,1,0,0:0:0:0:
