osu file format v14

[General]
AudioFilename: audio.mp3
AudioLeadIn: 0
PreviewTime: 62225
Countdown: 0
SampleSet: Soft
StackLeniency: 1
Mode: 0
LetterboxInBreaks: 0
WidescreenStoryboard: 1

[Editor]
DistanceSpacing: 2.2
BeatDivisor: 4
GridSize: 4
TimelineZoom: 2.5

[Metadata]
Title:Friend Shitai
TitleUnicode:ふ・れ・ん・ど・し・た・い
Artist:Wakasa Yuuri (CV: M.A.O)
ArtistUnicode:若狭悠里 (CV: M・A・O)
Creator:zan
Version:fleur's Light Insane
Source:がっこうぐらし!
Tags:ayucchi creamy candy fleuress xiqingwa zan1to gakkou gurashi school live tv size cut rii rii-san version anime school-live opening living club takeya yuki 丈槍由紀 minase inori 水瀬いのり ebisuzawa kurumi 恵飛須沢胡桃 ozawa ari 小澤亜李 ichimichi mao M·A·O 市道真央 naoki miki 直樹美紀 takahashi rie 高橋李依
BeatmapID:2176326
BeatmapSetID:1041232

[Difficulty]
HPDrainRate:5
CircleSize:4
OverallDifficulty:7.3
ApproachRate:8
SliderMultiplier:1.4
SliderTickRate:1

[Events]
//Background and Video events
0,0,"bg.jpg",0,0
Video,-148,"video.avi"
//Break Periods
2,34960,38874
//Storyboard Layer 0 (Background)
//Storyboard Layer 1 (Fail)
//Storyboard Layer 2 (Pass)
//Storyboard Layer 3 (Foreground)
//Storyboard Layer 4 (Overlay)
//Storyboard Sound Samples

[TimingPoints]
706,405.405405405405,4,2,1,50,1,0
706,-100,4,2,1,50,0,0
3949,-100,4,2,1,40,0,0
4658,-100,4,2,1,5,0,0
4760,-100,4,2,1,50,0,0
5469,-100,4,2,1,5,0,0
5570,-100,4,2,1,60,0,0
6280,-100,4,2,1,5,0,0
6381,-100,4,2,1,70,0,0
8408,-71.4285714285714,4,2,3,70,0,0
8712,-71.4285714285714,4,2,3,5,0,0
8814,-90.9090909090909,4,2,1,70,0,0
18037,-90.9090909090909,4,2,1,5,0,0
18138,-90.9090909090909,4,2,1,70,0,0
20976,-90.9090909090909,4,2,3,70,0,0
21787,-90.9090909090909,4,2,1,70,0,1
23712,-90.9090909090909,4,2,1,5,0,1
23814,-90.9090909090909,4,2,1,70,0,1
26955,-90.9090909090909,4,2,1,5,0,1
27057,-90.9090909090909,4,2,1,70,0,1
34760,-90.9090909090909,4,2,2,60,0,0
41651,-90.9090909090909,4,2,3,60,0,0
41854,-90.9090909090909,4,2,2,60,0,0
47733,-142.857142857143,4,2,1,40,0,0
48949,-142.857142857143,4,2,3,40,0,0
49151,-142.857142857143,4,2,1,40,0,0
52192,-142.857142857143,4,2,3,40,0,0
52395,-142.857142857143,4,2,1,40,0,0
54219,-100,4,2,1,50,0,0
57462,-100,4,2,1,40,0,0
58172,-100,4,2,1,5,0,0
58273,-100,4,2,1,50,0,0
58983,-100,4,2,1,5,0,0
59084,-100,4,2,1,60,0,0
59895,-100,4,2,1,70,0,0
61922,-90.9090909090909,4,2,3,70,0,0
62226,-90.9090909090909,4,2,3,5,0,0
62327,-83.3333333333333,4,2,1,70,0,1
87462,-83.3333333333333,4,2,3,70,0,0

[Colours]
Combo1 : 0,128,64
Combo2 : 255,128,0
Combo3 : 255,0,128
Combo4 : 128,0,255
Combo5 : 0,255,255

[HitObjects]
16,112,706,6,0,P|77:123|122:211,1,140,0|8,1:2|0:2,0:0:0:0:
123,184,1516,2,0,P|111:245|98:341,1,140,0|8,1:2|0:2,0:0:0:0:
246,190,2327,6,0,B|324:180|289:228|401:223,1,140,0|8,1:2|0:2,0:0:0:0:
120,59,3138,2,0,P|130:118|145:217,1,140,0|8,1:2|0:2,0:0:0:0:
46,355,3949,6,0,L|88:342,1,35,6|2,1:2|0:2,0:0:0:0:
91,275,4151,2,0,L|133:288,1,35,2|2,0:2|0:2,0:0:0:0:
185,346,4354,2,0,P|242:335|317:331,1,105,10|0,0:2|0:0,0:0:0:0:
288,331,4760,6,0,L|296:290,3,35,6|2|2|2,1:2|0:2|0:2|0:2,0:0:0:0:
366,259,5165,2,0,P|311:226|251:234,1,105,10|0,0:2|0:0,0:0:0:0:
271,226,5570,6,0,L|263:181,1,35,6|2,1:2|0:2,0:0:0:0:
194,130,5773,2,0,L|186:176,1,35,2|2,0:2|0:2,0:0:0:0:
283,108,5976,2,0,L|410:136,1,105,10|0,0:2|0:0,0:0:0:0:
385,131,6381,5,6,1:2:0:0:
416,115,6482,1,2,0:2:0:0:
450,120,6583,1,2,0:2:0:0:
474,144,6685,1,2,0:2:0:0:
479,178,6787,2,0,L|450:292,1,105,10|0,0:2|0:0,0:0:0:0:
72,164,8408,6,0,P|30:107|92:51,1,146.999995513916,14|0,0:2|0:0,0:0:0:0:
69,53,8814,6,0,P|66:105|59:145,1,77.0000023498536,6|2,1:2|0:2,0:0:0:0:
128,235,9219,1,10,0:2:0:0:
242,144,9422,2,0,P|317:119|396:122,1,154.000004699707,2|2,0:2|0:2,0:0:0:0:
447,230,10030,2,0,P|397:219|365:192,1,77.0000023498536,10|2,0:2|0:2,0:0:0:0:
399,36,10435,5,2,1:2:0:0:
465,85,10638,1,2,0:2:0:0:
505,16,10841,1,10,0:2:0:0:
392,134,11043,1,2,0:2:0:0:
254,23,11246,2,0,P|272:80|289:198,1,154.000004699707,2|8,1:2|0:2,0:0:0:0:
424,243,11854,1,2,0:2:0:0:
424,243,11955,1,2,0:2:0:0:
424,243,12057,6,0,P|370:226|340:231,1,77.0000023498536,2|2,1:2|0:2,0:0:0:0:
227,326,12462,1,10,0:2:0:0:
128,271,12665,2,0,L|87:108,1,154.000004699707,2|2,0:2|0:2,0:0:0:0:
201,25,13273,2,0,L|224:113,1,77.0000023498536,10|2,0:2|1:2,0:0:0:0:
220,99,13577,1,0,1:2:0:0:
220,99,13678,5,6,1:2:0:0:
147,192,13881,1,2,1:2:0:0:
38,75,14084,1,10,0:2:0:0:
243,191,14287,1,2,1:2:0:0:
243,191,14692,6,0,L|225:140,2,38.5000011749268,8|8|8,0:3|0:3|0:3,0:0:0:0:
339,162,15097,1,8,0:3:0:0:
339,162,15199,1,8,0:3:0:0:
339,162,15300,6,0,P|346:120|345:70,1,77.0000023498536,2|2,1:2|0:2,0:0:0:0:
482,203,15705,1,14,0:2:0:0:
381,268,15908,2,0,P|347:217|246:213,1,154.000004699707,2|2,0:2|0:2,0:0:0:0:
124,245,16516,2,0,P|79:235|31:226,1,77.0000023498536,10|2,0:2|0:2,0:0:0:0:
3,75,16922,5,2,1:2:0:0:
107,124,17124,1,2,0:2:0:0:
177,43,17327,1,10,0:2:0:0:
92,138,17530,1,2,0:2:0:0:
190,196,17733,2,0,P|210:235|225:290,1,77.0000023498536,2|0,1:2|0:2,0:0:0:0:
138,367,18138,1,8,0:2:0:0:
138,367,18341,1,2,0:2:0:0:
147,282,18543,5,6,1:2:0:0:
220,349,18746,1,2,0:2:0:0:
263,215,18949,1,10,0:2:0:0:
78,314,19151,1,2,1:2:0:0:
78,314,19557,6,0,L|68:218,1,77.0000023498536,2|10,1:2|0:2,0:0:0:0:
231,100,19962,2,0,P|166:147|71:154,1,154.000004699707,6|2,1:2|1:2,0:0:0:0:
41,77,20570,2,0,P|50:16|41:-14,1,77.0000023498536,2|2,1:2|1:2,0:0:0:0:
0,234,20976,5,14,0:2:0:0:
0,234,21787,5,6,1:2:0:0:
137,175,21989,2,0,L|126:254,1,77.0000023498536,2|10,0:2|0:2,0:0:0:0:
270,362,22395,2,0,P|347:350|366:260,1,154.000004699707,2|2,0:2|0:2,0:0:0:0:
504,184,23003,2,0,P|445:174|420:164,1,77.0000023498536,10|2,0:2|0:2,0:0:0:0:
335,38,23408,6,0,L|287:157,1,115.50000352478,2|0,1:2|0:0,0:0:0:0:
292,146,23814,2,0,P|263:97|241:82,1,77.0000023498536,10|0,0:2|0:0,0:0:0:0:
207,267,24219,2,0,P|285:249|374:243,1,154.000004699707,2|8,1:2|0:2,0:0:0:0:
358,242,25030,5,2,1:2:0:0:
325,369,25233,2,0,P|285:355|246:324,1,77.0000023498536,2|10,0:2|0:2,0:0:0:0:
94,264,25638,2,0,P|142:219|117:124,1,154.000004699707,2|2,0:2|0:2,0:0:0:0:
19,33,26246,2,0,P|74:44|114:43,1,77.0000023498536,10|2,0:2|0:2,0:0:0:0:
319,21,26651,6,0,L|291:169,1,115.50000352478,6|0,1:2|0:0,0:0:0:0:
297,134,27057,1,8,0:2:0:0:
385,98,27260,1,2,0:2:0:0:
210,120,27462,6,0,L|238:255,1,115.50000352478,6|2,1:2|1:2,0:0:0:0:
233,233,27868,2,0,L|230:298,3,38.5000011749268,2|2|2|2,1:2|1:2|1:2|1:2,0:0:0:0:
163,326,28273,6,0,P|145:268|152:234,1,77.0000023498536,6|2,1:2|0:2,0:0:0:0:
263,154,28678,1,10,0:2:0:0:
398,252,28881,2,0,P|449:249|506:232,1,77.0000023498536,2|0,0:2|1:2,0:0:0:0:
352,176,29287,1,2,0:2:0:0:
332,319,29489,2,0,L|315:240,1,77.0000023498536,10|2,0:2|0:2,0:0:0:0:
444,81,29895,6,0,L|435:178,1,77.0000023498536,2|0,1:2|0:0,0:0:0:0:
245,170,30300,2,0,P|207:150|170:144,1,77.0000023498536,10|0,0:2|0:0,0:0:0:0:
334,85,30705,2,0,P|340:156|352:261,1,154.000004699707,2|8,1:2|0:2,0:0:0:0:
434,372,31314,1,2,0:2:0:0:
475,232,31516,5,6,1:2:0:0:
342,317,31719,1,2,0:2:0:0:
246,193,31922,1,10,0:2:0:0:
379,108,32125,1,2,1:2:0:0:
379,108,32530,5,2,1:2:0:0:
323,234,32733,1,10,0:2:0:0:
253,69,32935,1,2,1:2:0:0:
438,213,33138,5,6,1:2:0:0:
148,163,33543,5,6,1:2:0:0:
284,358,33949,5,6,1:2:0:0:
256,192,34050,12,4,34760,1:2:0:0:
188,98,39624,5,2,1:2:0:0:
223,185,39827,1,2,1:2:0:0:
198,269,40030,1,2,1:2:0:0:
132,157,40233,1,10,0:3:0:0:
299,58,40435,1,2,1:2:0:0:
232,168,40638,1,10,0:3:0:0:
88,65,40841,2,0,P|38:51|10:45,1,77.0000023498536,10|10,0:3|0:3,0:0:0:0:
13,239,41246,5,4,1:2:0:0:
13,239,41651,6,0,P|83:243|111:166,1,154.000004699707,14|2,0:2|1:2,0:0:0:0:
227,59,42260,1,2,0:2:0:0:
227,59,42361,1,2,0:0:0:0:
227,59,42462,2,0,P|264:59|318:72,1,77.0000023498536,8|2,0:2|0:2,0:0:0:0:
417,102,42868,6,0,L|403:13,1,77.0000023498536,2|2,1:2|0:2,0:0:0:0:
335,217,43273,2,0,L|348:127,1,77.0000023498536,10|2,0:2|0:2,0:0:0:0:
346,140,43577,1,0,0:0:0:0:
346,140,43678,2,0,P|275:155|169:149,1,154.000004699707,2|8,1:2|0:2,0:0:0:0:
86,106,44287,1,8,0:3:0:0:
147,287,44489,5,12,1:3:0:0:
147,287,44895,2,0,P|147:241|137:206,1,77.0000023498536,10|2,0:2|0:2,0:0:0:0:
85,347,45300,1,2,1:2:0:0:
224,244,45503,1,2,0:2:0:0:
292,367,45705,2,0,L|206:340,1,77.0000023498536,10|2,0:2|0:2,0:0:0:0:
34,237,46111,5,2,1:2:0:0:
96,161,46314,2,0,L|118:250,1,77.0000023498536,2|2,1:2|1:2,0:0:0:0:
301,283,46719,5,2,1:2:0:0:
301,283,47733,6,0,P|364:288|409:365,1,146.999995513916,6|2,1:2|1:2,0:0:0:0:
500,360,48543,2,0,P|489:302|484:252,1,97.9999970092774,2|14,1:2|0:2,0:0:0:0:
497,19,49354,6,0,P|456:58|396:67,1,97.9999970092774,2|2,1:2|0:2,0:0:0:0:
345,106,49962,2,0,P|308:96|279:90,1,48.9999985046387,2|2,1:2|1:2,0:0:0:0:
189,50,50368,2,0,L|201:105,2,48.9999985046387,0|8|0,0:0|0:2|0:0,0:0:0:0:
72,0,50976,6,0,P|63:67|41:152,1,146.999995513916,2|2,1:2|1:2,0:0:0:0:
0,225,51787,1,2,1:2:0:0:
0,225,51989,2,0,L|15:287,2,48.9999985046387,2|14|2,0:2|0:2|0:2,0:0:0:0:
89,240,52597,6,0,L|203:260,1,97.9999970092774,2|2,1:2|0:2,0:0:0:0:
255,301,53205,2,0,P|265:271|264:236,1,48.9999985046387,2|2,1:2|1:2,0:0:0:0:
266,253,53814,1,8,0:2:0:0:
272,260,54219,5,6,1:2:0:0:
348,147,54422,1,2,0:2:0:0:
434,219,54624,2,0,L|348:247,1,70,2|2,0:2|0:2,0:0:0:0:
341,379,55030,1,10,0:2:0:0:
341,379,55435,6,0,L|326:304,1,70,6|2,1:2|0:2,0:0:0:0:
428,161,55841,2,0,L|418:245,1,70,2|2,0:2|0:2,0:0:0:0:
512,294,56246,1,10,0:2:0:0:
512,294,56449,1,2,0:2:0:0:
432,333,56651,6,0,P|372:299|283:309,1,140,6|2,1:2|0:2,0:0:0:0:
215,362,57260,1,2,0:2:0:0:
99,287,57462,6,0,L|67:272,3,35,6|2|2|2,1:2|0:2|0:2|0:2,0:0:0:0:
125,359,57868,2,0,P|127:289|133:234,1,105,2|0,0:2|0:0,0:0:0:0:
130,254,58273,6,0,L|176:239,1,35,6|2,1:2|0:2,0:0:0:0:
187,166,58476,2,0,L|233:181,1,35,2|2,0:2|0:2,0:0:0:0:
262,265,58678,2,0,P|323:231|322:180,1,105,2|0,0:2|0:0,0:0:0:0:
328,202,59084,5,6,1:2:0:0:
332,176,59185,1,2,0:2:0:0:
336,150,59286,1,2,0:2:0:0:
341,124,59388,1,2,0:2:0:0:
345,98,59489,6,0,L|395:91,3,35,2|0|0|0,0:2|0:0|0:0|0:0,0:0:0:0:
265,121,59895,6,0,L|215:112,1,35,6|2,1:2|0:2,0:0:0:0:
359,180,60097,2,0,L|411:164,1,35,2|2,0:2|0:2,0:0:0:0:
283,244,60300,6,0,L|277:199,3,35,2|0|0|0,0:2|0:0|0:0|0:0,0:0:0:0:
100,23,61922,6,0,P|103:66|120:169,1,115.50000352478,14|0,0:2|0:0,0:0:0:0:
113,137,62327,6,0,P|158:122|195:122,1,83.9999974365235,6|2,1:2|0:2,0:0:0:0:
299,198,62733,1,10,0:2:0:0:
393,99,62935,2,0,L|364:267,1,167.999994873047,2|2,0:2|0:2,0:0:0:0:
483,379,63543,2,0,L|499:291,1,83.9999974365235,10|2,0:2|0:2,0:0:0:0:
485,113,63949,5,2,1:2:0:0:
424,198,64151,1,2,0:2:0:0:
404,77,64354,1,10,0:2:0:0:
510,225,64557,1,2,0:2:0:0:
510,225,64658,1,2,0:2:0:0:
510,225,64760,2,0,P|418:231|365:281,1,167.999994873047,2|8,1:2|0:2,0:0:0:0:
295,377,65368,1,2,0:2:0:0:
169,296,65570,5,2,1:2:0:0:
169,296,65773,2,0,P|123:313|76:321,1,83.9999974365235,2|10,0:2|0:2,0:0:0:0:
128,186,66178,2,0,P|185:179|271:250,1,167.999994873047,2|2,0:2|0:2,0:0:0:0:
435,282,66787,2,0,L|423:181,1,83.9999974365235,10|2,0:2|1:2,0:0:0:0:
425,198,67091,1,0,1:2:0:0:
425,198,67192,5,6,1:2:0:0:
330,125,67395,1,2,1:2:0:0:
427,44,67597,1,10,0:2:0:0:
347,216,67800,1,2,1:2:0:0:
347,216,68205,6,0,P|303:232|261:235,1,83.9999974365235,8|8,0:3|0:3,0:0:0:0:
196,183,68611,1,8,0:3:0:0:
196,183,68712,1,8,0:3:0:0:
196,183,68814,2,0,L|179:92,1,83.9999974365235,2|2,1:2|0:2,0:0:0:0:
153,252,69219,5,14,0:2:0:0:
289,162,69422,2,0,P|368:171|417:258,1,167.999994873047,2|2,0:2|0:2,0:0:0:0:
334,377,70030,2,0,P|329:336|319:293,1,83.9999974365235,10|2,0:2|0:2,0:0:0:0:
199,140,70435,1,2,1:2:0:0:
69,216,70638,1,2,0:2:0:0:
125,40,70841,2,0,L|115:130,1,83.9999974365235,10|2,0:2|0:2,0:0:0:0:
0,202,71246,2,0,P|82:193|135:277,1,167.999994873047,2|8,1:2|0:2,0:0:0:0:
63,362,71854,5,2,0:2:0:0:
63,362,71955,1,2,0:2:0:0:
63,362,72057,2,0,P|42:322|51:282,1,83.9999974365235,2|2,1:2|0:2,0:0:0:0:
160,172,72462,1,10,0:2:0:0:
272,298,72665,2,0,L|463:279,1,167.999994873047,2|2,1:2|1:2,0:0:0:0:
486,187,73273,1,10,0:2:0:0:
386,360,73476,5,6,1:2:0:0:
386,360,73881,5,8,0:3:0:0:
386,360,73983,1,8,0:3:0:0:
386,360,74084,1,8,0:3:0:0:
349,275,74287,1,8,1:3:0:0:
486,321,74489,5,2,1:2:0:0:
298,340,74692,1,2,1:2:0:0:
410,158,74895,2,0,P|423:206|426:263,1,83.9999974365235,2|2,1:2|0:2,0:0:0:0:
218,362,75300,6,0,P|106:320|46:339,1,167.999994873047,6|10,1:2|0:2,0:0:0:0:
58,181,75908,2,0,L|70:83,1,83.9999974365235,2|0,0:2|1:2,0:0:0:0:
196,22,76314,1,2,0:2:0:0:
268,144,76516,2,0,P|322:136|373:110,1,83.9999974365235,10|2,0:2|0:2,0:0:0:0:
348,124,76820,1,2,0:2:0:0:
348,124,76922,5,2,1:2:0:0:
302,34,77124,1,2,0:2:0:0:
173,122,77327,2,0,L|193:220,1,83.9999974365235,10|2,0:2|0:2,0:0:0:0:
179,360,77733,2,0,P|224:322|328:343,1,167.999994873047,2|8,1:2|0:2,0:0:0:0:
457,371,78341,1,2,0:2:0:0:
361,216,78543,5,2,1:2:0:0:
256,304,78746,1,2,0:2:0:0:
413,289,78949,1,10,0:2:0:0:
285,197,79151,2,0,P|275:109|274:18,1,167.999994873047,2|2,0:2|0:2,0:0:0:0:
432,40,79760,2,0,L|346:57,1,83.9999974365235,10|2,0:2|1:2,0:0:0:0:
177,138,80165,5,6,1:2:0:0:
286,225,80368,1,2,1:2:0:0:
260,94,80570,1,10,0:2:0:0:
193,296,80773,1,2,1:2:0:0:
193,296,81178,5,8,0:3:0:0:
193,296,81280,1,8,0:3:0:0:
193,296,81381,2,0,P|242:307|270:329,1,83.9999974365235,8|8,0:3|0:3,0:0:0:0:
391,227,81787,6,0,L|379:126,1,83.9999974365235,2|2,1:2|0:2,0:0:0:0:
479,266,82192,1,14,0:2:0:0:
349,349,82395,2,0,P|309:290|217:301,1,167.999994873047,2|2,0:2|0:2,0:0:0:0:
48,268,83003,2,0,P|60:321|68:369,1,83.9999974365235,10|2,0:2|0:2,0:0:0:0:
149,221,83408,5,2,1:2:0:0:
20,179,83611,1,2,0:2:0:0:
119,51,83814,1,10,0:2:0:0:
33,191,84016,1,2,0:2:0:0:
12,23,84219,2,0,L|103:67,1,83.9999974365235,2|0,1:2|0:2,0:0:0:0:
241,177,84624,2,0,L|335:160,1,83.9999974365235,8|2,0:2|0:2,0:0:0:0:
323,162,84928,1,2,0:2:0:0:
323,162,85030,5,6,1:2:0:0:
464,215,85233,1,2,0:2:0:0:
412,359,85435,1,10,0:2:0:0:
271,306,85638,1,2,1:2:0:0:
271,306,86043,2,0,L|176:301,1,83.9999974365235,2|10,1:2|0:2,0:0:0:0:
15,191,86449,6,0,P|90:201|112:101,1,167.999994873047,6|2,1:2|1:2,0:0:0:0:
32,21,87057,1,2,1:2:0:0:
214,90,87260,1,2,1:2:0:0:
87,252,87462,1,14,0:2:0:0:
